  0
SECTION
  2
HEADER
  9
$ACADVER
  1
AC1015
  9
$ACADMAINTVER
 70
    20
  9
$DWGCODEPAGE
  3
ANSI_1252
  9
$INSBASE
 10
0.0
 20
0.0
 30
0.0
  9
$EXTMIN
 10
24.99115396483961
 20
-9.322086598348562
 30
-0.0015258207003583
  9
$EXTMAX
 10
35.80089205354364
 20
-1.01487562853174
 30
0.0000000349246037
  9
$LIMMIN
 10
0.2359522602697649
 20
3.101955288426339
  9
$LIMMAX
 10
10.77946715011551
 20
3.247206699522455
  9
$ORTHOMODE
 70
     0
  9
$REGENMODE
 70
     1
  9
$FILLMODE
 70
     1
  9
$QTEXTMODE
 70
     0
  9
$MIRRTEXT
 70
     1
  9
$LTSCALE
 40
1.0
  9
$ATTMODE
 70
     1
  9
$TEXTSIZE
 40
0.2
  9
$TRACEWID
 40
0.05
  9
$TEXTSTYLE
  7
TECHNIC
  9
$CLAYER
  8
0
  9
$CELTYPE
  6
ByLayer
  9
$CECOLOR
 62
   256
  9
$CELTSCALE
 40
1.0
  9
$DISPSILH
 70
     0
  9
$DIMSCALE
 40
1.0
  9
$DIMASZ
 40
0.18
  9
$DIMEXO
 40
0.0625
  9
$DIMDLI
 40
0.38
  9
$DIMRND
 40
0.0
  9
$DIMDLE
 40
0.0
  9
$DIMEXE
 40
0.18
  9
$DIMTP
 40
0.0
  9
$DIMTM
 40
0.0
  9
$DIMTXT
 40
0.18
  9
$DIMCEN
 40
0.09
  9
$DIMTSZ
 40
0.0
  9
$DIMTOL
 70
     0
  9
$DIMLIM
 70
     0
  9
$DIMTIH
 70
     1
  9
$DIMTOH
 70
     1
  9
$DIMSE1
 70
     0
  9
$DIMSE2
 70
     0
  9
$DIMTAD
 70
     0
  9
$DIMZIN
 70
     0
  9
$DIMBLK
  1

  9
$DIMASO
 70
     1
  9
$DIMSHO
 70
     0
  9
$DIMPOST
  1

  9
$DIMAPOST
  1

  9
$DIMALT
 70
     0
  9
$DIMALTD
 70
     2
  9
$DIMALTF
 40
25.4
  9
$DIMLFAC
 40
1.0
  9
$DIMTOFL
 70
     0
  9
$DIMTVP
 40
0.0
  9
$DIMTIX
 70
     0
  9
$DIMSOXD
 70
     0
  9
$DIMSAH
 70
     0
  9
$DIMBLK1
  1

  9
$DIMBLK2
  1

  9
$DIMSTYLE
  2
Standard
  9
$DIMCLRD
 70
     0
  9
$DIMCLRE
 70
     0
  9
$DIMCLRT
 70
     0
  9
$DIMTFAC
 40
1.0
  9
$DIMGAP
 40
0.09
  9
$DIMJUST
 70
     0
  9
$DIMSD1
 70
     0
  9
$DIMSD2
 70
     0
  9
$DIMTOLJ
 70
     1
  9
$DIMTZIN
 70
     0
  9
$DIMALTZ
 70
     0
  9
$DIMALTTZ
 70
     0
  9
$DIMUPT
 70
     0
  9
$DIMDEC
 70
     3
  9
$DIMTDEC
 70
     3
  9
$DIMALTU
 70
     2
  9
$DIMALTTD
 70
     2
  9
$DIMTXSTY
  7
TECHNIC
  9
$DIMAUNIT
 70
     0
  9
$DIMADEC
 70
     0
  9
$DIMALTRND
 40
0.0
  9
$DIMAZIN
 70
     0
  9
$DIMDSEP
 70
    46
  9
$DIMATFIT
 70
     3
  9
$DIMFRAC
 70
     0
  9
$DIMLDRBLK
  1

  9
$DIMLUNIT
 70
     2
  9
$DIMLWD
 70
    -2
  9
$DIMLWE
 70
    -2
  9
$DIMTMOVE
 70
     0
  9
$LUNITS
 70
     2
  9
$LUPREC
 70
     3
  9
$SKETCHINC
 40
0.1
  9
$FILLETRAD
 40
0.0
  9
$AUNITS
 70
     0
  9
$AUPREC
 70
     0
  9
$MENU
  1
acad
  9
$ELEVATION
 40
0.0
  9
$PELEVATION
 40
0.0
  9
$THICKNESS
 40
0.0
  9
$LIMCHECK
 70
     0
  9
$CHAMFERA
 40
0.0
  9
$CHAMFERB
 40
0.0
  9
$CHAMFERC
 40
0.0
  9
$CHAMFERD
 40
0.0
  9
$SKPOLY
 70
     0
  9
$TDCREATE
 40
2458080.687511574
  9
$TDUCREATE
 40
2458080.895847211
  9
$TDUPDATE
 40
2459838.480405093
  9
$TDUUPDATE
 40
2459838.647071759
  9
$TDINDWG
 40
0.6429726852
  9
$TDUSRTIMER
 40
0.6429726505
  9
$USRTIMER
 70
     1
  9
$ANGBASE
 50
0.0
  9
$ANGDIR
 70
     0
  9
$PDMODE
 70
     0
  9
$PDSIZE
 40
0.0
  9
$PLINEWID
 40
0.0
  9
$SPLFRAME
 70
     0
  9
$SPLINETYPE
 70
     6
  9
$SPLINESEGS
 70
     8
  9
$HANDSEED
  5
2A9
  9
$SURFTAB1
 70
     6
  9
$SURFTAB2
 70
     6
  9
$SURFTYPE
 70
     6
  9
$SURFU
 70
     6
  9
$SURFV
 70
     6
  9
$UCSBASE
  2

  9
$UCSNAME
  2

  9
$UCSORG
 10
0.0
 20
0.0
 30
0.0
  9
$UCSXDIR
 10
1.0
 20
0.0
 30
0.0
  9
$UCSYDIR
 10
0.0
 20
1.0
 30
0.0
  9
$UCSORTHOREF
  2

  9
$UCSORTHOVIEW
 70
     0
  9
$UCSORGTOP
 10
0.0
 20
0.0
 30
0.0
  9
$UCSORGBOTTOM
 10
0.0
 20
0.0
 30
0.0
  9
$UCSORGLEFT
 10
0.0
 20
0.0
 30
0.0
  9
$UCSORGRIGHT
 10
0.0
 20
0.0
 30
0.0
  9
$UCSORGFRONT
 10
0.0
 20
0.0
 30
0.0
  9
$UCSORGBACK
 10
0.0
 20
0.0
 30
0.0
  9
$PUCSBASE
  2

  9
$PUCSNAME
  2

  9
$PUCSORG
 10
0.0
 20
0.0
 30
0.0
  9
$PUCSXDIR
 10
1.0
 20
0.0
 30
0.0
  9
$PUCSYDIR
 10
0.0
 20
1.0
 30
0.0
  9
$PUCSORTHOREF
  2

  9
$PUCSORTHOVIEW
 70
     0
  9
$PUCSORGTOP
 10
0.0
 20
0.0
 30
0.0
  9
$PUCSORGBOTTOM
 10
0.0
 20
0.0
 30
0.0
  9
$PUCSORGLEFT
 10
0.0
 20
0.0
 30
0.0
  9
$PUCSORGRIGHT
 10
0.0
 20
0.0
 30
0.0
  9
$PUCSORGFRONT
 10
0.0
 20
0.0
 30
0.0
  9
$PUCSORGBACK
 10
0.0
 20
0.0
 30
0.0
  9
$USERI1
 70
     0
  9
$USERI2
 70
     0
  9
$USERI3
 70
     0
  9
$USERI4
 70
     0
  9
$USERI5
 70
     0
  9
$USERR1
 40
0.0
  9
$USERR2
 40
0.0
  9
$USERR3
 40
0.0
  9
$USERR4
 40
0.0
  9
$USERR5
 40
0.0
  9
$WORLDVIEW
 70
     1
  9
$SHADEDGE
 70
     3
  9
$SHADEDIF
 70
    70
  9
$TILEMODE
 70
     1
  9
$MAXACTVP
 70
    16
  9
$PINSBASE
 10
0.0
 20
0.0
 30
0.0
  9
$PLIMCHECK
 70
     0
  9
$PEXTMIN
 10
1.000000000000000E+20
 20
1.000000000000000E+20
 30
1.000000000000000E+20
  9
$PEXTMAX
 10
-1.000000000000000E+20
 20
-1.000000000000000E+20
 30
-1.000000000000000E+20
  9
$PLIMMIN
 10
0.0
 20
0.0
  9
$PLIMMAX
 10
12.0
 20
9.0
  9
$UNITMODE
 70
     0
  9
$VISRETAIN
 70
     0
  9
$PLINEGEN
 70
     0
  9
$PSLTSCALE
 70
     0
  9
$TREEDEPTH
 70
  3020
  9
$CMLSTYLE
  2
Standard
  9
$CMLJUST
 70
     0
  9
$CMLSCALE
 40
1.0
  9
$PROXYGRAPHICS
 70
     1
  9
$MEASUREMENT
 70
     0
  9
$CELWEIGHT
370
    -1
  9
$ENDCAPS
280
     0
  9
$JOINSTYLE
280
     0
  9
$LWDISPLAY
290
     0
  9
$INSUNITS
 70
     0
  9
$HYPERLINKBASE
  1

  9
$STYLESHEET
  1

  9
$XEDIT
290
     1
  9
$CEPSNTYPE
380
     0
  9
$PSTYLEMODE
290
     1
  9
$FINGERPRINTGUID
  2
{F163CDCE-5737-1A46-8640-C13B59DC5BA6}
  9
$VERSIONGUID
  2
{CEB2AE38-374B-414E-9806-DE49A4D3C060}
  9
$EXTNAMES
290
     1
  9
$PSVPSCALE
 40
0.0
  9
$OLESTARTUP
290
     0
  0
ENDSEC
  0
SECTION
  2
CLASSES
  0
CLASS
  1
ACDBDICTIONARYWDFLT
  2
AcDbDictionaryWithDefault
  3
ObjectDBX Classes
 90
        0
280
     0
281
     0
  0
CLASS
  1
MATERIAL
  2
AcDbMaterial
  3
ObjectDBX Classes
 90
     1153
280
     0
281
     0
  0
CLASS
  1
VISUALSTYLE
  2
AcDbVisualStyle
  3
ObjectDBX Classes
 90
     4095
280
     0
281
     0
  0
CLASS
  1
TABLESTYLE
  2
AcDbTableStyle
  3
ObjectDBX Classes
 90
     4095
280
     0
281
     0
  0
CLASS
  1
SCALE
  2
AcDbScale
  3
ObjectDBX Classes
 90
     1153
280
     0
281
     0
  0
CLASS
  1
MLEADERSTYLE
  2
AcDbMLeaderStyle
  3
ACDB_MLEADERSTYLE_CLASS
 90
     4095
280
     0
281
     0
  0
CLASS
  1
CELLSTYLEMAP
  2
AcDbCellStyleMap
  3
ObjectDBX Classes
 90
     1152
280
     0
281
     0
  0
CLASS
  1
DICTIONARYVAR
  2
AcDbDictionaryVar
  3
ObjectDBX Classes
 90
        0
280
     0
281
     0
  0
CLASS
  1
AEC_REFEDIT_STATUS_TRACKER
  2
AecDbRefEditStatusTracker
  3
AecArchBase70|Product Desc: Autodesk Architectural Desktop 2007 |Company: Autodesk,Inc. |WEB Address: www.autodesk.com
 90
    32897
280
     1
281
     0
  0
CLASS
  1
NPOCOLLECTION
  2
AcDbImpNonPersistentObjectsCollection
  3
ObjectDBX Classes
 90
    33921
280
     0
281
     0
  0
CLASS
  1
DIMASSOC
  2
AcDbDimAssoc
  3
"AcDbDimAssoc|Product Desc:     AcDim ARX App For Dimension|Company:          Autodesk, Inc.|WEB Address:      www.autodesk.com"
 90
    32768
280
     0
281
     0
  0
CLASS
  1
SORTENTSTABLE
  2
AcDbSortentsTable
  3
ObjectDBX Classes
 90
        0
280
     0
281
     0
  0
CLASS
  1
ACDBSECTIONVIEWSTYLE
  2
AcDbSectionViewStyle
  3
ObjectDBX Classes
 90
     1025
280
     0
281
     0
  0
CLASS
  1
ACDBDETAILVIEWSTYLE
  2
AcDbDetailViewStyle
  3
ObjectDBX Classes
 90
     1025
280
     0
281
     0
  0
CLASS
  1
PLOTSETTINGS
  2
AcDbPlotSettings
  3
ObjectDBX Classes
 90
    32768
280
     0
281
     0
  0
CLASS
  1
SOLID_BACKGROUND
  2
AcDbSolidBackground
  3
SCENEOE
 90
    36863
280
     0
281
     0
  0
CLASS
  1
ACDBPLACEHOLDER
  2
AcDbPlaceHolder
  3
ObjectDBX Classes
 90
        0
280
     0
281
     0
  0
CLASS
  1
LAYOUT
  2
AcDbLayout
  3
ObjectDBX Classes
 90
        0
280
     0
281
     0
  0
ENDSEC
  0
SECTION
  2
TABLES
  0
TABLE
  2
VPORT
  5
2A
102
{ACAD_XDICTIONARY
360
2F
102
}
330
0
100
AcDbSymbolTable
 70
     1
  0
VPORT
  5
2B
330
2A
100
AcDbSymbolTableRecord
100
AcDbViewportTableRecord
  2
*Active
 70
     0
 10
0.0
 20
0.0
 11
1.0
 21
1.0
 12
30.39602300919162
 22
-5.168481113440151
 13
0.0
 23
0.0
 14
1.0
 24
1.0
 15
0.0
 25
0.0
 16
0.0
 26
0.0
 36
1.0
 17
0.0
 27
0.0
 37
0.0
 40
8.366689807309544
 41
1.887694145758661
 42
50.0
 43
0.0
 44
0.0
 50
0.0
 51
0.0
 71
     0
 72
   100
 73
     1
 74
     0
 75
     0
 76
     0
 77
     0
 78
     0
281
     0
 65
     1
110
0.0
120
0.0
130
0.0
111
1.0
121
0.0
131
0.0
112
0.0
122
1.0
132
0.0
 79
     0
146
0.0
1001
ACAD_NAV_VCDISPLAY
1070
     3
  0
ENDTAB
  0
TABLE
  2
LTYPE
  5
25
330
0
100
AcDbSymbolTable
 70
     1
  0
LTYPE
  5
26
330
25
100
AcDbSymbolTableRecord
100
AcDbLinetypeTableRecord
  2
ByBlock
 70
     0
  3

 72
    65
 73
     0
 40
0.0
  0
LTYPE
  5
27
330
25
100
AcDbSymbolTableRecord
100
AcDbLinetypeTableRecord
  2
ByLayer
 70
     0
  3

 72
    65
 73
     0
 40
0.0
  0
LTYPE
  5
16
330
25
100
AcDbSymbolTableRecord
100
AcDbLinetypeTableRecord
  2
CONTINUOUS
 70
     0
  3
Solid line
 72
    65
 73
     0
 40
0.0
  0
ENDTAB
  0
TABLE
  2
LAYER
  5
1F
102
{ACAD_XDICTIONARY
360
20
102
}
330
0
100
AcDbSymbolTable
 70
     4
  0
LAYER
  5
6
102
{ACAD_XDICTIONARY
360
7
102
}
330
1F
100
AcDbSymbolTableRecord
100
AcDbLayerTableRecord
  2
0
 70
     0
 62
     7
  6
CONTINUOUS
370
    -3
390
9
  0
LAYER
  5
84
102
{ACAD_XDICTIONARY
360
85
102
}
330
1F
100
AcDbSymbolTableRecord
100
AcDbLayerTableRecord
  2
BLU
 70
     0
 62
     5
  6
CONTINUOUS
370
    -3
390
9
  0
LAYER
  5
200
330
1F
100
AcDbSymbolTableRecord
100
AcDbLayerTableRecord
  2
DEFPOINTS
 70
     0
 62
     7
  6
CONTINUOUS
290
     0
370
    -3
390
9
  0
LAYER
  5
8C
102
{ACAD_XDICTIONARY
360
8D
102
}
330
1F
100
AcDbSymbolTableRecord
100
AcDbLayerTableRecord
  2
TEXT
 70
     0
 62
     7
  6
CONTINUOUS
370
    -3
390
9
1001
AcAecLayerStandard
1000

1000

1001
AcCmTransparency
1071
        0
  0
ENDTAB
  0
TABLE
  2
STYLE
  5
22
330
0
100
AcDbSymbolTable
 70
     2
  0
STYLE
  5
23
330
22
100
AcDbSymbolTableRecord
100
AcDbTextStyleTableRecord
  2
STANDARD
 70
     0
 40
0.0
 41
1.0
 50
0.0
 71
     0
 42
0.2
  3
txt
  4

  0
STYLE
  5
34
330
22
100
AcDbSymbolTableRecord
100
AcDbTextStyleTableRecord
  2
TECHNIC
 70
     0
 40
0.0
 41
1.0
 50
0.0
 71
     0
 42
0.2
  3
swissck.ttf
  4

1001
ACAD
1000
Swis721 BlkCn BT
1071
       34
  0
ENDTAB
  0
TABLE
  2
VIEW
  5
28
330
0
100
AcDbSymbolTable
 70
     0
  0
ENDTAB
  0
TABLE
  2
UCS
  5
29
330
0
100
AcDbSymbolTable
 70
     0
  0
ENDTAB
  0
TABLE
  2
APPID
  5
30
330
0
100
AcDbSymbolTable
 70
     9
  0
APPID
  5
31
330
30
100
AcDbSymbolTableRecord
100
AcDbRegAppTableRecord
  2
ACAD
 70
     0
  0
APPID
  5
35
330
30
100
AcDbSymbolTableRecord
100
AcDbRegAppTableRecord
  2
ACAD_DSTYLE_DIMJAG
 70
     0
  0
APPID
  5
36
330
30
100
AcDbSymbolTableRecord
100
AcDbRegAppTableRecord
  2
ACAD_DSTYLE_DIMTALN
 70
     0
  0
APPID
  5
22E
330
30
100
AcDbSymbolTableRecord
100
AcDbRegAppTableRecord
  2
ACAD_DSTYLE_DIMRADIAL_EXTENSION
 70
     0
  0
APPID
  5
1A
330
30
100
AcDbSymbolTableRecord
100
AcDbRegAppTableRecord
  2
ACAD_PSEXT
 70
     0
  0
APPID
  5
2E
330
30
100
AcDbSymbolTableRecord
100
AcDbRegAppTableRecord
  2
ACAD_NAV_VCDISPLAY
 70
     0
  0
APPID
  5
8F
330
30
100
AcDbSymbolTableRecord
100
AcDbRegAppTableRecord
  2
AcAecLayerStandard
 70
     0
  0
APPID
  5
90
330
30
100
AcDbSymbolTableRecord
100
AcDbRegAppTableRecord
  2
AcCmTransparency
 70
     0
  0
APPID
  5
2A2
330
30
100
AcDbSymbolTableRecord
100
AcDbRegAppTableRecord
  2
ACAD_MLEADERVER
 70
     0
  0
ENDTAB
  0
TABLE
  2
DIMSTYLE
  5
32
330
0
100
AcDbSymbolTable
 70
     1
100
AcDbDimStyleTable
 71
     1
340
33
  0
DIMSTYLE
105
33
102
{ACAD_REACTORS
330
1F4
330
204
330
212
330
221
102
}
330
32
100
AcDbSymbolTableRecord
100
AcDbDimStyleTableRecord
  2
Standard
 70
     0
271
     3
272
     3
340
34
1001
ACAD_DSTYLE_DIMJAG
1070
   388
1040
1.5
1001
ACAD_DSTYLE_DIMTALN
1070
   392
1070
     0
  0
ENDTAB
  0
TABLE
  2
BLOCK_RECORD
  5
1
330
0
100
AcDbSymbolTable
 70
     4
  0
BLOCK_RECORD
  5
2
102
{ACAD_XDICTIONARY
360
3
102
}
330
1
100
AcDbSymbolTableRecord
100
AcDbBlockTableRecord
  2
*Model_Space
340
18
  0
BLOCK_RECORD
  5
1B
330
1
100
AcDbSymbolTableRecord
100
AcDbBlockTableRecord
  2
*Paper_Space
340
1E
  0
BLOCK_RECORD
  5
1F5
330
1
100
AcDbSymbolTableRecord
100
AcDbBlockTableRecord
  2
*D0
340
0
  0
BLOCK_RECORD
  5
205
330
1
100
AcDbSymbolTableRecord
100
AcDbBlockTableRecord
  2
*D1
340
0
  0
BLOCK_RECORD
  5
213
330
1
100
AcDbSymbolTableRecord
100
AcDbBlockTableRecord
  2
*D2
340
0
  0
BLOCK_RECORD
  5
222
330
1
100
AcDbSymbolTableRecord
100
AcDbBlockTableRecord
  2
*D3
340
0
  0
ENDTAB
  0
ENDSEC
  0
SECTION
  2
BLOCKS
  0
BLOCK
  5
5
330
2
100
AcDbEntity
  8
0
 62
     5
100
AcDbBlockBegin
  2
*Model_Space
 70
     0
 10
0.0
 20
0.0
 30
0.0
  3
*Model_Space
  1

  0
ENDBLK
  5
17
330
2
100
AcDbEntity
  8
0
 62
     5
100
AcDbBlockEnd
  0
BLOCK
  5
1C
330
1B
100
AcDbEntity
 67
     1
  8
0
 62
     5
100
AcDbBlockBegin
  2
*Paper_Space
 70
     0
 10
0.0
 20
0.0
 30
0.0
  3
*Paper_Space
  1

  0
ENDBLK
  5
1D
330
1B
100
AcDbEntity
 67
     1
  8
0
 62
     5
100
AcDbBlockEnd
  0
BLOCK
  5
1F6
330
1F5
100
AcDbEntity
  8
0
 62
     5
100
AcDbBlockBegin
  2
*D0
 70
     1
 10
0.0
 20
0.0
 30
0.0
  3
*D0
  1

  0
LINE
  5
1F7
330
1F5
100
AcDbEntity
  8
0
 62
     0
370
    -2
100
AcDbLine
 10
30.17779325370407
 20
-2.216133576787294
 30
0.0
 11
30.17779325370407
 21
-1.67612271424972
 31
0.0
  0
LINE
  5
1F8
330
1F5
100
AcDbEntity
  8
0
 62
     0
370
    -2
100
AcDbLine
 10
30.42779325370407
 20
-2.216133576787294
 30
0.0
 11
30.42779325370407
 21
-1.67612271424972
 31
0.0
  0
LINE
  5
1F9
330
1F5
100
AcDbEntity
  8
0
 62
     0
370
    -2
100
AcDbLine
 10
29.99779325370407
 20
-1.85612271424972
 30
0.0
 11
29.81779325370407
 21
-1.85612271424972
 31
0.0
  0
LINE
  5
1FA
330
1F5
100
AcDbEntity
  8
0
 62
     0
370
    -2
100
AcDbLine
 10
30.60779325370407
 20
-1.85612271424972
 30
0.0
 11
30.78779325370407
 21
-1.85612271424972
 31
0.0
  0
SOLID
  5
1FB
330
1F5
100
AcDbEntity
  8
0
 62
     0
100
AcDbTrace
 10
29.99779325370407
 20
-1.82612271424972
 30
0.0
 11
29.99779325370407
 21
-1.88612271424972
 31
0.0
 12
30.17779325370407
 22
-1.85612271424972
 32
0.0
 13
30.17779325370407
 23
-1.85612271424972
 33
0.0
  0
SOLID
  5
1FD
330
1F5
100
AcDbEntity
  8
0
 62
     0
100
AcDbTrace
 10
30.60779325370407
 20
-1.82612271424972
 30
0.0
 11
30.60779325370407
 21
-1.88612271424972
 31
0.0
 12
30.42779325370407
 22
-1.85612271424972
 32
0.0
 13
30.42779325370407
 23
-1.85612271424972
 33
0.0
  0
MTEXT
  5
1FE
330
1F5
100
AcDbEntity
  8
0
 62
     0
100
AcDbMText
 10
31.15708546149628
 20
-1.85612271424972
 30
0.0
 40
0.18
 41
0.0
 71
     5
 72
     1
  1
\A1;0.250
  7
TECHNIC
 73
     1
 44
1.0
1001
ACAD
1000
MTEXTBEGIN
1070
    73
1070
     1
1070
    44
1040
1.0
1070
    74
1070
     0
1000
MTEXTEND
  0
POINT
  5
1FF
330
1F5
100
AcDbEntity
  8
DEFPOINTS
 62
     0
100
AcDbPoint
 10
30.17779325370407
 20
-2.278633576787294
 30
0.0
  0
POINT
  5
201
330
1F5
100
AcDbEntity
  8
DEFPOINTS
 62
     0
100
AcDbPoint
 10
30.42779325370407
 20
-2.278633576787294
 30
0.0
  0
POINT
  5
202
330
1F5
100
AcDbEntity
  8
DEFPOINTS
 62
     0
100
AcDbPoint
 10
30.42779325370407
 20
-1.85612271424972
 30
0.0
  0
ENDBLK
  5
203
330
1F5
100
AcDbEntity
  8
0
100
AcDbBlockEnd
  0
BLOCK
  5
206
330
205
100
AcDbEntity
  8
0
100
AcDbBlockBegin
  2
*D1
 70
     1
 10
0.0
 20
0.0
 30
0.0
  3
*D1
  1

  0
LINE
  5
207
330
205
100
AcDbEntity
  8
0
 62
     0
370
    -2
100
AcDbLine
 10
27.99029325370407
 20
-2.928133576787294
 30
0.0
 11
27.18381613518907
 21
-2.928133576787294
 31
0.0
  0
LINE
  5
208
330
205
100
AcDbEntity
  8
0
 62
     0
370
    -2
100
AcDbLine
 10
27.99029325370407
 20
-3.361133576787296
 30
0.0
 11
27.18381613518907
 21
-3.361133576787296
 31
0.0
  0
LINE
  5
209
330
205
100
AcDbEntity
  8
0
 62
     0
370
    -2
100
AcDbLine
 10
27.36381613518907
 20
-2.748133576787294
 30
0.0
 11
27.36381613518907
 21
-2.568133576787295
 31
0.0
  0
LINE
  5
20A
330
205
100
AcDbEntity
  8
0
 62
     0
370
    -2
100
AcDbLine
 10
27.36381613518907
 20
-3.541133576787296
 30
0.0
 11
27.36381613518907
 21
-3.721133576787296
 31
0.0
  0
SOLID
  5
20B
330
205
100
AcDbEntity
  8
0
 62
     0
100
AcDbTrace
 10
27.33381613518907
 20
-2.748133576787294
 30
0.0
 11
27.39381613518907
 21
-2.748133576787294
 31
0.0
 12
27.36381613518907
 22
-2.928133576787294
 32
0.0
 13
27.36381613518907
 23
-2.928133576787294
 33
0.0
  0
SOLID
  5
20C
330
205
100
AcDbEntity
  8
0
 62
     0
100
AcDbTrace
 10
27.33381613518907
 20
-3.541133576787296
 30
0.0
 11
27.39381613518907
 21
-3.541133576787296
 31
0.0
 12
27.36381613518907
 22
-3.361133576787296
 32
0.0
 13
27.36381613518907
 23
-3.361133576787296
 33
0.0
  0
MTEXT
  5
20D
330
205
100
AcDbEntity
  8
0
 62
     0
100
AcDbMText
 10
27.36381613518906
 20
-3.144633576787303
 30
0.0
 40
0.18
 41
0.0
 71
     5
 72
     1
  1
\A1;0.433
  7
TECHNIC
 73
     1
 44
1.0
1001
ACAD
1000
MTEXTBEGIN
1070
    73
1070
     1
1070
    44
1040
1.0
1070
    74
1070
     0
1000
MTEXTEND
  0
POINT
  5
20E
330
205
100
AcDbEntity
  8
DEFPOINTS
 62
     0
100
AcDbPoint
 10
28.05279325370408
 20
-2.928133576787294
 30
0.0
  0
POINT
  5
20F
330
205
100
AcDbEntity
  8
DEFPOINTS
 62
     0
100
AcDbPoint
 10
28.05279325370408
 20
-3.361133576787296
 30
0.0
  0
POINT
  5
210
330
205
100
AcDbEntity
  8
DEFPOINTS
 62
     0
100
AcDbPoint
 10
27.36381613518907
 20
-3.361133576787296
 30
0.0
  0
ENDBLK
  5
211
330
205
100
AcDbEntity
  8
0
100
AcDbBlockEnd
  0
BLOCK
  5
214
330
213
100
AcDbEntity
  8
0
100
AcDbBlockBegin
  2
*D2
 70
     1
 10
0.0
 20
0.0
 30
0.0
  3
*D2
  1

  0
LINE
  5
215
330
213
100
AcDbEntity
  8
0
 62
     0
370
    -2
100
AcDbLine
 10
32.35691944449337
 20
-5.99038426430998
 30
0.0
 11
32.93216324800531
 21
-6.322511171649441
 31
0.0
  0
LINE
  5
216
330
213
100
AcDbEntity
  8
0
 62
     0
370
    -2
100
AcDbLine
 10
32.48191944449337
 20
-5.773884264309981
 30
0.0
 11
33.05716324800531
 21
-6.106011171649442
 31
0.0
  0
LINE
  5
217
330
213
100
AcDbEntity
  8
0
 62
     0
370
    -2
100
AcDbLine
 10
32.68627783846679
 20
-6.388392621057271
 30
0.0
 11
32.59627585840146
 21
-6.544276050530445
 31
0.0
  0
LINE
  5
218
330
213
100
AcDbEntity
  8
0
 62
     0
370
    -2
100
AcDbLine
 10
32.99128179859748
 20
-5.860125762110928
 30
0.0
 11
33.08128377866282
 21
-5.704242332637756
 31
0.0
  0
LINE
  5
219
330
213
100
AcDbEntity
  8
0
 62
     0
370
    -2
100
AcDbLine
 10
33.08128377866282
 20
-5.704242332637756
 30
0.0
 11
33.26128377866282
 21
-5.704242332637756
 31
0.0
  0
SOLID
  5
21A
330
213
100
AcDbEntity
  8
0
 62
     0
100
AcDbTrace
 10
32.66029726688793
 20
-6.373392291046383
 30
0.0
 11
32.71225841004567
 21
-6.403392951068163
 31
0.0
 12
32.77627981853215
 22
-6.232509191584098
 32
0.0
 13
32.77627981853215
 23
-6.232509191584098
 33
0.0
  0
SOLID
  5
21B
330
213
100
AcDbEntity
  8
0
 62
     0
100
AcDbTrace
 10
32.96530122701862
 20
-5.845125432100036
 30
0.0
 11
33.01726237017634
 21
-5.875126092121822
 31
0.0
 12
32.90127981853215
 22
-6.016009191584101
 32
0.0
 13
32.90127981853215
 23
-6.016009191584101
 33
0.0
  0
MTEXT
  5
21C
330
213
100
AcDbEntity
  8
0
 62
     0
100
AcDbMText
 10
33.63057598645503
 20
-5.704242332637756
 30
0.0
 40
0.18
 41
0.0
 71
     5
 72
     1
  1
\A1;0.250
  7
TECHNIC
 73
     1
 44
1.0
1001
ACAD
1000
MTEXTBEGIN
1070
    73
1070
     1
1070
    44
1040
1.0
1070
    74
1070
     0
1000
MTEXTEND
  0
POINT
  5
21D
330
213
100
AcDbEntity
  8
DEFPOINTS
 62
     0
100
AcDbPoint
 10
32.30279325370407
 20
-5.959133576787293
 30
0.0
  0
POINT
  5
21E
330
213
100
AcDbEntity
  8
DEFPOINTS
 62
     0
100
AcDbPoint
 10
32.42779325370408
 20
-5.742633576787294
 30
0.0
  0
POINT
  5
21F
330
213
100
AcDbEntity
  8
DEFPOINTS
 62
     0
100
AcDbPoint
 10
32.90127981853215
 20
-6.016009191584101
 30
0.0
  0
ENDBLK
  5
220
330
213
100
AcDbEntity
  8
0
100
AcDbBlockEnd
  0
BLOCK
  5
223
330
222
100
AcDbEntity
  8
0
100
AcDbBlockBegin
  2
*D3
 70
     1
 10
0.0
 20
0.0
 30
0.0
  3
*D3
  1

  0
LINE
  5
224
330
222
100
AcDbEntity
  8
0
 62
     0
370
    -2
100
AcDbLine
 10
33.00554740874505
 20
-2.422598900865481
 30
0.0
 11
32.82554740874505
 21
-2.422598900865478
 31
0.0
  0
LINE
  5
225
330
222
100
AcDbEntity
  8
0
 62
     0
370
    -2
100
AcDbLine
 10
32.82554740874505
 20
-2.422598900865478
 30
0.0
 11
32.63650731938593
 21
-2.559968027678274
 31
0.0
  0
MTEXT
  5
226
102
{ACAD_XDICTIONARY
360
227
102
}
330
222
100
AcDbEntity
  8
0
 62
     0
100
AcDbMText
 10
33.4497032529009
 20
-2.422598900865481
 30
0.0
 40
0.18
 41
0.0
 71
     5
 72
     1
  1
\A1;\U+22050.156
  7
TECHNIC
 73
     1
 44
1.0
1001
ACAD
1000
MTEXTBEGIN
1070
    73
1070
     1
1070
    44
1040
1.0
1070
    74
1070
     0
1000
MTEXTEND
  0
SOLID
  5
228
330
222
100
AcDbEntity
  8
0
 62
     0
100
AcDbTrace
 10
32.61887179041977
 20
-2.535698950273404
 30
0.0
 11
32.6541428483521
 21
-2.584237105083144
 31
0.0
 12
32.49089285495672
 22
-2.665781201475263
 32
0.0
 13
32.49089285495672
 23
-2.665781201475263
 33
0.0
  0
LINE
  5
229
330
222
100
AcDbEntity
  8
0
 62
     0
370
    -2
100
AcDbLine
 10
32.33779325370406
 20
-2.711633576787294
 30
0.0
 11
32.51779325370407
 21
-2.711633576787296
 31
0.0
  0
LINE
  5
22A
330
222
100
AcDbEntity
  8
0
 62
     0
370
    -2
100
AcDbLine
 10
32.42779325370408
 20
-2.801633576787297
 30
0.0
 11
32.42779325370408
 21
-2.621633576787294
 31
0.0
  0
POINT
  5
22B
330
222
100
AcDbEntity
  8
DEFPOINTS
 62
     0
100
AcDbPoint
 10
32.49089285495672
 20
-2.665781201475263
 30
0.0
  0
POINT
  5
22C
330
222
100
AcDbEntity
  8
DEFPOINTS
 62
     0
100
AcDbPoint
 10
32.36469365245141
 20
-2.75748595209932
 30
0.0
  0
ENDBLK
  5
22D
330
222
100
AcDbEntity
  8
0
100
AcDbBlockEnd
  0
ENDSEC
  0
SECTION
  2
ENTITIES
  0
LINE
  5
83
330
2
100
AcDbEntity
  8
BLU
100
AcDbLine
 10
24.99962435362879
 20
-1.016682873708395
 30
0.0
 11
24.99962435362879
 21
-9.317030509985217
 31
0.0
  0
LINE
  5
87
330
2
100
AcDbEntity
  8
BLU
100
AcDbLine
 10
35.79962435362879
 20
-1.016682873708395
 30
0.0
 11
35.79962435362879
 21
-9.317030509985217
 31
0.0
  0
LINE
  5
88
330
2
100
AcDbEntity
  8
BLU
100
AcDbLine
 10
24.99962435362879
 20
-9.317030509985217
 30
0.0
 11
35.79962435362879
 21
-9.317030509985217
 31
0.0
  0
LINE
  5
89
330
2
100
AcDbEntity
  8
BLU
100
AcDbLine
 10
24.99962435362879
 20
-8.564292871281532
 30
0.0
 11
35.79962435362879
 21
-8.564292871281532
 31
0.0
  0
LINE
  5
8A
330
2
100
AcDbEntity
  8
BLU
100
AcDbLine
 10
24.99962435362879
 20
-8.564292871281532
 30
0.0
 11
35.79962435362879
 21
-8.564292871281532
 31
0.0
  0
TEXT
  5
8B
330
2
100
AcDbEntity
  8
TEXT
 62
     7
100
AcDbText
 10
26.98825640540819
 20
-8.873425900809039
 30
0.0
 40
0.1734572550165357
  1
DIAMOND MANUFACTURING Co.
  7
TECHNIC
 72
     1
 11
28.51400444206662
 21
-8.873425900809039
 31
0.0
100
AcDbText
  0
LINE
  5
91
330
2
100
AcDbEntity
  8
BLU
 62
     3
100
AcDbLine
 10
26.52452298735496
 20
-9.088055629774643
 30
0.0
 11
26.52454435062632
 21
-9.088043295684167
 31
0.0
  0
LWPOLYLINE
  5
92
330
2
100
AcDbEntity
  8
BLU
 62
     3
100
AcDbPolyline
 90
        2
 70
     0
 43
0.0154176003961154
 10
26.17241917124283
 20
-8.986950075620407
 10
26.3192915409356
 20
-8.902153273441774
  0
LWPOLYLINE
  5
93
330
2
100
AcDbEntity
  8
BLU
 62
     3
100
AcDbPolyline
 90
        2
 70
     0
 43
0.0154176003961154
 10
26.25308982112597
 20
-9.126675739897599
 10
26.39996219081873
 20
-9.041878937718962
  0
LWPOLYLINE
  5
94
330
2
100
AcDbEntity
  8
BLU
 62
     3
100
AcDbPolyline
 90
        2
 70
     0
 43
0.0154176003961154
 10
26.40869291601477
 20
-9.057000997345456
 10
26.27540650257481
 20
-8.826142157308805
  0
LWPOLYLINE
  5
95
330
2
100
AcDbEntity
  8
BLU
 62
     3
100
AcDbPolyline
 90
        2
 70
     0
 43
0.0154176003961154
 10
26.42229120636209
 20
-8.741366718408531
 42
1.000145465123967
 10
26.27541883666932
 20
-8.826163520587167
 42
1.000145465123967
  0
LWPOLYLINE
  5
96
330
2
100
AcDbEntity
  8
BLU
 62
     3
100
AcDbPolyline
 90
        2
 70
     0
 43
0.0154176003961154
 10
26.40869291601477
 20
-9.057000997345459
 42
1.00014546512396
 10
26.55556528570754
 20
-8.972204195166826
 42
1.00014546512396
  0
LWPOLYLINE
  5
97
330
2
100
AcDbEntity
  8
BLU
 62
     3
100
AcDbPolyline
 90
        5
 70
     0
 43
0.0154176003961154
 10
26.42227887228466
 20
-8.741345355159744
 10
26.64692731040128
 20
-9.130447863818726
 10
26.79379968009405
 20
-9.045651061640091
 10
26.57571646448963
 20
-8.667919851935266
 10
26.42884409479687
 20
-8.7527166541139
  0
LWPOLYLINE
  5
98
330
2
100
AcDbEntity
  8
BLU
 62
     3
100
AcDbPolyline
 90
       16
 70
     1
 43
0.0154176003961154
 10
26.76602796189007
 20
-8.743121625920503
 42
0.0984914033571612
 10
26.73357291053059
 20
-8.749577337019847
 42
0.0984914033571629
 10
26.70605884653481
 20
-8.767961646824176
 42
0.0984914033571604
 10
26.68767453673048
 20
-8.795475710819962
 42
0.0984914033571598
 10
26.68121882563113
 20
-8.827930762179454
 42
0.0984914033571643
 10
26.68767453673048
 20
-8.860385813538949
 42
0.0984914033571657
 10
26.70605884653481
 20
-8.887899877534731
 42
0.0984914033571724
 10
26.73357291053059
 20
-8.906284187339061
 42
0.0984914033571721
 10
26.76602796189007
 20
-8.912739898438406
 42
0.0984914033571677
 10
26.79848301324958
 20
-8.906284187339061
 42
0.0984914033571684
 10
26.82599707724536
 20
-8.887899877534731
 42
0.098491403357166
 10
26.84438138704969
 20
-8.860385813538949
 42
0.0984914033571664
 10
26.85083709814904
 20
-8.827930762179454
 42
0.0984914033571604
 10
26.84438138704969
 20
-8.795475710819962
 42
0.0984914033571675
 10
26.82599707724536
 20
-8.767961646824176
 42
0.0984914033571651
 10
26.79848301324958
 20
-8.74957733701985
 42
0.0984914033571695
  0
LWPOLYLINE
  5
99
330
2
100
AcDbEntity
  8
BLU
 62
     3
100
AcDbPolyline
 90
        2
 70
     0
 43
0.0154176003961154
 10
26.26165925878313
 20
-9.126757671320936
 10
26.17686245660449
 20
-8.979885301628176
  0
LINE
  5
9A
330
2
100
AcDbEntity
  8
BLU
100
AcDbLine
 10
24.99962435362879
 20
-8.148779502103421
 30
0.0
 11
35.79962435362879
 21
-8.148779502103421
 31
0.0
  0
LINE
  5
9B
330
2
100
AcDbEntity
  8
BLU
100
AcDbLine
 10
24.99962435362879
 20
-8.148779502103421
 30
0.0
 11
35.79962435362879
 21
-8.148779502103421
 31
0.0
  0
TEXT
  5
9C
330
2
100
AcDbEntity
  8
TEXT
100
AcDbText
 10
25.06810130435338
 20
-8.406437918386474
 30
0.0
 40
0.099803463387997
  1
Max Material Thickness:
  7
TECHNIC
 72
     1
 11
25.74874148242639
 21
-8.356536186692476
 31
0.0
100
AcDbText
 73
     2
  0
TEXT
  5
9D
330
2
100
AcDbEntity
  8
BLU
 62
     3
100
AcDbText
 10
26.67201822760134
 20
-8.425607036467074
 30
0.0
 40
0.1381416995491938
  1
Carbon Steel - 11 Ga
  7
TECHNIC
 72
     1
 11
27.47472017462469
 21
-8.356536186692476
 31
0.0
100
AcDbText
 73
     2
  0
TEXT
  5
9E
330
2
100
AcDbEntity
  8
BLU
 62
     3
100
AcDbText
 10
32.5728655909303
 20
-8.425607036467074
 30
0.0
 40
0.1381416995491938
  1
60"
  7
TECHNIC
 72
     1
 11
32.7053560391343
 21
-8.356536186692476
 31
0.0
100
AcDbText
 73
     2
  0
TEXT
  5
9F
330
2
100
AcDbEntity
  8
TEXT
 62
     7
100
AcDbText
 10
27.6307657560598
 20
-9.030147338613872
 30
0.0
 40
0.0888053782816246
  1
243 WEST EIGHTH ST, PO BOX 4174
  7
TECHNIC
 72
     1
 11
28.51400444206662
 21
-9.030147338613872
 31
0.0
100
AcDbText
  0
TEXT
  5
A0
330
2
100
AcDbEntity
  8
TEXT
 62
     7
100
AcDbText
 10
32.23093865497329
 20
-8.820644542951363
 30
0.0
 40
0.1065664539379495
  1
PHONE - 1-800-233-9601
  7
TECHNIC
 72
     1
 11
33.00167707312971
 21
-8.820644542951363
 31
0.0
100
AcDbText
  0
TEXT
  5
A1
330
2
100
AcDbEntity
  8
TEXT
 62
     7
100
AcDbText
 10
32.35013392569286
 20
-8.998255299514612
 30
0.0
 40
0.1065664539379495
  1
FAX  -  570-693-3500
  7
TECHNIC
 72
     1
 11
33.00167707312972
 21
-8.998255299514612
 31
0.0
100
AcDbText
  0
TEXT
  5
A2
330
2
100
AcDbEntity
  8
TEXT
 62
     7
100
AcDbText
 10
32.31404664924568
 20
-9.175866056077859
 30
0.0
 40
0.1065664539379495
  1
www.DiamondMan.com
  7
TECHNIC
 72
     1
 11
33.00167707312971
 21
-9.175866056077859
 31
0.0
100
AcDbText
  0
TEXT
  5
A3
330
2
100
AcDbEntity
  8
TEXT
 62
     7
100
AcDbText
 10
27.99509847033468
 20
-9.168802307641195
 30
0.0
 40
0.0888053782816246
  1
WYOMING PA, 18644
  7
TECHNIC
 72
     1
 11
28.51400444206662
 21
-9.168802307641195
 31
0.0
100
AcDbText
  0
LINE
  5
A4
330
2
100
AcDbEntity
  8
BLU
100
AcDbLine
 10
31.44980939198191
 20
-8.564292871281532
 30
0.0
 11
31.44980939198191
 21
-8.148779502103421
 31
0.0
  0
TEXT
  5
A5
330
2
100
AcDbEntity
  8
TEXT
100
AcDbText
 10
31.58118764707961
 20
-8.406437918386474
 30
0.0
 40
0.099803463387997
  1
Max Width:
  7
TECHNIC
 72
     1
 11
31.89495288603609
 21
-8.356536186692476
 31
0.0
100
AcDbText
 73
     2
  0
LINE
  5
A6
330
2
100
AcDbEntity
  8
BLU
100
AcDbLine
 10
24.99962435362879
 20
-7.733266132925307
 30
0.0
 11
35.79962435362879
 21
-7.733266132925307
 31
0.0
  0
LINE
  5
A7
330
2
100
AcDbEntity
  8
BLU
100
AcDbLine
 10
24.99962435362879
 20
-7.733266132925307
 30
0.0
 11
35.79962435362879
 21
-7.733266132925307
 31
0.0
  0
TEXT
  5
A8
330
2
100
AcDbEntity
  8
TEXT
100
AcDbText
 10
25.33423307214741
 20
-7.990924549208362
 30
0.0
 40
0.099803463387997
  1
PERF PATTERN
  7
TECHNIC
 72
     1
 11
25.74874148242639
 21
-7.941022817514363
 31
0.0
100
AcDbText
 73
     2
  0
TEXT
  5
A9
330
2
100
AcDbEntity
  8
BLU
 62
     3
100
AcDbText
 10
26.53836030230577
 20
-8.010093667288959
 30
0.0
 40
0.1381416995491938
  1
.156 Round on .250" Staggered Centers
  7
TECHNIC
 72
     1
 11
28.06173134944485
 21
-7.941022817514363
 31
0.0
100
AcDbText
 73
     2
  0
TEXT
  5
AA
330
2
100
AcDbEntity
  8
BLU
 62
     3
100
AcDbText
 10
32.45701493835382
 20
-8.010093667288959
 30
0.0
 40
0.1381416995491938
  1
35.3%%%
  7
TECHNIC
 72
     1
 11
32.7053560391343
 21
-7.941022817514363
 31
0.0
100
AcDbText
 73
     2
  0
LINE
  5
AB
330
2
100
AcDbEntity
  8
BLU
100
AcDbLine
 10
31.44980939198191
 20
-8.148779502103421
 30
0.0
 11
31.44980939198191
 21
-7.733266132925307
 31
0.0
  0
TEXT
  5
AC
330
2
100
AcDbEntity
  8
TEXT
100
AcDbText
 10
31.57989149820444
 20
-7.990924549208362
 30
0.0
 40
0.099803463387997
  1
OPEN AREA
  7
TECHNIC
 72
     1
 11
31.89495288603609
 21
-7.941022817514363
 31
0.0
100
AcDbText
 73
     2
  0
TEXT
  5
AD
330
2
100
AcDbEntity
  8
BLU
 62
     3
100
AcDbText
 10
28.57952421961322
 20
-8.425607036467074
 30
0.0
 40
0.1381416995491938
  1
Stainless - 12 Ga
  7
TECHNIC
 72
     1
 11
29.23740163811567
 21
-8.356536186692476
 31
0.0
100
AcDbText
 73
     2
  0
TEXT
  5
AE
330
2
100
AcDbEntity
  8
BLU
 62
     3
100
AcDbText
 10
30.14136793031408
 20
-8.425607036467074
 30
0.0
 40
0.1381416995491938
  1
Alum - .125"
  7
TECHNIC
 72
     1
 11
30.62230736027057
 21
-8.356536186692476
 31
0.0
100
AcDbText
 73
     2
  0
LINE
  5
AF
330
2
100
AcDbEntity
  8
BLU
100
AcDbLine
 10
35.79962435362879
 20
-1.016682873708395
 30
0.0
 11
24.99962435362879
 21
-1.016682873708395
 31
0.0
  0
CIRCLE
  5
B0
330
2
100
AcDbEntity
  8
0
100
AcDbCircle
 10
28.05279325370407
 20
-5.959133576787293
 30
0.0
 40
0.078
  0
CIRCLE
  5
B1
330
2
100
AcDbEntity
  8
0
100
AcDbCircle
 10
28.17779325370407
 20
-5.742633576787294
 30
0.0
 40
0.078
  0
CIRCLE
  5
B2
330
2
100
AcDbEntity
  8
0
100
AcDbCircle
 10
28.30279325370407
 20
-5.959133576787293
 30
0.0
 40
0.078
  0
CIRCLE
  5
B3
330
2
100
AcDbEntity
  8
0
100
AcDbCircle
 10
28.42779325370407
 20
-5.742633576787294
 30
0.0
 40
0.078
  0
CIRCLE
  5
B4
330
2
100
AcDbEntity
  8
0
100
AcDbCircle
 10
28.55279325370407
 20
-5.959133576787293
 30
0.0
 40
0.078
  0
CIRCLE
  5
B5
330
2
100
AcDbEntity
  8
0
100
AcDbCircle
 10
28.67779325370407
 20
-5.742633576787294
 30
0.0
 40
0.078
  0
CIRCLE
  5
B6
330
2
100
AcDbEntity
  8
0
100
AcDbCircle
 10
28.80279325370407
 20
-5.959133576787293
 30
0.0
 40
0.078
  0
CIRCLE
  5
B7
330
2
100
AcDbEntity
  8
0
100
AcDbCircle
 10
28.92779325370407
 20
-5.742633576787294
 30
0.0
 40
0.078
  0
CIRCLE
  5
B8
330
2
100
AcDbEntity
  8
0
100
AcDbCircle
 10
29.05279325370407
 20
-5.959133576787293
 30
0.0
 40
0.078
  0
CIRCLE
  5
B9
330
2
100
AcDbEntity
  8
0
100
AcDbCircle
 10
29.17779325370407
 20
-5.742633576787294
 30
0.0
 40
0.078
  0
CIRCLE
  5
BA
330
2
100
AcDbEntity
  8
0
100
AcDbCircle
 10
29.30279325370407
 20
-5.959133576787293
 30
0.0
 40
0.078
  0
CIRCLE
  5
BB
330
2
100
AcDbEntity
  8
0
100
AcDbCircle
 10
29.42779325370407
 20
-5.742633576787294
 30
0.0
 40
0.078
  0
CIRCLE
  5
BC
330
2
100
AcDbEntity
  8
0
100
AcDbCircle
 10
29.55279325370407
 20
-5.959133576787293
 30
0.0
 40
0.078
  0
CIRCLE
  5
BD
330
2
100
AcDbEntity
  8
0
100
AcDbCircle
 10
29.67779325370407
 20
-5.742633576787294
 30
0.0
 40
0.078
  0
CIRCLE
  5
BE
330
2
100
AcDbEntity
  8
0
100
AcDbCircle
 10
29.80279325370407
 20
-5.959133576787293
 30
0.0
 40
0.078
  0
CIRCLE
  5
BF
330
2
100
AcDbEntity
  8
0
100
AcDbCircle
 10
29.92779325370407
 20
-5.742633576787294
 30
0.0
 40
0.078
  0
CIRCLE
  5
C0
330
2
100
AcDbEntity
  8
0
100
AcDbCircle
 10
30.05279325370407
 20
-5.959133576787293
 30
0.0
 40
0.078
  0
CIRCLE
  5
C1
330
2
100
AcDbEntity
  8
0
100
AcDbCircle
 10
30.17779325370407
 20
-5.742633576787294
 30
0.0
 40
0.078
  0
CIRCLE
  5
C2
330
2
100
AcDbEntity
  8
0
100
AcDbCircle
 10
30.30279325370407
 20
-5.959133576787293
 30
0.0
 40
0.078
  0
CIRCLE
  5
C3
330
2
100
AcDbEntity
  8
0
100
AcDbCircle
 10
30.42779325370407
 20
-5.742633576787294
 30
0.0
 40
0.078
  0
CIRCLE
  5
C4
330
2
100
AcDbEntity
  8
0
100
AcDbCircle
 10
30.55279325370407
 20
-5.959133576787293
 30
0.0
 40
0.078
  0
CIRCLE
  5
C5
330
2
100
AcDbEntity
  8
0
100
AcDbCircle
 10
30.67779325370407
 20
-5.742633576787294
 30
0.0
 40
0.078
  0
CIRCLE
  5
C6
330
2
100
AcDbEntity
  8
0
100
AcDbCircle
 10
28.05279325370407
 20
-5.526133576787294
 30
0.0
 40
0.078
  0
CIRCLE
  5
C7
330
2
100
AcDbEntity
  8
0
100
AcDbCircle
 10
28.17779325370407
 20
-5.309633576787295
 30
0.0
 40
0.078
  0
CIRCLE
  5
C8
330
2
100
AcDbEntity
  8
0
100
AcDbCircle
 10
28.30279325370407
 20
-5.526133576787294
 30
0.0
 40
0.078
  0
CIRCLE
  5
C9
330
2
100
AcDbEntity
  8
0
100
AcDbCircle
 10
28.42779325370407
 20
-5.309633576787295
 30
0.0
 40
0.078
  0
CIRCLE
  5
CA
330
2
100
AcDbEntity
  8
0
100
AcDbCircle
 10
28.55279325370407
 20
-5.526133576787294
 30
0.0
 40
0.078
  0
CIRCLE
  5
CB
330
2
100
AcDbEntity
  8
0
100
AcDbCircle
 10
28.67779325370407
 20
-5.309633576787295
 30
0.0
 40
0.078
  0
CIRCLE
  5
CC
330
2
100
AcDbEntity
  8
0
100
AcDbCircle
 10
28.80279325370407
 20
-5.526133576787294
 30
0.0
 40
0.078
  0
CIRCLE
  5
CD
330
2
100
AcDbEntity
  8
0
100
AcDbCircle
 10
28.92779325370407
 20
-5.309633576787295
 30
0.0
 40
0.078
  0
CIRCLE
  5
CE
330
2
100
AcDbEntity
  8
0
100
AcDbCircle
 10
29.05279325370407
 20
-5.526133576787294
 30
0.0
 40
0.078
  0
CIRCLE
  5
CF
330
2
100
AcDbEntity
  8
0
100
AcDbCircle
 10
29.17779325370407
 20
-5.309633576787295
 30
0.0
 40
0.078
  0
CIRCLE
  5
D0
330
2
100
AcDbEntity
  8
0
100
AcDbCircle
 10
29.30279325370407
 20
-5.526133576787294
 30
0.0
 40
0.078
  0
CIRCLE
  5
D1
330
2
100
AcDbEntity
  8
0
100
AcDbCircle
 10
29.42779325370407
 20
-5.309633576787295
 30
0.0
 40
0.078
  0
CIRCLE
  5
D2
330
2
100
AcDbEntity
  8
0
100
AcDbCircle
 10
29.55279325370407
 20
-5.526133576787294
 30
0.0
 40
0.078
  0
CIRCLE
  5
D3
330
2
100
AcDbEntity
  8
0
100
AcDbCircle
 10
29.67779325370407
 20
-5.309633576787295
 30
0.0
 40
0.078
  0
CIRCLE
  5
D4
330
2
100
AcDbEntity
  8
0
100
AcDbCircle
 10
29.80279325370407
 20
-5.526133576787294
 30
0.0
 40
0.078
  0
CIRCLE
  5
D5
330
2
100
AcDbEntity
  8
0
100
AcDbCircle
 10
29.92779325370407
 20
-5.309633576787295
 30
0.0
 40
0.078
  0
CIRCLE
  5
D6
330
2
100
AcDbEntity
  8
0
100
AcDbCircle
 10
30.05279325370407
 20
-5.526133576787294
 30
0.0
 40
0.078
  0
CIRCLE
  5
D7
330
2
100
AcDbEntity
  8
0
100
AcDbCircle
 10
30.17779325370407
 20
-5.309633576787295
 30
0.0
 40
0.078
  0
CIRCLE
  5
D8
330
2
100
AcDbEntity
  8
0
100
AcDbCircle
 10
30.30279325370407
 20
-5.526133576787294
 30
0.0
 40
0.078
  0
CIRCLE
  5
D9
330
2
100
AcDbEntity
  8
0
100
AcDbCircle
 10
30.42779325370407
 20
-5.309633576787295
 30
0.0
 40
0.078
  0
CIRCLE
  5
DA
330
2
100
AcDbEntity
  8
0
100
AcDbCircle
 10
30.55279325370407
 20
-5.526133576787294
 30
0.0
 40
0.078
  0
CIRCLE
  5
DB
330
2
100
AcDbEntity
  8
0
100
AcDbCircle
 10
30.67779325370407
 20
-5.309633576787295
 30
0.0
 40
0.078
  0
CIRCLE
  5
DC
330
2
100
AcDbEntity
  8
0
100
AcDbCircle
 10
28.05279325370407
 20
-5.093133576787295
 30
0.0
 40
0.078
  0
CIRCLE
  5
DD
330
2
100
AcDbEntity
  8
0
100
AcDbCircle
 10
28.17779325370407
 20
-4.876633576787294
 30
0.0
 40
0.078
  0
CIRCLE
  5
DE
330
2
100
AcDbEntity
  8
0
100
AcDbCircle
 10
28.30279325370407
 20
-5.093133576787295
 30
0.0
 40
0.078
  0
CIRCLE
  5
DF
330
2
100
AcDbEntity
  8
0
100
AcDbCircle
 10
28.42779325370407
 20
-4.876633576787294
 30
0.0
 40
0.078
  0
CIRCLE
  5
E0
330
2
100
AcDbEntity
  8
0
100
AcDbCircle
 10
28.55279325370407
 20
-5.093133576787295
 30
0.0
 40
0.078
  0
CIRCLE
  5
E1
330
2
100
AcDbEntity
  8
0
100
AcDbCircle
 10
28.67779325370407
 20
-4.876633576787294
 30
0.0
 40
0.078
  0
CIRCLE
  5
E2
330
2
100
AcDbEntity
  8
0
100
AcDbCircle
 10
28.80279325370407
 20
-5.093133576787295
 30
0.0
 40
0.078
  0
CIRCLE
  5
E3
330
2
100
AcDbEntity
  8
0
100
AcDbCircle
 10
28.92779325370407
 20
-4.876633576787294
 30
0.0
 40
0.078
  0
CIRCLE
  5
E4
330
2
100
AcDbEntity
  8
0
100
AcDbCircle
 10
29.05279325370407
 20
-5.093133576787295
 30
0.0
 40
0.078
  0
CIRCLE
  5
E5
330
2
100
AcDbEntity
  8
0
100
AcDbCircle
 10
29.17779325370407
 20
-4.876633576787294
 30
0.0
 40
0.078
  0
CIRCLE
  5
E6
330
2
100
AcDbEntity
  8
0
100
AcDbCircle
 10
29.30279325370407
 20
-5.093133576787295
 30
0.0
 40
0.078
  0
CIRCLE
  5
E7
330
2
100
AcDbEntity
  8
0
100
AcDbCircle
 10
29.42779325370407
 20
-4.876633576787294
 30
0.0
 40
0.078
  0
CIRCLE
  5
E8
330
2
100
AcDbEntity
  8
0
100
AcDbCircle
 10
29.55279325370407
 20
-5.093133576787295
 30
0.0
 40
0.078
  0
CIRCLE
  5
E9
330
2
100
AcDbEntity
  8
0
100
AcDbCircle
 10
29.67779325370407
 20
-4.876633576787294
 30
0.0
 40
0.078
  0
CIRCLE
  5
EA
330
2
100
AcDbEntity
  8
0
100
AcDbCircle
 10
29.80279325370407
 20
-5.093133576787295
 30
0.0
 40
0.078
  0
CIRCLE
  5
EB
330
2
100
AcDbEntity
  8
0
100
AcDbCircle
 10
29.92779325370407
 20
-4.876633576787294
 30
0.0
 40
0.078
  0
CIRCLE
  5
EC
330
2
100
AcDbEntity
  8
0
100
AcDbCircle
 10
30.05279325370407
 20
-5.093133576787295
 30
0.0
 40
0.078
  0
CIRCLE
  5
ED
330
2
100
AcDbEntity
  8
0
100
AcDbCircle
 10
30.17779325370407
 20
-4.876633576787294
 30
0.0
 40
0.078
  0
CIRCLE
  5
EE
330
2
100
AcDbEntity
  8
0
100
AcDbCircle
 10
30.30279325370407
 20
-5.093133576787295
 30
0.0
 40
0.078
  0
CIRCLE
  5
EF
330
2
100
AcDbEntity
  8
0
100
AcDbCircle
 10
30.42779325370407
 20
-4.876633576787294
 30
0.0
 40
0.078
  0
CIRCLE
  5
F0
330
2
100
AcDbEntity
  8
0
100
AcDbCircle
 10
30.55279325370407
 20
-5.093133576787295
 30
0.0
 40
0.078
  0
CIRCLE
  5
F1
330
2
100
AcDbEntity
  8
0
100
AcDbCircle
 10
30.67779325370407
 20
-4.876633576787294
 30
0.0
 40
0.078
  0
CIRCLE
  5
F2
330
2
100
AcDbEntity
  8
0
100
AcDbCircle
 10
28.05279325370407
 20
-4.660133576787294
 30
0.0
 40
0.078
  0
CIRCLE
  5
F3
330
2
100
AcDbEntity
  8
0
100
AcDbCircle
 10
28.17779325370407
 20
-4.443633576787294
 30
0.0
 40
0.078
  0
CIRCLE
  5
F4
330
2
100
AcDbEntity
  8
0
100
AcDbCircle
 10
28.30279325370407
 20
-4.660133576787294
 30
0.0
 40
0.078
  0
CIRCLE
  5
F5
330
2
100
AcDbEntity
  8
0
100
AcDbCircle
 10
28.42779325370407
 20
-4.443633576787294
 30
0.0
 40
0.078
  0
CIRCLE
  5
F6
330
2
100
AcDbEntity
  8
0
100
AcDbCircle
 10
28.55279325370407
 20
-4.660133576787294
 30
0.0
 40
0.078
  0
CIRCLE
  5
F7
330
2
100
AcDbEntity
  8
0
100
AcDbCircle
 10
28.67779325370407
 20
-4.443633576787294
 30
0.0
 40
0.078
  0
CIRCLE
  5
F8
330
2
100
AcDbEntity
  8
0
100
AcDbCircle
 10
28.80279325370407
 20
-4.660133576787294
 30
0.0
 40
0.078
  0
CIRCLE
  5
F9
330
2
100
AcDbEntity
  8
0
100
AcDbCircle
 10
28.92779325370407
 20
-4.443633576787294
 30
0.0
 40
0.078
  0
CIRCLE
  5
FA
330
2
100
AcDbEntity
  8
0
100
AcDbCircle
 10
29.05279325370407
 20
-4.660133576787294
 30
0.0
 40
0.078
  0
CIRCLE
  5
FB
330
2
100
AcDbEntity
  8
0
100
AcDbCircle
 10
29.17779325370407
 20
-4.443633576787294
 30
0.0
 40
0.078
  0
CIRCLE
  5
FC
330
2
100
AcDbEntity
  8
0
100
AcDbCircle
 10
29.30279325370407
 20
-4.660133576787294
 30
0.0
 40
0.078
  0
CIRCLE
  5
FD
330
2
100
AcDbEntity
  8
0
100
AcDbCircle
 10
29.42779325370407
 20
-4.443633576787294
 30
0.0
 40
0.078
  0
CIRCLE
  5
FE
330
2
100
AcDbEntity
  8
0
100
AcDbCircle
 10
29.55279325370407
 20
-4.660133576787294
 30
0.0
 40
0.078
  0
CIRCLE
  5
FF
330
2
100
AcDbEntity
  8
0
100
AcDbCircle
 10
29.67779325370407
 20
-4.443633576787294
 30
0.0
 40
0.078
  0
CIRCLE
  5
100
330
2
100
AcDbEntity
  8
0
100
AcDbCircle
 10
29.80279325370407
 20
-4.660133576787294
 30
0.0
 40
0.078
  0
CIRCLE
  5
101
330
2
100
AcDbEntity
  8
0
100
AcDbCircle
 10
29.92779325370407
 20
-4.443633576787294
 30
0.0
 40
0.078
  0
CIRCLE
  5
102
330
2
100
AcDbEntity
  8
0
100
AcDbCircle
 10
30.05279325370407
 20
-4.660133576787294
 30
0.0
 40
0.078
  0
CIRCLE
  5
103
330
2
100
AcDbEntity
  8
0
100
AcDbCircle
 10
30.17779325370407
 20
-4.443633576787294
 30
0.0
 40
0.078
  0
CIRCLE
  5
104
330
2
100
AcDbEntity
  8
0
100
AcDbCircle
 10
30.30279325370407
 20
-4.660133576787294
 30
0.0
 40
0.078
  0
CIRCLE
  5
105
330
2
100
AcDbEntity
  8
0
100
AcDbCircle
 10
30.42779325370407
 20
-4.443633576787294
 30
0.0
 40
0.078
  0
CIRCLE
  5
106
330
2
100
AcDbEntity
  8
0
100
AcDbCircle
 10
30.55279325370407
 20
-4.660133576787294
 30
0.0
 40
0.078
  0
CIRCLE
  5
107
330
2
100
AcDbEntity
  8
0
100
AcDbCircle
 10
30.67779325370407
 20
-4.443633576787294
 30
0.0
 40
0.078
  0
CIRCLE
  5
108
330
2
100
AcDbEntity
  8
0
100
AcDbCircle
 10
28.05279325370407
 20
-4.227133576787293
 30
0.0
 40
0.078
  0
CIRCLE
  5
109
330
2
100
AcDbEntity
  8
0
100
AcDbCircle
 10
28.17779325370407
 20
-4.010633576787293
 30
0.0
 40
0.078
  0
CIRCLE
  5
10A
330
2
100
AcDbEntity
  8
0
100
AcDbCircle
 10
28.30279325370407
 20
-4.227133576787293
 30
0.0
 40
0.078
  0
CIRCLE
  5
10B
330
2
100
AcDbEntity
  8
0
100
AcDbCircle
 10
28.42779325370407
 20
-4.010633576787293
 30
0.0
 40
0.078
  0
CIRCLE
  5
10C
330
2
100
AcDbEntity
  8
0
100
AcDbCircle
 10
28.55279325370407
 20
-4.227133576787293
 30
0.0
 40
0.078
  0
CIRCLE
  5
10D
330
2
100
AcDbEntity
  8
0
100
AcDbCircle
 10
28.67779325370407
 20
-4.010633576787293
 30
0.0
 40
0.078
  0
CIRCLE
  5
10E
330
2
100
AcDbEntity
  8
0
100
AcDbCircle
 10
28.80279325370407
 20
-4.227133576787293
 30
0.0
 40
0.078
  0
CIRCLE
  5
10F
330
2
100
AcDbEntity
  8
0
100
AcDbCircle
 10
28.92779325370407
 20
-4.010633576787293
 30
0.0
 40
0.078
  0
CIRCLE
  5
110
330
2
100
AcDbEntity
  8
0
100
AcDbCircle
 10
29.05279325370407
 20
-4.227133576787293
 30
0.0
 40
0.078
  0
CIRCLE
  5
111
330
2
100
AcDbEntity
  8
0
100
AcDbCircle
 10
29.17779325370407
 20
-4.010633576787293
 30
0.0
 40
0.078
  0
CIRCLE
  5
112
330
2
100
AcDbEntity
  8
0
100
AcDbCircle
 10
29.30279325370407
 20
-4.227133576787293
 30
0.0
 40
0.078
  0
CIRCLE
  5
113
330
2
100
AcDbEntity
  8
0
100
AcDbCircle
 10
29.42779325370407
 20
-4.010633576787293
 30
0.0
 40
0.078
  0
CIRCLE
  5
114
330
2
100
AcDbEntity
  8
0
100
AcDbCircle
 10
29.55279325370407
 20
-4.227133576787293
 30
0.0
 40
0.078
  0
CIRCLE
  5
115
330
2
100
AcDbEntity
  8
0
100
AcDbCircle
 10
29.67779325370407
 20
-4.010633576787293
 30
0.0
 40
0.078
  0
CIRCLE
  5
116
330
2
100
AcDbEntity
  8
0
100
AcDbCircle
 10
29.80279325370407
 20
-4.227133576787293
 30
0.0
 40
0.078
  0
CIRCLE
  5
117
330
2
100
AcDbEntity
  8
0
100
AcDbCircle
 10
29.92779325370407
 20
-4.010633576787293
 30
0.0
 40
0.078
  0
CIRCLE
  5
118
330
2
100
AcDbEntity
  8
0
100
AcDbCircle
 10
30.05279325370407
 20
-4.227133576787293
 30
0.0
 40
0.078
  0
CIRCLE
  5
119
330
2
100
AcDbEntity
  8
0
100
AcDbCircle
 10
30.17779325370407
 20
-4.010633576787293
 30
0.0
 40
0.078
  0
CIRCLE
  5
11A
330
2
100
AcDbEntity
  8
0
100
AcDbCircle
 10
30.30279325370407
 20
-4.227133576787293
 30
0.0
 40
0.078
  0
CIRCLE
  5
11B
330
2
100
AcDbEntity
  8
0
100
AcDbCircle
 10
30.42779325370407
 20
-4.010633576787293
 30
0.0
 40
0.078
  0
CIRCLE
  5
11C
330
2
100
AcDbEntity
  8
0
100
AcDbCircle
 10
30.55279325370407
 20
-4.227133576787293
 30
0.0
 40
0.078
  0
CIRCLE
  5
11D
330
2
100
AcDbEntity
  8
0
100
AcDbCircle
 10
30.67779325370407
 20
-4.010633576787293
 30
0.0
 40
0.078
  0
CIRCLE
  5
11E
330
2
100
AcDbEntity
  8
0
100
AcDbCircle
 10
28.05279325370407
 20
-3.794133576787294
 30
0.0
 40
0.078
  0
CIRCLE
  5
11F
330
2
100
AcDbEntity
  8
0
100
AcDbCircle
 10
28.17779325370407
 20
-3.577633576787293
 30
0.0
 40
0.078
  0
CIRCLE
  5
120
330
2
100
AcDbEntity
  8
0
100
AcDbCircle
 10
28.30279325370407
 20
-3.794133576787294
 30
0.0
 40
0.078
  0
CIRCLE
  5
121
330
2
100
AcDbEntity
  8
0
100
AcDbCircle
 10
28.42779325370407
 20
-3.577633576787293
 30
0.0
 40
0.078
  0
CIRCLE
  5
122
330
2
100
AcDbEntity
  8
0
100
AcDbCircle
 10
28.55279325370407
 20
-3.794133576787294
 30
0.0
 40
0.078
  0
CIRCLE
  5
123
330
2
100
AcDbEntity
  8
0
100
AcDbCircle
 10
28.67779325370407
 20
-3.577633576787293
 30
0.0
 40
0.078
  0
CIRCLE
  5
124
330
2
100
AcDbEntity
  8
0
100
AcDbCircle
 10
28.80279325370407
 20
-3.794133576787294
 30
0.0
 40
0.078
  0
CIRCLE
  5
125
330
2
100
AcDbEntity
  8
0
100
AcDbCircle
 10
28.92779325370407
 20
-3.577633576787293
 30
0.0
 40
0.078
  0
CIRCLE
  5
126
330
2
100
AcDbEntity
  8
0
100
AcDbCircle
 10
29.05279325370407
 20
-3.794133576787294
 30
0.0
 40
0.078
  0
CIRCLE
  5
127
330
2
100
AcDbEntity
  8
0
100
AcDbCircle
 10
29.17779325370407
 20
-3.577633576787293
 30
0.0
 40
0.078
  0
CIRCLE
  5
128
330
2
100
AcDbEntity
  8
0
100
AcDbCircle
 10
29.30279325370407
 20
-3.794133576787294
 30
0.0
 40
0.078
  0
CIRCLE
  5
129
330
2
100
AcDbEntity
  8
0
100
AcDbCircle
 10
29.42779325370407
 20
-3.577633576787293
 30
0.0
 40
0.078
  0
CIRCLE
  5
12A
330
2
100
AcDbEntity
  8
0
100
AcDbCircle
 10
29.55279325370407
 20
-3.794133576787294
 30
0.0
 40
0.078
  0
CIRCLE
  5
12B
330
2
100
AcDbEntity
  8
0
100
AcDbCircle
 10
29.67779325370407
 20
-3.577633576787293
 30
0.0
 40
0.078
  0
CIRCLE
  5
12C
330
2
100
AcDbEntity
  8
0
100
AcDbCircle
 10
29.80279325370407
 20
-3.794133576787294
 30
0.0
 40
0.078
  0
CIRCLE
  5
12D
330
2
100
AcDbEntity
  8
0
100
AcDbCircle
 10
29.92779325370407
 20
-3.577633576787293
 30
0.0
 40
0.078
  0
CIRCLE
  5
12E
330
2
100
AcDbEntity
  8
0
100
AcDbCircle
 10
30.05279325370407
 20
-3.794133576787294
 30
0.0
 40
0.078
  0
CIRCLE
  5
12F
330
2
100
AcDbEntity
  8
0
100
AcDbCircle
 10
30.17779325370407
 20
-3.577633576787293
 30
0.0
 40
0.078
  0
CIRCLE
  5
130
330
2
100
AcDbEntity
  8
0
100
AcDbCircle
 10
30.30279325370407
 20
-3.794133576787294
 30
0.0
 40
0.078
  0
CIRCLE
  5
131
330
2
100
AcDbEntity
  8
0
100
AcDbCircle
 10
30.42779325370407
 20
-3.577633576787293
 30
0.0
 40
0.078
  0
CIRCLE
  5
132
330
2
100
AcDbEntity
  8
0
100
AcDbCircle
 10
30.55279325370407
 20
-3.794133576787294
 30
0.0
 40
0.078
  0
CIRCLE
  5
133
330
2
100
AcDbEntity
  8
0
100
AcDbCircle
 10
30.67779325370407
 20
-3.577633576787293
 30
0.0
 40
0.078
  0
CIRCLE
  5
134
330
2
100
AcDbEntity
  8
0
100
AcDbCircle
 10
28.05279325370407
 20
-3.361133576787294
 30
0.0
 40
0.078
  0
CIRCLE
  5
135
330
2
100
AcDbEntity
  8
0
100
AcDbCircle
 10
28.17779325370407
 20
-3.144633576787294
 30
0.0
 40
0.078
  0
CIRCLE
  5
136
330
2
100
AcDbEntity
  8
0
100
AcDbCircle
 10
28.30279325370407
 20
-3.361133576787294
 30
0.0
 40
0.078
  0
CIRCLE
  5
137
330
2
100
AcDbEntity
  8
0
100
AcDbCircle
 10
28.42779325370407
 20
-3.144633576787294
 30
0.0
 40
0.078
  0
CIRCLE
  5
138
330
2
100
AcDbEntity
  8
0
100
AcDbCircle
 10
28.55279325370407
 20
-3.361133576787294
 30
0.0
 40
0.078
  0
CIRCLE
  5
139
330
2
100
AcDbEntity
  8
0
100
AcDbCircle
 10
28.67779325370407
 20
-3.144633576787294
 30
0.0
 40
0.078
  0
CIRCLE
  5
13A
330
2
100
AcDbEntity
  8
0
100
AcDbCircle
 10
28.80279325370407
 20
-3.361133576787294
 30
0.0
 40
0.078
  0
CIRCLE
  5
13B
330
2
100
AcDbEntity
  8
0
100
AcDbCircle
 10
28.92779325370407
 20
-3.144633576787294
 30
0.0
 40
0.078
  0
CIRCLE
  5
13C
330
2
100
AcDbEntity
  8
0
100
AcDbCircle
 10
29.05279325370407
 20
-3.361133576787294
 30
0.0
 40
0.078
  0
CIRCLE
  5
13D
330
2
100
AcDbEntity
  8
0
100
AcDbCircle
 10
29.17779325370407
 20
-3.144633576787294
 30
0.0
 40
0.078
  0
CIRCLE
  5
13E
330
2
100
AcDbEntity
  8
0
100
AcDbCircle
 10
29.30279325370407
 20
-3.361133576787294
 30
0.0
 40
0.078
  0
CIRCLE
  5
13F
330
2
100
AcDbEntity
  8
0
100
AcDbCircle
 10
29.42779325370407
 20
-3.144633576787294
 30
0.0
 40
0.078
  0
CIRCLE
  5
140
330
2
100
AcDbEntity
  8
0
100
AcDbCircle
 10
29.55279325370407
 20
-3.361133576787294
 30
0.0
 40
0.078
  0
CIRCLE
  5
141
330
2
100
AcDbEntity
  8
0
100
AcDbCircle
 10
29.67779325370407
 20
-3.144633576787294
 30
0.0
 40
0.078
  0
CIRCLE
  5
142
330
2
100
AcDbEntity
  8
0
100
AcDbCircle
 10
29.80279325370407
 20
-3.361133576787294
 30
0.0
 40
0.078
  0
CIRCLE
  5
143
330
2
100
AcDbEntity
  8
0
100
AcDbCircle
 10
29.92779325370407
 20
-3.144633576787294
 30
0.0
 40
0.078
  0
CIRCLE
  5
144
330
2
100
AcDbEntity
  8
0
100
AcDbCircle
 10
30.05279325370407
 20
-3.361133576787294
 30
0.0
 40
0.078
  0
CIRCLE
  5
145
330
2
100
AcDbEntity
  8
0
100
AcDbCircle
 10
30.17779325370407
 20
-3.144633576787294
 30
0.0
 40
0.078
  0
CIRCLE
  5
146
330
2
100
AcDbEntity
  8
0
100
AcDbCircle
 10
30.30279325370407
 20
-3.361133576787294
 30
0.0
 40
0.078
  0
CIRCLE
  5
147
330
2
100
AcDbEntity
  8
0
100
AcDbCircle
 10
30.42779325370407
 20
-3.144633576787294
 30
0.0
 40
0.078
  0
CIRCLE
  5
148
330
2
100
AcDbEntity
  8
0
100
AcDbCircle
 10
30.55279325370407
 20
-3.361133576787294
 30
0.0
 40
0.078
  0
CIRCLE
  5
149
330
2
100
AcDbEntity
  8
0
100
AcDbCircle
 10
30.67779325370407
 20
-3.144633576787294
 30
0.0
 40
0.078
  0
CIRCLE
  5
14A
330
2
100
AcDbEntity
  8
0
100
AcDbCircle
 10
28.05279325370407
 20
-2.928133576787294
 30
0.0
 40
0.078
  0
CIRCLE
  5
14B
330
2
100
AcDbEntity
  8
0
100
AcDbCircle
 10
28.17779325370407
 20
-2.711633576787294
 30
0.0
 40
0.078
  0
CIRCLE
  5
14C
330
2
100
AcDbEntity
  8
0
100
AcDbCircle
 10
28.30279325370407
 20
-2.928133576787294
 30
0.0
 40
0.078
  0
CIRCLE
  5
14D
330
2
100
AcDbEntity
  8
0
100
AcDbCircle
 10
28.42779325370407
 20
-2.711633576787294
 30
0.0
 40
0.078
  0
CIRCLE
  5
14E
330
2
100
AcDbEntity
  8
0
100
AcDbCircle
 10
28.55279325370407
 20
-2.928133576787294
 30
0.0
 40
0.078
  0
CIRCLE
  5
14F
330
2
100
AcDbEntity
  8
0
100
AcDbCircle
 10
28.67779325370407
 20
-2.711633576787294
 30
0.0
 40
0.078
  0
CIRCLE
  5
150
330
2
100
AcDbEntity
  8
0
100
AcDbCircle
 10
28.80279325370407
 20
-2.928133576787294
 30
0.0
 40
0.078
  0
CIRCLE
  5
151
330
2
100
AcDbEntity
  8
0
100
AcDbCircle
 10
28.92779325370407
 20
-2.711633576787294
 30
0.0
 40
0.078
  0
CIRCLE
  5
152
330
2
100
AcDbEntity
  8
0
100
AcDbCircle
 10
29.05279325370407
 20
-2.928133576787294
 30
0.0
 40
0.078
  0
CIRCLE
  5
153
330
2
100
AcDbEntity
  8
0
100
AcDbCircle
 10
29.17779325370407
 20
-2.711633576787294
 30
0.0
 40
0.078
  0
CIRCLE
  5
154
330
2
100
AcDbEntity
  8
0
100
AcDbCircle
 10
29.30279325370407
 20
-2.928133576787294
 30
0.0
 40
0.078
  0
CIRCLE
  5
155
330
2
100
AcDbEntity
  8
0
100
AcDbCircle
 10
29.42779325370407
 20
-2.711633576787294
 30
0.0
 40
0.078
  0
CIRCLE
  5
156
330
2
100
AcDbEntity
  8
0
100
AcDbCircle
 10
29.55279325370407
 20
-2.928133576787294
 30
0.0
 40
0.078
  0
CIRCLE
  5
157
330
2
100
AcDbEntity
  8
0
100
AcDbCircle
 10
29.67779325370407
 20
-2.711633576787294
 30
0.0
 40
0.078
  0
CIRCLE
  5
158
330
2
100
AcDbEntity
  8
0
100
AcDbCircle
 10
29.80279325370407
 20
-2.928133576787294
 30
0.0
 40
0.078
  0
CIRCLE
  5
159
330
2
100
AcDbEntity
  8
0
100
AcDbCircle
 10
29.92779325370407
 20
-2.711633576787294
 30
0.0
 40
0.078
  0
CIRCLE
  5
15A
330
2
100
AcDbEntity
  8
0
100
AcDbCircle
 10
30.05279325370407
 20
-2.928133576787294
 30
0.0
 40
0.078
  0
CIRCLE
  5
15B
330
2
100
AcDbEntity
  8
0
100
AcDbCircle
 10
30.17779325370407
 20
-2.711633576787294
 30
0.0
 40
0.078
  0
CIRCLE
  5
15C
330
2
100
AcDbEntity
  8
0
100
AcDbCircle
 10
30.30279325370407
 20
-2.928133576787294
 30
0.0
 40
0.078
  0
CIRCLE
  5
15D
330
2
100
AcDbEntity
  8
0
100
AcDbCircle
 10
30.42779325370407
 20
-2.711633576787294
 30
0.0
 40
0.078
  0
CIRCLE
  5
15E
330
2
100
AcDbEntity
  8
0
100
AcDbCircle
 10
30.55279325370407
 20
-2.928133576787294
 30
0.0
 40
0.078
  0
CIRCLE
  5
15F
330
2
100
AcDbEntity
  8
0
100
AcDbCircle
 10
30.67779325370407
 20
-2.711633576787294
 30
0.0
 40
0.078
  0
CIRCLE
  5
160
330
2
100
AcDbEntity
  8
0
100
AcDbCircle
 10
28.05279325370407
 20
-2.495133576787293
 30
0.0
 40
0.078
  0
CIRCLE
  5
161
330
2
100
AcDbEntity
  8
0
100
AcDbCircle
 10
28.17779325370407
 20
-2.278633576787294
 30
0.0
 40
0.078
  0
CIRCLE
  5
162
330
2
100
AcDbEntity
  8
0
100
AcDbCircle
 10
28.30279325370407
 20
-2.495133576787293
 30
0.0
 40
0.078
  0
CIRCLE
  5
163
330
2
100
AcDbEntity
  8
0
100
AcDbCircle
 10
28.42779325370407
 20
-2.278633576787294
 30
0.0
 40
0.078
  0
CIRCLE
  5
164
330
2
100
AcDbEntity
  8
0
100
AcDbCircle
 10
28.55279325370407
 20
-2.495133576787293
 30
0.0
 40
0.078
  0
CIRCLE
  5
165
330
2
100
AcDbEntity
  8
0
100
AcDbCircle
 10
28.67779325370407
 20
-2.278633576787294
 30
0.0
 40
0.078
  0
CIRCLE
  5
166
330
2
100
AcDbEntity
  8
0
100
AcDbCircle
 10
28.80279325370407
 20
-2.495133576787293
 30
0.0
 40
0.078
  0
CIRCLE
  5
167
330
2
100
AcDbEntity
  8
0
100
AcDbCircle
 10
28.92779325370407
 20
-2.278633576787294
 30
0.0
 40
0.078
  0
CIRCLE
  5
168
330
2
100
AcDbEntity
  8
0
100
AcDbCircle
 10
29.05279325370407
 20
-2.495133576787293
 30
0.0
 40
0.078
  0
CIRCLE
  5
169
330
2
100
AcDbEntity
  8
0
100
AcDbCircle
 10
29.17779325370407
 20
-2.278633576787294
 30
0.0
 40
0.078
  0
CIRCLE
  5
16A
330
2
100
AcDbEntity
  8
0
100
AcDbCircle
 10
29.30279325370407
 20
-2.495133576787293
 30
0.0
 40
0.078
  0
CIRCLE
  5
16B
330
2
100
AcDbEntity
  8
0
100
AcDbCircle
 10
29.42779325370407
 20
-2.278633576787294
 30
0.0
 40
0.078
  0
CIRCLE
  5
16C
330
2
100
AcDbEntity
  8
0
100
AcDbCircle
 10
29.55279325370407
 20
-2.495133576787293
 30
0.0
 40
0.078
  0
CIRCLE
  5
16D
330
2
100
AcDbEntity
  8
0
100
AcDbCircle
 10
29.67779325370407
 20
-2.278633576787294
 30
0.0
 40
0.078
  0
CIRCLE
  5
16E
330
2
100
AcDbEntity
  8
0
100
AcDbCircle
 10
29.80279325370407
 20
-2.495133576787293
 30
0.0
 40
0.078
  0
CIRCLE
  5
16F
330
2
100
AcDbEntity
  8
0
100
AcDbCircle
 10
29.92779325370407
 20
-2.278633576787294
 30
0.0
 40
0.078
  0
CIRCLE
  5
170
330
2
100
AcDbEntity
  8
0
100
AcDbCircle
 10
30.05279325370407
 20
-2.495133576787293
 30
0.0
 40
0.078
  0
CIRCLE
  5
171
330
2
100
AcDbEntity
  8
0
100
AcDbCircle
 10
30.17779325370407
 20
-2.278633576787294
 30
0.0
 40
0.078
  0
CIRCLE
  5
172
330
2
100
AcDbEntity
  8
0
100
AcDbCircle
 10
30.30279325370407
 20
-2.495133576787293
 30
0.0
 40
0.078
  0
CIRCLE
  5
173
330
2
100
AcDbEntity
  8
0
100
AcDbCircle
 10
30.42779325370407
 20
-2.278633576787294
 30
0.0
 40
0.078
  0
CIRCLE
  5
174
330
2
100
AcDbEntity
  8
0
100
AcDbCircle
 10
30.55279325370407
 20
-2.495133576787293
 30
0.0
 40
0.078
  0
CIRCLE
  5
175
330
2
100
AcDbEntity
  8
0
100
AcDbCircle
 10
30.67779325370407
 20
-2.278633576787294
 30
0.0
 40
0.078
  0
CIRCLE
  5
176
330
2
100
AcDbEntity
  8
0
100
AcDbCircle
 10
30.80279325370407
 20
-5.959133576787293
 30
0.0
 40
0.078
  0
CIRCLE
  5
177
330
2
100
AcDbEntity
  8
0
100
AcDbCircle
 10
30.92779325370407
 20
-5.742633576787294
 30
0.0
 40
0.078
  0
CIRCLE
  5
178
330
2
100
AcDbEntity
  8
0
100
AcDbCircle
 10
31.05279325370407
 20
-5.959133576787293
 30
0.0
 40
0.078
  0
CIRCLE
  5
179
330
2
100
AcDbEntity
  8
0
100
AcDbCircle
 10
31.17779325370407
 20
-5.742633576787294
 30
0.0
 40
0.078
  0
CIRCLE
  5
17A
330
2
100
AcDbEntity
  8
0
100
AcDbCircle
 10
31.30279325370407
 20
-5.959133576787293
 30
0.0
 40
0.078
  0
CIRCLE
  5
17B
330
2
100
AcDbEntity
  8
0
100
AcDbCircle
 10
31.42779325370407
 20
-5.742633576787294
 30
0.0
 40
0.078
  0
CIRCLE
  5
17C
330
2
100
AcDbEntity
  8
0
100
AcDbCircle
 10
31.55279325370407
 20
-5.959133576787293
 30
0.0
 40
0.078
  0
CIRCLE
  5
17D
330
2
100
AcDbEntity
  8
0
100
AcDbCircle
 10
31.67779325370407
 20
-5.742633576787294
 30
0.0
 40
0.078
  0
CIRCLE
  5
17E
330
2
100
AcDbEntity
  8
0
100
AcDbCircle
 10
31.80279325370407
 20
-5.959133576787293
 30
0.0
 40
0.078
  0
CIRCLE
  5
17F
330
2
100
AcDbEntity
  8
0
100
AcDbCircle
 10
31.92779325370407
 20
-5.742633576787294
 30
0.0
 40
0.078
  0
CIRCLE
  5
180
330
2
100
AcDbEntity
  8
0
100
AcDbCircle
 10
32.05279325370407
 20
-5.959133576787293
 30
0.0
 40
0.078
  0
CIRCLE
  5
181
330
2
100
AcDbEntity
  8
0
100
AcDbCircle
 10
32.17779325370408
 20
-5.742633576787294
 30
0.0
 40
0.078
  0
CIRCLE
  5
182
330
2
100
AcDbEntity
  8
0
100
AcDbCircle
 10
32.30279325370407
 20
-5.959133576787293
 30
0.0
 40
0.078
  0
CIRCLE
  5
183
330
2
100
AcDbEntity
  8
0
100
AcDbCircle
 10
32.42779325370408
 20
-5.742633576787294
 30
0.0
 40
0.078
  0
CIRCLE
  5
184
330
2
100
AcDbEntity
  8
0
100
AcDbCircle
 10
30.80279325370407
 20
-5.526133576787294
 30
0.0
 40
0.078
  0
CIRCLE
  5
185
330
2
100
AcDbEntity
  8
0
100
AcDbCircle
 10
30.92779325370407
 20
-5.309633576787295
 30
0.0
 40
0.078
  0
CIRCLE
  5
186
330
2
100
AcDbEntity
  8
0
100
AcDbCircle
 10
31.05279325370407
 20
-5.526133576787294
 30
0.0
 40
0.078
  0
CIRCLE
  5
187
330
2
100
AcDbEntity
  8
0
100
AcDbCircle
 10
31.17779325370407
 20
-5.309633576787295
 30
0.0
 40
0.078
  0
CIRCLE
  5
188
330
2
100
AcDbEntity
  8
0
100
AcDbCircle
 10
31.30279325370407
 20
-5.526133576787294
 30
0.0
 40
0.078
  0
CIRCLE
  5
189
330
2
100
AcDbEntity
  8
0
100
AcDbCircle
 10
31.42779325370407
 20
-5.309633576787295
 30
0.0
 40
0.078
  0
CIRCLE
  5
18A
330
2
100
AcDbEntity
  8
0
100
AcDbCircle
 10
31.55279325370407
 20
-5.526133576787294
 30
0.0
 40
0.078
  0
CIRCLE
  5
18B
330
2
100
AcDbEntity
  8
0
100
AcDbCircle
 10
31.67779325370407
 20
-5.309633576787295
 30
0.0
 40
0.078
  0
CIRCLE
  5
18C
330
2
100
AcDbEntity
  8
0
100
AcDbCircle
 10
31.80279325370407
 20
-5.526133576787294
 30
0.0
 40
0.078
  0
CIRCLE
  5
18D
330
2
100
AcDbEntity
  8
0
100
AcDbCircle
 10
31.92779325370407
 20
-5.309633576787295
 30
0.0
 40
0.078
  0
CIRCLE
  5
18E
330
2
100
AcDbEntity
  8
0
100
AcDbCircle
 10
32.05279325370407
 20
-5.526133576787294
 30
0.0
 40
0.078
  0
CIRCLE
  5
18F
330
2
100
AcDbEntity
  8
0
100
AcDbCircle
 10
32.17779325370408
 20
-5.309633576787295
 30
0.0
 40
0.078
  0
CIRCLE
  5
190
330
2
100
AcDbEntity
  8
0
100
AcDbCircle
 10
32.30279325370407
 20
-5.526133576787294
 30
0.0
 40
0.078
  0
CIRCLE
  5
191
330
2
100
AcDbEntity
  8
0
100
AcDbCircle
 10
32.42779325370408
 20
-5.309633576787295
 30
0.0
 40
0.078
  0
CIRCLE
  5
192
330
2
100
AcDbEntity
  8
0
100
AcDbCircle
 10
30.80279325370407
 20
-5.093133576787295
 30
0.0
 40
0.078
  0
CIRCLE
  5
193
330
2
100
AcDbEntity
  8
0
100
AcDbCircle
 10
30.92779325370407
 20
-4.876633576787294
 30
0.0
 40
0.078
  0
CIRCLE
  5
194
330
2
100
AcDbEntity
  8
0
100
AcDbCircle
 10
31.05279325370407
 20
-5.093133576787295
 30
0.0
 40
0.078
  0
CIRCLE
  5
195
330
2
100
AcDbEntity
  8
0
100
AcDbCircle
 10
31.17779325370407
 20
-4.876633576787294
 30
0.0
 40
0.078
  0
CIRCLE
  5
196
330
2
100
AcDbEntity
  8
0
100
AcDbCircle
 10
31.30279325370407
 20
-5.093133576787295
 30
0.0
 40
0.078
  0
CIRCLE
  5
197
330
2
100
AcDbEntity
  8
0
100
AcDbCircle
 10
31.42779325370407
 20
-4.876633576787294
 30
0.0
 40
0.078
  0
CIRCLE
  5
198
330
2
100
AcDbEntity
  8
0
100
AcDbCircle
 10
31.55279325370407
 20
-5.093133576787295
 30
0.0
 40
0.078
  0
CIRCLE
  5
199
330
2
100
AcDbEntity
  8
0
100
AcDbCircle
 10
31.67779325370407
 20
-4.876633576787294
 30
0.0
 40
0.078
  0
CIRCLE
  5
19A
330
2
100
AcDbEntity
  8
0
100
AcDbCircle
 10
31.80279325370407
 20
-5.093133576787295
 30
0.0
 40
0.078
  0
CIRCLE
  5
19B
330
2
100
AcDbEntity
  8
0
100
AcDbCircle
 10
31.92779325370407
 20
-4.876633576787294
 30
0.0
 40
0.078
  0
CIRCLE
  5
19C
330
2
100
AcDbEntity
  8
0
100
AcDbCircle
 10
32.05279325370407
 20
-5.093133576787295
 30
0.0
 40
0.078
  0
CIRCLE
  5
19D
330
2
100
AcDbEntity
  8
0
100
AcDbCircle
 10
32.17779325370408
 20
-4.876633576787294
 30
0.0
 40
0.078
  0
CIRCLE
  5
19E
330
2
100
AcDbEntity
  8
0
100
AcDbCircle
 10
32.30279325370407
 20
-5.093133576787295
 30
0.0
 40
0.078
  0
CIRCLE
  5
19F
330
2
100
AcDbEntity
  8
0
100
AcDbCircle
 10
32.42779325370408
 20
-4.876633576787294
 30
0.0
 40
0.078
  0
CIRCLE
  5
1A0
330
2
100
AcDbEntity
  8
0
100
AcDbCircle
 10
30.80279325370407
 20
-4.660133576787294
 30
0.0
 40
0.078
  0
CIRCLE
  5
1A1
330
2
100
AcDbEntity
  8
0
100
AcDbCircle
 10
30.92779325370407
 20
-4.443633576787294
 30
0.0
 40
0.078
  0
CIRCLE
  5
1A2
330
2
100
AcDbEntity
  8
0
100
AcDbCircle
 10
31.05279325370407
 20
-4.660133576787294
 30
0.0
 40
0.078
  0
CIRCLE
  5
1A3
330
2
100
AcDbEntity
  8
0
100
AcDbCircle
 10
31.17779325370407
 20
-4.443633576787294
 30
0.0
 40
0.078
  0
CIRCLE
  5
1A4
330
2
100
AcDbEntity
  8
0
100
AcDbCircle
 10
31.30279325370407
 20
-4.660133576787294
 30
0.0
 40
0.078
  0
CIRCLE
  5
1A5
330
2
100
AcDbEntity
  8
0
100
AcDbCircle
 10
31.42779325370407
 20
-4.443633576787294
 30
0.0
 40
0.078
  0
CIRCLE
  5
1A6
330
2
100
AcDbEntity
  8
0
100
AcDbCircle
 10
31.55279325370407
 20
-4.660133576787294
 30
0.0
 40
0.078
  0
CIRCLE
  5
1A7
330
2
100
AcDbEntity
  8
0
100
AcDbCircle
 10
31.67779325370407
 20
-4.443633576787294
 30
0.0
 40
0.078
  0
CIRCLE
  5
1A8
330
2
100
AcDbEntity
  8
0
100
AcDbCircle
 10
31.80279325370407
 20
-4.660133576787294
 30
0.0
 40
0.078
  0
CIRCLE
  5
1A9
330
2
100
AcDbEntity
  8
0
100
AcDbCircle
 10
31.92779325370407
 20
-4.443633576787294
 30
0.0
 40
0.078
  0
CIRCLE
  5
1AA
330
2
100
AcDbEntity
  8
0
100
AcDbCircle
 10
32.05279325370407
 20
-4.660133576787294
 30
0.0
 40
0.078
  0
CIRCLE
  5
1AB
330
2
100
AcDbEntity
  8
0
100
AcDbCircle
 10
32.17779325370408
 20
-4.443633576787294
 30
0.0
 40
0.078
  0
CIRCLE
  5
1AC
330
2
100
AcDbEntity
  8
0
100
AcDbCircle
 10
32.30279325370407
 20
-4.660133576787294
 30
0.0
 40
0.078
  0
CIRCLE
  5
1AD
330
2
100
AcDbEntity
  8
0
100
AcDbCircle
 10
32.42779325370408
 20
-4.443633576787294
 30
0.0
 40
0.078
  0
CIRCLE
  5
1AE
330
2
100
AcDbEntity
  8
0
100
AcDbCircle
 10
30.80279325370407
 20
-4.227133576787293
 30
0.0
 40
0.078
  0
CIRCLE
  5
1AF
330
2
100
AcDbEntity
  8
0
100
AcDbCircle
 10
30.92779325370407
 20
-4.010633576787293
 30
0.0
 40
0.078
  0
CIRCLE
  5
1B0
330
2
100
AcDbEntity
  8
0
100
AcDbCircle
 10
31.05279325370407
 20
-4.227133576787293
 30
0.0
 40
0.078
  0
CIRCLE
  5
1B1
330
2
100
AcDbEntity
  8
0
100
AcDbCircle
 10
31.17779325370407
 20
-4.010633576787293
 30
0.0
 40
0.078
  0
CIRCLE
  5
1B2
330
2
100
AcDbEntity
  8
0
100
AcDbCircle
 10
31.30279325370407
 20
-4.227133576787293
 30
0.0
 40
0.078
  0
CIRCLE
  5
1B3
330
2
100
AcDbEntity
  8
0
100
AcDbCircle
 10
31.42779325370407
 20
-4.010633576787293
 30
0.0
 40
0.078
  0
CIRCLE
  5
1B4
330
2
100
AcDbEntity
  8
0
100
AcDbCircle
 10
31.55279325370407
 20
-4.227133576787293
 30
0.0
 40
0.078
  0
CIRCLE
  5
1B5
330
2
100
AcDbEntity
  8
0
100
AcDbCircle
 10
31.67779325370407
 20
-4.010633576787293
 30
0.0
 40
0.078
  0
CIRCLE
  5
1B6
330
2
100
AcDbEntity
  8
0
100
AcDbCircle
 10
31.80279325370407
 20
-4.227133576787293
 30
0.0
 40
0.078
  0
CIRCLE
  5
1B7
330
2
100
AcDbEntity
  8
0
100
AcDbCircle
 10
31.92779325370407
 20
-4.010633576787293
 30
0.0
 40
0.078
  0
CIRCLE
  5
1B8
330
2
100
AcDbEntity
  8
0
100
AcDbCircle
 10
32.05279325370407
 20
-4.227133576787293
 30
0.0
 40
0.078
  0
CIRCLE
  5
1B9
330
2
100
AcDbEntity
  8
0
100
AcDbCircle
 10
32.17779325370408
 20
-4.010633576787293
 30
0.0
 40
0.078
  0
CIRCLE
  5
1BA
330
2
100
AcDbEntity
  8
0
100
AcDbCircle
 10
32.30279325370407
 20
-4.227133576787293
 30
0.0
 40
0.078
  0
CIRCLE
  5
1BB
330
2
100
AcDbEntity
  8
0
100
AcDbCircle
 10
32.42779325370408
 20
-4.010633576787293
 30
0.0
 40
0.078
  0
CIRCLE
  5
1BC
330
2
100
AcDbEntity
  8
0
100
AcDbCircle
 10
30.80279325370407
 20
-3.794133576787294
 30
0.0
 40
0.078
  0
CIRCLE
  5
1BD
330
2
100
AcDbEntity
  8
0
100
AcDbCircle
 10
30.92779325370407
 20
-3.577633576787293
 30
0.0
 40
0.078
  0
CIRCLE
  5
1BE
330
2
100
AcDbEntity
  8
0
100
AcDbCircle
 10
31.05279325370407
 20
-3.794133576787294
 30
0.0
 40
0.078
  0
CIRCLE
  5
1BF
330
2
100
AcDbEntity
  8
0
100
AcDbCircle
 10
31.17779325370407
 20
-3.577633576787293
 30
0.0
 40
0.078
  0
CIRCLE
  5
1C0
330
2
100
AcDbEntity
  8
0
100
AcDbCircle
 10
31.30279325370407
 20
-3.794133576787294
 30
0.0
 40
0.078
  0
CIRCLE
  5
1C1
330
2
100
AcDbEntity
  8
0
100
AcDbCircle
 10
31.42779325370407
 20
-3.577633576787293
 30
0.0
 40
0.078
  0
CIRCLE
  5
1C2
330
2
100
AcDbEntity
  8
0
100
AcDbCircle
 10
31.55279325370407
 20
-3.794133576787294
 30
0.0
 40
0.078
  0
CIRCLE
  5
1C3
330
2
100
AcDbEntity
  8
0
100
AcDbCircle
 10
31.67779325370407
 20
-3.577633576787293
 30
0.0
 40
0.078
  0
CIRCLE
  5
1C4
330
2
100
AcDbEntity
  8
0
100
AcDbCircle
 10
31.80279325370407
 20
-3.794133576787294
 30
0.0
 40
0.078
  0
CIRCLE
  5
1C5
330
2
100
AcDbEntity
  8
0
100
AcDbCircle
 10
31.92779325370407
 20
-3.577633576787293
 30
0.0
 40
0.078
  0
CIRCLE
  5
1C6
330
2
100
AcDbEntity
  8
0
100
AcDbCircle
 10
32.05279325370407
 20
-3.794133576787294
 30
0.0
 40
0.078
  0
CIRCLE
  5
1C7
330
2
100
AcDbEntity
  8
0
100
AcDbCircle
 10
32.17779325370408
 20
-3.577633576787293
 30
0.0
 40
0.078
  0
CIRCLE
  5
1C8
330
2
100
AcDbEntity
  8
0
100
AcDbCircle
 10
32.30279325370407
 20
-3.794133576787294
 30
0.0
 40
0.078
  0
CIRCLE
  5
1C9
330
2
100
AcDbEntity
  8
0
100
AcDbCircle
 10
32.42779325370408
 20
-3.577633576787293
 30
0.0
 40
0.078
  0
CIRCLE
  5
1CA
330
2
100
AcDbEntity
  8
0
100
AcDbCircle
 10
30.80279325370407
 20
-3.361133576787294
 30
0.0
 40
0.078
  0
CIRCLE
  5
1CB
330
2
100
AcDbEntity
  8
0
100
AcDbCircle
 10
30.92779325370407
 20
-3.144633576787294
 30
0.0
 40
0.078
  0
CIRCLE
  5
1CC
330
2
100
AcDbEntity
  8
0
100
AcDbCircle
 10
31.05279325370407
 20
-3.361133576787294
 30
0.0
 40
0.078
  0
CIRCLE
  5
1CD
330
2
100
AcDbEntity
  8
0
100
AcDbCircle
 10
31.17779325370407
 20
-3.144633576787294
 30
0.0
 40
0.078
  0
CIRCLE
  5
1CE
330
2
100
AcDbEntity
  8
0
100
AcDbCircle
 10
31.30279325370407
 20
-3.361133576787294
 30
0.0
 40
0.078
  0
CIRCLE
  5
1CF
330
2
100
AcDbEntity
  8
0
100
AcDbCircle
 10
31.42779325370407
 20
-3.144633576787294
 30
0.0
 40
0.078
  0
CIRCLE
  5
1D0
330
2
100
AcDbEntity
  8
0
100
AcDbCircle
 10
31.55279325370407
 20
-3.361133576787294
 30
0.0
 40
0.078
  0
CIRCLE
  5
1D1
330
2
100
AcDbEntity
  8
0
100
AcDbCircle
 10
31.67779325370407
 20
-3.144633576787294
 30
0.0
 40
0.078
  0
CIRCLE
  5
1D2
330
2
100
AcDbEntity
  8
0
100
AcDbCircle
 10
31.80279325370407
 20
-3.361133576787294
 30
0.0
 40
0.078
  0
CIRCLE
  5
1D3
330
2
100
AcDbEntity
  8
0
100
AcDbCircle
 10
31.92779325370407
 20
-3.144633576787294
 30
0.0
 40
0.078
  0
CIRCLE
  5
1D4
330
2
100
AcDbEntity
  8
0
100
AcDbCircle
 10
32.05279325370407
 20
-3.361133576787294
 30
0.0
 40
0.078
  0
CIRCLE
  5
1D5
330
2
100
AcDbEntity
  8
0
100
AcDbCircle
 10
32.17779325370408
 20
-3.144633576787294
 30
0.0
 40
0.078
  0
CIRCLE
  5
1D6
330
2
100
AcDbEntity
  8
0
100
AcDbCircle
 10
32.30279325370407
 20
-3.361133576787294
 30
0.0
 40
0.078
  0
CIRCLE
  5
1D7
330
2
100
AcDbEntity
  8
0
100
AcDbCircle
 10
32.42779325370408
 20
-3.144633576787294
 30
0.0
 40
0.078
  0
CIRCLE
  5
1D8
330
2
100
AcDbEntity
  8
0
100
AcDbCircle
 10
30.80279325370407
 20
-2.928133576787294
 30
0.0
 40
0.078
  0
CIRCLE
  5
1D9
330
2
100
AcDbEntity
  8
0
100
AcDbCircle
 10
30.92779325370407
 20
-2.711633576787294
 30
0.0
 40
0.078
  0
CIRCLE
  5
1DA
330
2
100
AcDbEntity
  8
0
100
AcDbCircle
 10
31.05279325370407
 20
-2.928133576787294
 30
0.0
 40
0.078
  0
CIRCLE
  5
1DB
330
2
100
AcDbEntity
  8
0
100
AcDbCircle
 10
31.17779325370407
 20
-2.711633576787294
 30
0.0
 40
0.078
  0
CIRCLE
  5
1DC
330
2
100
AcDbEntity
  8
0
100
AcDbCircle
 10
31.30279325370407
 20
-2.928133576787294
 30
0.0
 40
0.078
  0
CIRCLE
  5
1DD
330
2
100
AcDbEntity
  8
0
100
AcDbCircle
 10
31.42779325370407
 20
-2.711633576787294
 30
0.0
 40
0.078
  0
CIRCLE
  5
1DE
330
2
100
AcDbEntity
  8
0
100
AcDbCircle
 10
31.55279325370407
 20
-2.928133576787294
 30
0.0
 40
0.078
  0
CIRCLE
  5
1DF
330
2
100
AcDbEntity
  8
0
100
AcDbCircle
 10
31.67779325370407
 20
-2.711633576787294
 30
0.0
 40
0.078
  0
CIRCLE
  5
1E0
330
2
100
AcDbEntity
  8
0
100
AcDbCircle
 10
31.80279325370407
 20
-2.928133576787294
 30
0.0
 40
0.078
  0
CIRCLE
  5
1E1
330
2
100
AcDbEntity
  8
0
100
AcDbCircle
 10
31.92779325370407
 20
-2.711633576787294
 30
0.0
 40
0.078
  0
CIRCLE
  5
1E2
330
2
100
AcDbEntity
  8
0
100
AcDbCircle
 10
32.05279325370407
 20
-2.928133576787294
 30
0.0
 40
0.078
  0
CIRCLE
  5
1E3
330
2
100
AcDbEntity
  8
0
100
AcDbCircle
 10
32.17779325370408
 20
-2.711633576787294
 30
0.0
 40
0.078
  0
CIRCLE
  5
1E4
330
2
100
AcDbEntity
  8
0
100
AcDbCircle
 10
32.30279325370407
 20
-2.928133576787294
 30
0.0
 40
0.078
  0
CIRCLE
  5
1E5
330
2
100
AcDbEntity
  8
0
100
AcDbCircle
 10
32.42779325370408
 20
-2.711633576787294
 30
0.0
 40
0.078
  0
CIRCLE
  5
1E6
330
2
100
AcDbEntity
  8
0
100
AcDbCircle
 10
30.80279325370407
 20
-2.495133576787293
 30
0.0
 40
0.078
  0
CIRCLE
  5
1E7
330
2
100
AcDbEntity
  8
0
100
AcDbCircle
 10
30.92779325370407
 20
-2.278633576787294
 30
0.0
 40
0.078
  0
CIRCLE
  5
1E8
330
2
100
AcDbEntity
  8
0
100
AcDbCircle
 10
31.05279325370407
 20
-2.495133576787293
 30
0.0
 40
0.078
  0
CIRCLE
  5
1E9
330
2
100
AcDbEntity
  8
0
100
AcDbCircle
 10
31.17779325370407
 20
-2.278633576787294
 30
0.0
 40
0.078
  0
CIRCLE
  5
1EA
330
2
100
AcDbEntity
  8
0
100
AcDbCircle
 10
31.30279325370407
 20
-2.495133576787293
 30
0.0
 40
0.078
  0
CIRCLE
  5
1EB
330
2
100
AcDbEntity
  8
0
100
AcDbCircle
 10
31.42779325370407
 20
-2.278633576787294
 30
0.0
 40
0.078
  0
CIRCLE
  5
1EC
330
2
100
AcDbEntity
  8
0
100
AcDbCircle
 10
31.55279325370407
 20
-2.495133576787293
 30
0.0
 40
0.078
  0
CIRCLE
  5
1ED
330
2
100
AcDbEntity
  8
0
100
AcDbCircle
 10
31.67779325370407
 20
-2.278633576787294
 30
0.0
 40
0.078
  0
CIRCLE
  5
1EE
330
2
100
AcDbEntity
  8
0
100
AcDbCircle
 10
31.80279325370407
 20
-2.495133576787293
 30
0.0
 40
0.078
  0
CIRCLE
  5
1EF
330
2
100
AcDbEntity
  8
0
100
AcDbCircle
 10
31.92779325370407
 20
-2.278633576787294
 30
0.0
 40
0.078
  0
CIRCLE
  5
1F0
330
2
100
AcDbEntity
  8
0
100
AcDbCircle
 10
32.05279325370407
 20
-2.495133576787293
 30
0.0
 40
0.078
  0
CIRCLE
  5
1F1
330
2
100
AcDbEntity
  8
0
100
AcDbCircle
 10
32.17779325370408
 20
-2.278633576787294
 30
0.0
 40
0.078
  0
CIRCLE
  5
1F2
330
2
100
AcDbEntity
  8
0
100
AcDbCircle
 10
32.30279325370407
 20
-2.495133576787293
 30
0.0
 40
0.078
  0
CIRCLE
  5
1F3
330
2
100
AcDbEntity
  8
0
100
AcDbCircle
 10
32.42779325370408
 20
-2.278633576787294
 30
0.0
 40
0.078
  0
DIMENSION
  5
1F4
330
2
100
AcDbEntity
  8
0
100
AcDbDimension
  2
*D0
 10
30.42779325370407
 20
-1.85612271424972
 30
0.0
 11
31.15708546149628
 21
-1.85612271424972
 31
0.0
 70
     1
 71
     5
 42
0.25
  3
Standard
100
AcDbAlignedDimension
 13
30.17779325370407
 23
-2.278633576787294
 33
0.0
 14
30.42779325370407
 24
-2.278633576787294
 34
0.0
  0
DIMENSION
  5
204
330
2
100
AcDbEntity
  8
0
100
AcDbDimension
  2
*D1
 10
27.36381613518907
 20
-3.361133576787296
 30
0.0
 11
27.36381613518906
 21
-3.144633576787303
 31
0.0
 70
     1
 71
     5
 42
0.4330000000000013
  3
Standard
100
AcDbAlignedDimension
 13
28.05279325370407
 23
-2.928133576787294
 33
0.0
 14
28.05279325370407
 24
-3.361133576787294
 34
0.0
  0
DIMENSION
  5
212
330
2
100
AcDbEntity
  8
0
100
AcDbDimension
  2
*D2
 10
32.90127981853215
 20
-6.016009191584101
 30
0.0
 11
33.63057598645503
 21
-5.704242332637756
 31
0.0
 70
     1
 71
     5
 42
0.249994499939497
  3
Standard
100
AcDbAlignedDimension
 13
32.30279325370407
 23
-5.959133576787293
 33
0.0
 14
32.42779325370408
 24
-5.742633576787294
 34
0.0
  0
DIMENSION
  5
221
330
2
100
AcDbEntity
  8
0
100
AcDbDimension
  2
*D3
 10
32.36469365245141
 20
-2.75748595209932
 30
0.0
 11
33.4497032529009
 21
-2.422598900865481
 31
0.0
 70
   131
 71
     5
 42
0.1559999999999917
  3
Standard
100
AcDbDiametricDimension
 15
32.49089285495672
 25
-2.665781201475263
 35
0.0
 40
0.0
1001
ACAD
1000
DSTYLE
1002
{
1070
   288
1070
     1
1002
}
1001
ACAD_DSTYLE_DIMRADIAL_EXTENSION
1070
   387
1070
     1
1070
   388
1040
0.0
1070
   390
1040
0.0
  0
ENDSEC
  0
SECTION
  2
OBJECTS
  0
DICTIONARY
  5
B
330
0
100
AcDbDictionary
281
     1
  3
ACAD_2007HEADERVARS_RT
350
25D
  3
ACAD_CIP_PREVIOUS_PRODUCT_INFO
350
254
  3
ACAD_COLOR
350
4B
  3
ACAD_DETAILVIEWSTYLE
350
24F
  3
ACAD_GROUP
350
38
  3
ACAD_LAYOUT
350
19
  3
ACAD_MATERIAL
350
D
  3
ACAD_MLEADERSTYLE
350
4E
  3
ACAD_MLINESTYLE
350
39
  3
ACAD_PLOTSETTINGS
350
3A
  3
ACAD_PLOTSTYLENAME
350
A
  3
ACAD_SCALELIST
350
4C
  3
ACAD_SECTIONVIEWSTYLE
350
24D
  3
ACAD_TABLESTYLE
350
4D
  3
ACAD_VISUALSTYLE
350
2D
  3
ACDB_RECOMPOSE_DATA
350
25B
  3
AcDbVariableDictionary
350
4F
  3
AcDsDecomposeData
350
264
  3
DWGPROPS
350
25C
  0
DICTIONARY
  5
2F
330
2A
100
AcDbDictionary
280
     1
281
     1
  0
DICTIONARY
  5
20
330
1F
100
AcDbDictionary
280
     1
281
     1
  3
ACAD_LAYERSTATES
360
21
  0
DICTIONARY
  5
7
330
6
100
AcDbDictionary
280
     1
281
     1
  3
ADSK_XREC_LAYER_RECONCILED
360
8
  0
DICTIONARY
  5
85
330
84
100
AcDbDictionary
280
     1
281
     1
  3
ADSK_XREC_LAYER_RECONCILED
360
86
  0
DICTIONARY
  5
8D
330
8C
100
AcDbDictionary
280
     1
281
     1
  3
ADSK_XREC_LAYER_RECONCILED
360
8E
  0
DICTIONARY
  5
3
330
2
100
AcDbDictionary
280
     1
281
     1
  3
ACAD_SORTENTS
360
22F
  0
DICTIONARY
  5
227
330
226
100
AcDbDictionary
280
     1
281
     1
  3
ACAD_MTEXT_RT
360
277
  0
DICTIONARY
  5
25D
102
{ACAD_REACTORS
330
B
102
}
330
B
100
AcDbDictionary
281
     1
  3
INTERFEREVPVS
350
25E
  0
XRECORD
  5
254
102
{ACAD_REACTORS
330
B
102
}
330
B
100
AcDbXrecord
280
     1
300
ACD
300
2021
300

  0
DICTIONARY
  5
4B
102
{ACAD_REACTORS
330
B
102
}
330
B
100
AcDbDictionary
281
     1
  0
DICTIONARY
  5
24F
102
{ACAD_REACTORS
330
B
102
}
330
B
100
AcDbDictionary
281
     1
  3
Imperial24
350
250
  0
DICTIONARY
  5
38
102
{ACAD_REACTORS
330
B
102
}
330
B
100
AcDbDictionary
281
     1
  0
DICTIONARY
  5
19
102
{ACAD_REACTORS
330
B
102
}
330
B
100
AcDbDictionary
281
     1
  3
Layout1
350
1E
  3
Model
350
18
  0
DICTIONARY
  5
D
102
{ACAD_REACTORS
330
B
102
}
330
B
100
AcDbDictionary
281
     1
  3
ByBlock
350
43
  3
ByLayer
350
3B
  3
Global
350
C
  0
DICTIONARY
  5
4E
102
{ACAD_REACTORS
330
B
102
}
330
B
100
AcDbDictionary
281
     1
  3
Standard
350
24C
  0
DICTIONARY
  5
39
102
{ACAD_REACTORS
330
B
102
}
330
B
100
AcDbDictionary
281
     1
  3
Standard
350
5D
  0
DICTIONARY
  5
3A
102
{ACAD_REACTORS
330
B
102
}
330
B
100
AcDbDictionary
281
     1
  0
ACDBDICTIONARYWDFLT
  5
A
102
{ACAD_REACTORS
330
B
102
}
330
B
100
AcDbDictionary
281
     1
  3
Normal
350
9
100
AcDbDictionaryWithDefault
340
9
  0
DICTIONARY
  5
4C
102
{ACAD_REACTORS
330
B
102
}
330
B
100
AcDbDictionary
281
     1
  3
A0
350
62
  3
A1
350
63
  3
A2
350
64
  3
A3
350
65
  3
A4
350
66
  3
A5
350
67
  3
A6
350
68
  3
A7
350
69
  3
A8
350
6A
  3
A9
350
6B
  3
B0
350
6C
  3
B1
350
6D
  3
B2
350
6E
  3
B3
350
6F
  3
B4
350
70
  3
B5
350
71
  3
B6
350
72
  3
B7
350
73
  3
B8
350
74
  3
B9
350
75
  3
C0
350
76
  3
C1
350
77
  3
C2
350
78
  3
C3
350
79
  3
C4
350
7A
  3
C5
350
7B
  3
C6
350
7C
  3
C7
350
7D
  3
C8
350
7E
  3
C9
350
7F
  3
D0
350
80
  3
D1
350
81
  3
D2
350
82
  0
DICTIONARY
  5
24D
102
{ACAD_REACTORS
330
B
102
}
330
B
100
AcDbDictionary
281
     1
  3
Imperial24
350
24E
  0
DICTIONARY
  5
4D
102
{ACAD_REACTORS
330
B
102
}
330
B
100
AcDbDictionary
281
     1
  3
Standard
350
5E
  0
DICTIONARY
  5
2D
102
{ACAD_REACTORS
330
B
102
}
330
B
100
AcDbDictionary
281
     1
  3
2dWireframe
350
2C
  3
3dWireframe
350
61
  3
Basic
350
23B
  3
Brighten
350
240
  3
ColorChange
350
244
  3
Conceptual
350
23E
  3
Dim
350
23F
  3
EdgeColorOff
350
1FC
  3
Facepattern
350
243
  3
Flat
350
237
  3
FlatWithEdges
350
238
  3
Gouraud
350
239
  3
GouraudWithEdges
350
23A
  3
Hidden
350
23D
  3
JitterOff
350
24A
  3
Linepattern
350
242
  3
OverhangOff
350
24B
  3
Realistic
350
60
  3
Shaded
350
249
  3
Shaded with edges
350
248
  3
Shades of Gray
350
245
  3
Sketchy
350
246
  3
Thicken
350
241
  3
Wireframe
350
23C
  3
X-Ray
350
247
  0
XRECORD
  5
25B
102
{ACAD_REACTORS
330
B
102
}
330
B
100
AcDbXrecord
280
     1
 90
        1
330
5E
  0
DICTIONARY
  5
4F
102
{ACAD_REACTORS
330
B
102
}
330
B
100
AcDbDictionary
281
     1
  3
CANNOSCALE
350
50
  3
CMLEADERSTYLE
350
51
  3
CTABLESTYLE
350
52
  3
CVIEWDETAILSTYLE
350
53
  3
CVIEWSECTIONSTYLE
350
54
  3
DIMASSOC
350
55
  3
HIDETEXT
350
255
  3
INDEXCTL
350
56
  3
LAYEREVAL
350
57
  3
LAYERNOTIFY
350
58
  3
LIGHTINGUNITS
350
59
  3
LOFTANG1
350
256
  3
LOFTANG2
350
257
  3
LONGITUDE
350
258
  3
MLEADERSCALE
350
5A
  3
MSLTSCALE
350
5B
  3
SORTENTS
350
5C
  3
XCLIPFRAME
350
259
  0
DICTIONARY
  5
264
102
{ACAD_REACTORS
330
B
102
}
330
B
100
AcDbDictionary
281
     1
  3
AcDsRecords
350
266
  3
AcDsSchemas
350
265
1001
ACAD
1070
     2
  0
XRECORD
  5
25C
102
{ACAD_REACTORS
330
B
102
}
330
B
100
AcDbXrecord
280
     1
  1
DWGPROPS COOKIE
  2

  3

  4

  6

  7

  8
dpavlico
  9

300
=
301
=
302
=
303
=
304
=
305
=
306
=
307
=
308
=
309
=
 40
0.6429726851851852
 41
2458080.687511574
 42
2459838.480405093
  1

 90
        0
  0
DICTIONARY
  5
21
102
{ACAD_REACTORS
330
20
102
}
330
20
100
AcDbDictionary
281
     1
  0
XRECORD
  5
8
102
{ACAD_REACTORS
330
7
102
}
330
7
100
AcDbXrecord
280
     1
290
     1
  0
XRECORD
  5
86
102
{ACAD_REACTORS
330
85
102
}
330
85
100
AcDbXrecord
280
     1
290
     1
  0
XRECORD
  5
8E
102
{ACAD_REACTORS
330
8D
102
}
330
8D
100
AcDbXrecord
280
     1
290
     1
  0
SORTENTSTABLE
  5
22F
102
{ACAD_REACTORS
330
3
102
}
330
3
100
AcDbSortentsTable
330
2
  0
XRECORD
  5
277
102
{ACAD_REACTORS
330
227
102
}
330
227
100
AcDbXrecord
280
     1
 40
7308.0
  1
\A1;\U+22050.156
  0
XRECORD
  5
25E
102
{ACAD_REACTORS
330
25D
102
}
330
25D
100
AcDbXrecord
280
     1
340
61
  0
ACDBDETAILVIEWSTYLE
  5
250
102
{ACAD_XDICTIONARY
360
2A7
102
}
102
{ACAD_REACTORS
330
24F
102
}
330
24F
100
AcDbModelDocViewStyle
 70
     0
  3
Imperial24
290
     0
100
AcDbDetailViewStyle
 70
     0
 71
     0
 90
        3
 71
     1
340
23
 40
0.24
340
0
 40
0.24
300

 40
0.36
280
     3
 71
     2
340
16
 90
       25
 71
     3
340
23
 40
0.24
 90
        1
 40
0.75
 90
        1
300
%<\AcVar ViewType \f "%tc1">% %<\AcVar ViewDetailId>%\PSCALE %<\AcVar ViewScale \f "%sn">%
 71
     4
340
16
 90
       25
340
16
 90
       25
280
     0
  0
LAYOUT
  5
1E
102
{ACAD_XDICTIONARY
360
26A
102
}
102
{ACAD_REACTORS
330
19
102
}
330
19
100
AcDbPlotSettings
  1

  2
C:\Program Files\AutoCAD 2000i\plotters\DWF Classic.pc3
  4

  6

 40
0.0
 41
0.0
 42
0.0
 43
0.0
 44
0.0
 45
0.0
 46
0.0
 47
0.0
 48
0.0
 49
0.0
140
0.0
141
0.0
142
1.0
143
1.0
 70
   688
 72
     0
 73
     0
 74
     5
  7
monochrome.ctb
 75
    16
147
1.0
148
0.0
149
0.0
100
AcDbLayout
  1
Layout1
 70
     0
 71
     1
 10
0.0
 20
0.0
 11
12.0
 21
9.0
 12
0.0
 22
0.0
 32
0.0
 14
1.000000000000000E+20
 24
1.000000000000000E+20
 34
1.000000000000000E+20
 15
-1.000000000000000E+20
 25
-1.000000000000000E+20
 35
-1.000000000000000E+20
146
0.0
 13
0.0
 23
0.0
 33
0.0
 16
1.0
 26
0.0
 36
0.0
 17
0.0
 27
1.0
 37
0.0
 76
     0
330
1B
  0
LAYOUT
  5
18
102
{ACAD_XDICTIONARY
360
268
102
}
102
{ACAD_REACTORS
330
19
102
}
330
19
100
AcDbPlotSettings
  1

  2
NPI39DC37 (HP LaserJet M604)
  4
Letter
  6

 40
5.027082920074462
 41
5.027099609375
 42
5.027069091796875
 43
5.027069091796875
 44
215.8999938964844
 45
279.3999938964844
 46
0.0
 47
0.7491115222162587
 48
-27.102215
 49
70.071028
140
70.323785
141
144.944713
142
1.0
143
9.238911904113418
 70
  3764
 72
     0
 73
     1
 74
     4
  7
monochrome.ctb
 75
     0
147
0.1082378542385248
148
688.396261
149
-1779.8041112
100
AcDbLayout
  1
Model
 70
     1
 71
     0
 10
0.0
 20
0.0
 11
12.0
 21
9.0
 12
0.0
 22
0.0
 32
0.0
 14
0.0
 24
0.0
 34
0.0
 15
0.0
 25
0.0
 35
0.0
146
0.0
 13
0.0
 23
0.0
 33
0.0
 16
1.0
 26
0.0
 36
0.0
 17
0.0
 27
1.0
 37
0.0
 76
     0
330
2
331
2B
1001
ACAD_PSEXT
1000
NPI39DC37 (HP LaserJet M604)
1000
HP LaserJet M604 PCL 6
1000
WSD-6a8017d3-e7fe-4860-90e2-c8c65b3d33a8.0031
1000

1070
     0
  0
MATERIAL
  5
43
102
{ACAD_XDICTIONARY
360
44
102
}
102
{ACAD_REACTORS
330
D
102
}
330
D
100
AcDbMaterial
  1
ByBlock
 72
     0
 43
0.0208333333333333
 43
0.0
 43
0.0
 43
0.0
 43
0.0
 43
0.0208333333333333
 43
0.0
 43
0.0
 43
0.0
 43
0.0
 43
1.0
 43
0.0
 43
0.0
 43
0.0
 43
0.0
 43
1.0
 77
     0
 47
0.0208333333333333
 47
0.0
 47
0.0
 47
0.0
 47
0.0
 47
0.0208333333333333
 47
0.0
 47
0.0
 47
0.0
 47
0.0
 47
1.0
 47
0.0
 47
0.0
 47
0.0
 47
0.0
 47
1.0
171
     0
 49
0.0208333333333333
 49
0.0
 49
0.0
 49
0.0
 49
0.0
 49
0.0208333333333333
 49
0.0
 49
0.0
 49
0.0
 49
0.0
 49
1.0
 49
0.0
 49
0.0
 49
0.0
 49
0.0
 49
1.0
175
     0
142
0.0208333333333333
142
0.0
142
0.0
142
0.0
142
0.0
142
0.0208333333333333
142
0.0
142
0.0
142
0.0
142
0.0
142
1.0
142
0.0
142
0.0
142
0.0
142
0.0
142
1.0
179
     0
144
0.0208333333333333
144
0.0
144
0.0
144
0.0
144
0.0
144
0.0208333333333333
144
0.0
144
0.0
144
0.0
144
0.0
144
1.0
144
0.0
144
0.0
144
0.0
144
0.0
144
1.0
147
0.0208333333333333
147
0.0
147
0.0
147
0.0
147
0.0
147
0.0208333333333333
147
0.0
147
0.0
147
0.0
147
0.0
147
1.0
147
0.0
147
0.0
147
0.0
147
0.0
147
1.0
  0
MATERIAL
  5
3B
102
{ACAD_XDICTIONARY
360
3C
102
}
102
{ACAD_REACTORS
330
D
102
}
330
D
100
AcDbMaterial
  1
ByLayer
 72
     0
 43
0.0208333333333333
 43
0.0
 43
0.0
 43
0.0
 43
0.0
 43
0.0208333333333333
 43
0.0
 43
0.0
 43
0.0
 43
0.0
 43
1.0
 43
0.0
 43
0.0
 43
0.0
 43
0.0
 43
1.0
 77
     0
 47
0.0208333333333333
 47
0.0
 47
0.0
 47
0.0
 47
0.0
 47
0.0208333333333333
 47
0.0
 47
0.0
 47
0.0
 47
0.0
 47
1.0
 47
0.0
 47
0.0
 47
0.0
 47
0.0
 47
1.0
171
     0
 49
0.0208333333333333
 49
0.0
 49
0.0
 49
0.0
 49
0.0
 49
0.0208333333333333
 49
0.0
 49
0.0
 49
0.0
 49
0.0
 49
1.0
 49
0.0
 49
0.0
 49
0.0
 49
0.0
 49
1.0
175
     0
142
0.0208333333333333
142
0.0
142
0.0
142
0.0
142
0.0
142
0.0208333333333333
142
0.0
142
0.0
142
0.0
142
0.0
142
1.0
142
0.0
142
0.0
142
0.0
142
0.0
142
1.0
179
     0
144
0.0208333333333333
144
0.0
144
0.0
144
0.0
144
0.0
144
0.0208333333333333
144
0.0
144
0.0
144
0.0
144
0.0
144
1.0
144
0.0
144
0.0
144
0.0
144
0.0
144
1.0
147
0.0208333333333333
147
0.0
147
0.0
147
0.0
147
0.0
147
0.0208333333333333
147
0.0
147
0.0
147
0.0
147
0.0
147
1.0
147
0.0
147
0.0
147
0.0
147
0.0
147
1.0
  0
MATERIAL
  5
C
102
{ACAD_XDICTIONARY
360
E
102
}
102
{ACAD_REACTORS
330
D
102
}
330
D
100
AcDbMaterial
  1
Global
 72
     0
 43
0.0208333333333333
 43
0.0
 43
0.0
 43
0.0
 43
0.0
 43
0.0208333333333333
 43
0.0
 43
0.0
 43
0.0
 43
0.0
 43
1.0
 43
0.0
 43
0.0
 43
0.0
 43
0.0
 43
1.0
 77
     0
 47
0.0208333333333333
 47
0.0
 47
0.0
 47
0.0
 47
0.0
 47
0.0208333333333333
 47
0.0
 47
0.0
 47
0.0
 47
0.0
 47
1.0
 47
0.0
 47
0.0
 47
0.0
 47
0.0
 47
1.0
171
     0
 49
0.0208333333333333
 49
0.0
 49
0.0
 49
0.0
 49
0.0
 49
0.0208333333333333
 49
0.0
 49
0.0
 49
0.0
 49
0.0
 49
1.0
 49
0.0
 49
0.0
 49
0.0
 49
0.0
 49
1.0
175
     0
142
0.0208333333333333
142
0.0
142
0.0
142
0.0
142
0.0
142
0.0208333333333333
142
0.0
142
0.0
142
0.0
142
0.0
142
1.0
142
0.0
142
0.0
142
0.0
142
0.0
142
1.0
179
     0
144
0.0208333333333333
144
0.0
144
0.0
144
0.0
144
0.0
144
0.0208333333333333
144
0.0
144
0.0
144
0.0
144
0.0
144
1.0
144
0.0
144
0.0
144
0.0
144
0.0
144
1.0
147
0.0208333333333333
147
0.0
147
0.0
147
0.0
147
0.0
147
0.0208333333333333
147
0.0
147
0.0
147
0.0
147
0.0
147
1.0
147
0.0
147
0.0
147
0.0
147
0.0
147
1.0
  0
MLEADERSTYLE
  5
24C
102
{ACAD_XDICTIONARY
360
2A3
102
}
102
{ACAD_REACTORS
330
4E
102
}
330
4E
100
AcDbMLeaderStyle
170
     2
171
     1
172
     0
 90
        2
 40
0.0
 41
0.0
173
     1
 91
-1056964608
340
26
 92
       -2
290
     1
 42
0.09
291
     1
 43
0.36
  3
Standard
 44
0.18
300

342
23
174
     1
178
     6
175
     1
176
     0
 93
-1056964608
 45
0.18
292
     0
297
     0
 46
0.18
 94
-1056964608
 47
1.0
 49
1.0
140
1.0
293
     1
141
0.0
294
     1
177
     0
142
1.0
295
     0
296
     0
143
0.125
1001
ACAD_MLEADERVER
1070
     2
  0
MLINESTYLE
  5
5D
102
{ACAD_REACTORS
330
39
102
}
330
39
100
AcDbMlineStyle
  2
STANDARD
 70
     0
  3

 62
   256
 51
90.0
 52
90.0
 71
     2
 49
0.5
 62
   256
  6
BYLAYER
 49
-0.5
 62
   256
  6
BYLAYER
  0
ACDBPLACEHOLDER
  5
9
102
{ACAD_REACTORS
330
A
102
}
330
A
  0
SCALE
  5
62
102
{ACAD_REACTORS
330
4C
102
}
330
4C
100
AcDbScale
 70
     0
300
1:1
140
1.0
141
1.0
290
     1
  0
SCALE
  5
63
102
{ACAD_REACTORS
330
4C
102
}
330
4C
100
AcDbScale
 70
     0
300
1:2
140
1.0
141
2.0
290
     0
  0
SCALE
  5
64
102
{ACAD_REACTORS
330
4C
102
}
330
4C
100
AcDbScale
 70
     0
300
1:4
140
1.0
141
4.0
290
     0
  0
SCALE
  5
65
102
{ACAD_REACTORS
330
4C
102
}
330
4C
100
AcDbScale
 70
     0
300
1:5
140
1.0
141
5.0
290
     0
  0
SCALE
  5
66
102
{ACAD_REACTORS
330
4C
102
}
330
4C
100
AcDbScale
 70
     0
300
1:8
140
1.0
141
8.0
290
     0
  0
SCALE
  5
67
102
{ACAD_REACTORS
330
4C
102
}
330
4C
100
AcDbScale
 70
     0
300
1:10
140
1.0
141
10.0
290
     0
  0
SCALE
  5
68
102
{ACAD_REACTORS
330
4C
102
}
330
4C
100
AcDbScale
 70
     0
300
1:16
140
1.0
141
16.0
290
     0
  0
SCALE
  5
69
102
{ACAD_REACTORS
330
4C
102
}
330
4C
100
AcDbScale
 70
     0
300
1:20
140
1.0
141
20.0
290
     0
  0
SCALE
  5
6A
102
{ACAD_REACTORS
330
4C
102
}
330
4C
100
AcDbScale
 70
     0
300
1:30
140
1.0
141
30.0
290
     0
  0
SCALE
  5
6B
102
{ACAD_REACTORS
330
4C
102
}
330
4C
100
AcDbScale
 70
     0
300
1:40
140
1.0
141
40.0
290
     0
  0
SCALE
  5
6C
102
{ACAD_REACTORS
330
4C
102
}
330
4C
100
AcDbScale
 70
     0
300
1:50
140
1.0
141
50.0
290
     0
  0
SCALE
  5
6D
102
{ACAD_REACTORS
330
4C
102
}
330
4C
100
AcDbScale
 70
     0
300
1:100
140
1.0
141
100.0
290
     0
  0
SCALE
  5
6E
102
{ACAD_REACTORS
330
4C
102
}
330
4C
100
AcDbScale
 70
     0
300
2:1
140
2.0
141
1.0
290
     0
  0
SCALE
  5
6F
102
{ACAD_REACTORS
330
4C
102
}
330
4C
100
AcDbScale
 70
     0
300
4:1
140
4.0
141
1.0
290
     0
  0
SCALE
  5
70
102
{ACAD_REACTORS
330
4C
102
}
330
4C
100
AcDbScale
 70
     0
300
8:1
140
8.0
141
1.0
290
     0
  0
SCALE
  5
71
102
{ACAD_REACTORS
330
4C
102
}
330
4C
100
AcDbScale
 70
     0
300
10:1
140
10.0
141
1.0
290
     0
  0
SCALE
  5
72
102
{ACAD_REACTORS
330
4C
102
}
330
4C
100
AcDbScale
 70
     0
300
100:1
140
100.0
141
1.0
290
     0
  0
SCALE
  5
73
102
{ACAD_REACTORS
330
4C
102
}
330
4C
100
AcDbScale
 70
     0
300
1/128" = 1'-0"
140
0.0078125
141
12.0
290
     0
  0
SCALE
  5
74
102
{ACAD_REACTORS
330
4C
102
}
330
4C
100
AcDbScale
 70
     0
300
1/64" = 1'-0"
140
0.015625
141
12.0
290
     0
  0
SCALE
  5
75
102
{ACAD_REACTORS
330
4C
102
}
330
4C
100
AcDbScale
 70
     0
300
1/32" = 1'-0"
140
0.03125
141
12.0
290
     0
  0
SCALE
  5
76
102
{ACAD_REACTORS
330
4C
102
}
330
4C
100
AcDbScale
 70
     0
300
1/16" = 1'-0"
140
0.0625
141
12.0
290
     0
  0
SCALE
  5
77
102
{ACAD_REACTORS
330
4C
102
}
330
4C
100
AcDbScale
 70
     0
300
3/32" = 1'-0"
140
0.09375
141
12.0
290
     0
  0
SCALE
  5
78
102
{ACAD_REACTORS
330
4C
102
}
330
4C
100
AcDbScale
 70
     0
300
1/8" = 1'-0"
140
0.125
141
12.0
290
     0
  0
SCALE
  5
79
102
{ACAD_REACTORS
330
4C
102
}
330
4C
100
AcDbScale
 70
     0
300
3/16" = 1'-0"
140
0.1875
141
12.0
290
     0
  0
SCALE
  5
7A
102
{ACAD_REACTORS
330
4C
102
}
330
4C
100
AcDbScale
 70
     0
300
1/4" = 1'-0"
140
0.25
141
12.0
290
     0
  0
SCALE
  5
7B
102
{ACAD_REACTORS
330
4C
102
}
330
4C
100
AcDbScale
 70
     0
300
3/8" = 1'-0"
140
0.375
141
12.0
290
     0
  0
SCALE
  5
7C
102
{ACAD_REACTORS
330
4C
102
}
330
4C
100
AcDbScale
 70
     0
300
1/2" = 1'-0"
140
0.5
141
12.0
290
     0
  0
SCALE
  5
7D
102
{ACAD_REACTORS
330
4C
102
}
330
4C
100
AcDbScale
 70
     0
300
3/4" = 1'-0"
140
0.75
141
12.0
290
     0
  0
SCALE
  5
7E
102
{ACAD_REACTORS
330
4C
102
}
330
4C
100
AcDbScale
 70
     0
300
1" = 1'-0"
140
1.0
141
12.0
290
     0
  0
SCALE
  5
7F
102
{ACAD_REACTORS
330
4C
102
}
330
4C
100
AcDbScale
 70
     0
300
1-1/2" = 1'-0"
140
1.5
141
12.0
290
     0
  0
SCALE
  5
80
102
{ACAD_REACTORS
330
4C
102
}
330
4C
100
AcDbScale
 70
     0
300
3" = 1'-0"
140
3.0
141
12.0
290
     0
  0
SCALE
  5
81
102
{ACAD_REACTORS
330
4C
102
}
330
4C
100
AcDbScale
 70
     0
300
6" = 1'-0"
140
6.0
141
12.0
290
     0
  0
SCALE
  5
82
102
{ACAD_REACTORS
330
4C
102
}
330
4C
100
AcDbScale
 70
     0
300
1'-0" = 1'-0"
140
12.0
141
12.0
290
     0
  0
ACDBSECTIONVIEWSTYLE
  5
24E
102
{ACAD_XDICTIONARY
360
2A5
102
}
102
{ACAD_REACTORS
330
24D
102
}
330
24D
100
AcDbModelDocViewStyle
 70
     0
  3
Imperial24
290
     0
100
AcDbSectionViewStyle
 70
     0
 71
     0
 90
       78
 71
     1
340
23
 40
0.24
340
0
340
0
 40
0.24
300
I, O, Q, S, X, Z
 40
0.48
 90
        3
 40
0.18
 90
        1
 71
     2
340
16
 90
       25
340
16
 90
       50
 40
0.24
 40
0.0
 40
0.24
 71
     3
340
23
 40
0.24
 90
        1
 40
0.75
 90
        1
300
%<\AcVar ViewType \f "%tc1">% %<\AcVar ViewSectionStartId>%-%<\AcVar ViewSectionEndId>%\PSCALE %<\AcVar ViewScale \f "%sn">%
 71
     4
300
ANSI31
 40
1.0
 90
        0
290
     0
290
     0
 90
        6
 40
0.0
 40
1.570796326794896
 40
0.2617993877991494
 40
1.308996938995747
 40
-0.2617993877991494
 40
1.832595714594046
  0
TABLESTYLE
  5
5E
102
{ACAD_XDICTIONARY
360
5F
102
}
102
{ACAD_REACTORS
330
4D
102
}
330
4D
100
AcDbTableStyle
  3
Standard
 70
     0
 71
     0
 40
0.06
 41
0.06
280
     0
281
     0
  7
STANDARD
140
0.18
170
     2
 62
     0
 63
     7
283
     0
274
    -2
284
     1
 64
     0
275
    -2
285
     1
 65
     0
276
    -2
286
     1
 66
     0
277
    -2
287
     1
 67
     0
278
    -2
288
     1
 68
     0
279
    -2
289
     1
 69
     0
  7
STANDARD
140
0.25
170
     5
 62
     0
 63
     7
283
     0
274
    -2
284
     1
 64
     0
275
    -2
285
     1
 65
     0
276
    -2
286
     1
 66
     0
277
    -2
287
     1
 67
     0
278
    -2
288
     1
 68
     0
279
    -2
289
     1
 69
     0
  7
STANDARD
140
0.18
170
     5
 62
     0
 63
     7
283
     0
274
    -2
284
     1
 64
     0
275
    -2
285
     1
 65
     0
276
    -2
286
     1
 66
     0
277
    -2
287
     1
 67
     0
278
    -2
288
     1
 68
     0
279
    -2
289
     1
 69
     0
  0
VISUALSTYLE
  5
2C
102
{ACAD_XDICTIONARY
360
26C
102
}
102
{ACAD_REACTORS
330
2D
102
}
330
2D
100
AcDbVisualStyle
  2
2dWireframe
 70
     4
 71
     0
 72
     2
 73
     0
 90
        0
 40
-0.6
 41
-30.0
 62
     5
 63
     7
 74
     1
 91
        4
 64
     7
 65
   257
 75
     1
175
     1
 42
1.0
 92
        0
 66
   257
 43
1.0
 76
     1
 77
     6
 78
     2
 67
     7
 79
     5
170
     0
171
     0
290
     0
174
     0
 93
        1
 44
0.0
173
     0
291
     0
 45
0.0
1001
ACAD
1000
AcDbSavedByObjectVersion
1070
     0
  0
VISUALSTYLE
  5
61
102
{ACAD_XDICTIONARY
360
273
102
}
102
{ACAD_REACTORS
330
2D
102
}
330
2D
100
AcDbVisualStyle
  2
3dWireframe
 70
     5
 71
     0
 72
     2
 73
     0
 90
        0
 40
-0.6
 41
-30.0
 62
     5
 63
     7
 74
     1
 91
        4
 64
     7
 65
   257
 75
     1
175
     1
 42
1.0
 92
        0
 66
   257
 43
1.0
 76
     1
 77
     6
 78
     2
 67
     7
 79
     5
170
     0
171
     0
290
     0
174
     0
 93
        1
 44
0.0
173
     0
291
     0
 45
0.0
1001
ACAD
1000
AcDbSavedByObjectVersion
1070
     0
  0
VISUALSTYLE
  5
23B
102
{ACAD_XDICTIONARY
360
280
102
}
102
{ACAD_REACTORS
330
2D
102
}
330
2D
100
AcDbVisualStyle
  2
Basic
 70
     7
 71
     1
 72
     0
 73
     1
 90
        0
 40
-0.6
 41
-30.0
 62
     5
 63
     7
 74
     0
 91
        4
 64
     7
 65
   257
 75
     1
175
     1
 42
1.0
 92
        8
 66
     7
 43
1.0
 76
     1
 77
     6
 78
     2
 67
     7
 79
     5
170
     0
171
     0
290
     0
174
     0
 93
        1
 44
0.0
173
     0
291
     1
 45
0.0
1001
ACAD
1000
AcDbSavedByObjectVersion
1070
     0
  0
VISUALSTYLE
  5
240
102
{ACAD_XDICTIONARY
360
28A
102
}
102
{ACAD_REACTORS
330
2D
102
}
330
2D
100
AcDbVisualStyle
  2
Brighten
 70
    12
 71
     2
 72
     2
 73
     0
 90
        0
 40
-0.6
 41
-30.0
 62
     5
 63
     7
 74
     1
 91
        4
 64
     7
 65
   257
 75
     1
175
     1
 42
1.0
 92
        8
 66
     7
 43
1.0
 76
     1
 77
     6
 78
     2
 67
     7
 79
     5
170
     0
171
     0
290
     0
174
     0
 93
        1
 44
50.0
173
     0
291
     1
 45
0.0
1001
ACAD
1000
AcDbSavedByObjectVersion
1070
     0
  0
VISUALSTYLE
  5
244
102
{ACAD_XDICTIONARY
360
292
102
}
102
{ACAD_REACTORS
330
2D
102
}
330
2D
100
AcDbVisualStyle
  2
ColorChange
 70
    16
 71
     2
 72
     2
 73
     3
 90
        0
 40
-0.6
 41
-30.0
 62
     5
 63
     8
 74
     1
 91
        4
 64
     7
 65
   257
 75
     1
175
     1
 42
1.0
 92
        8
 66
     8
 43
1.0
 76
     1
 77
     6
 78
     2
 67
     7
 79
     5
170
     0
171
     0
290
     0
174
     0
 93
        1
 44
0.0
173
     0
291
     1
 45
0.0
1001
ACAD
1000
AcDbSavedByObjectVersion
1070
     0
  0
VISUALSTYLE
  5
23E
102
{ACAD_XDICTIONARY
360
286
102
}
102
{ACAD_REACTORS
330
2D
102
}
330
2D
100
AcDbVisualStyle
  2
Conceptual
 70
     9
 71
     3
 72
     2
 73
     0
 90
        0
 40
-0.6
 41
-30.0
 62
     5
 63
     7
 74
     2
 91
        2
 64
     7
 65
   257
 75
     1
175
     1
 42
179.0
 92
        8
 66
     7
 43
1.0
 76
     1
 77
     6
 78
     2
 67
     7
 79
     3
170
     0
171
     0
290
     0
174
     0
 93
        1
 44
0.0
173
     0
291
     0
 45
0.0
1001
ACAD
1000
AcDbSavedByObjectVersion
1070
     0
  0
VISUALSTYLE
  5
23F
102
{ACAD_XDICTIONARY
360
288
102
}
102
{ACAD_REACTORS
330
2D
102
}
330
2D
100
AcDbVisualStyle
  2
Dim
 70
    11
 71
     2
 72
     2
 73
     0
 90
        0
 40
-0.6
 41
-30.0
 62
     5
 63
     7
 74
     1
 91
        4
 64
     7
 65
   257
 75
     1
175
     1
 42
1.0
 92
        8
 66
     7
 43
1.0
 76
     1
 77
     6
 78
     2
 67
     7
 79
     5
170
     0
171
     0
290
     0
174
     0
 93
        1
 44
-50.0
173
     0
291
     1
 45
0.0
1001
ACAD
1000
AcDbSavedByObjectVersion
1070
     0
  0
VISUALSTYLE
  5
1FC
102
{ACAD_XDICTIONARY
360
275
102
}
102
{ACAD_REACTORS
330
2D
102
}
330
2D
100
AcDbVisualStyle
  2
EdgeColorOff
 70
    22
 71
     2
 72
     2
 73
     0
 90
        0
 40
-0.6
 41
-30.0
 62
     5
 63
     7
 74
     1
 91
        4
 64
     7
 65
   257
 75
     1
175
     1
 42
1.0
 92
        8
 66
     7
 43
1.0
 76
     1
 77
     6
 78
     2
 67
     7
 79
     5
170
     0
171
     0
290
     0
174
     0
 93
        1
 44
0.0
173
     0
291
     1
 45
0.0
1001
ACAD
1000
AcDbSavedByObjectVersion
1070
     0
  0
VISUALSTYLE
  5
243
102
{ACAD_XDICTIONARY
360
290
102
}
102
{ACAD_REACTORS
330
2D
102
}
330
2D
100
AcDbVisualStyle
  2
Facepattern
 70
    15
 71
     2
 72
     2
 73
     0
 90
        0
 40
-0.6
 41
-30.0
 62
     5
 63
     7
 74
     1
 91
        4
 64
     7
 65
   257
 75
     1
175
     1
 42
1.0
 92
        8
 66
     7
 43
1.0
 76
     1
 77
     6
 78
     2
 67
     7
 79
     5
170
     0
171
     0
290
     0
174
     0
 93
        1
 44
0.0
173
     0
291
     1
 45
0.0
1001
ACAD
1000
AcDbSavedByObjectVersion
1070
     0
  0
VISUALSTYLE
  5
237
102
{ACAD_XDICTIONARY
360
278
102
}
102
{ACAD_REACTORS
330
2D
102
}
330
2D
100
AcDbVisualStyle
  2
Flat
 70
     0
 71
     2
 72
     1
 73
     1
 90
        2
 40
-0.6
 41
30.0
 62
     5
 63
     7
 74
     0
 91
        0
 64
     7
 65
   257
 75
     1
175
     1
 42
1.0
 92
        8
 66
     7
 43
1.0
 76
     1
 77
     6
 78
     2
 67
     7
 79
     5
170
     0
171
     0
290
     0
174
     0
 93
       13
 44
0.0
173
     0
291
     1
 45
0.0
1001
ACAD
1000
AcDbSavedByObjectVersion
1070
     0
  0
VISUALSTYLE
  5
238
102
{ACAD_XDICTIONARY
360
27A
102
}
102
{ACAD_REACTORS
330
2D
102
}
330
2D
100
AcDbVisualStyle
  2
FlatWithEdges
 70
     1
 71
     2
 72
     1
 73
     1
 90
        2
 40
-0.6
 41
30.0
 62
     5
 63
     7
 74
     1
 91
        0
 64
     7
 65
   257
 75
     1
175
     1
 42
1.0
 92
        0
 66
   257
 43
1.0
 76
     1
 77
     6
 78
     2
 67
     7
 79
     5
170
     0
171
     0
290
     0
174
     0
 93
       13
 44
0.0
173
     0
291
     1
 45
0.0
1001
ACAD
1000
AcDbSavedByObjectVersion
1070
     0
  0
VISUALSTYLE
  5
239
102
{ACAD_XDICTIONARY
360
27C
102
}
102
{ACAD_REACTORS
330
2D
102
}
330
2D
100
AcDbVisualStyle
  2
Gouraud
 70
     2
 71
     2
 72
     2
 73
     1
 90
        2
 40
-0.6
 41
30.0
 62
     5
 63
     7
 74
     0
 91
        0
 64
     7
 65
   257
 75
     1
175
     1
 42
1.0
 92
        0
 66
     7
 43
1.0
 76
     1
 77
     6
 78
     2
 67
     7
 79
     5
170
     0
171
     0
290
     0
174
     0
 93
       13
 44
0.0
173
     0
291
     1
 45
0.0
1001
ACAD
1000
AcDbSavedByObjectVersion
1070
     0
  0
VISUALSTYLE
  5
23A
102
{ACAD_XDICTIONARY
360
27E
102
}
102
{ACAD_REACTORS
330
2D
102
}
330
2D
100
AcDbVisualStyle
  2
GouraudWithEdges
 70
     3
 71
     2
 72
     2
 73
     1
 90
        2
 40
-0.6
 41
30.0
 62
     5
 63
     7
 74
     1
 91
        0
 64
     7
 65
   257
 75
     1
175
     1
 42
1.0
 92
        0
 66
   257
 43
1.0
 76
     1
 77
     6
 78
     2
 67
     7
 79
     5
170
     0
171
     0
290
     0
174
     0
 93
       13
 44
0.0
173
     0
291
     1
 45
0.0
1001
ACAD
1000
AcDbSavedByObjectVersion
1070
     0
  0
VISUALSTYLE
  5
23D
102
{ACAD_XDICTIONARY
360
284
102
}
102
{ACAD_REACTORS
330
2D
102
}
330
2D
100
AcDbVisualStyle
  2
Hidden
 70
     6
 71
     1
 72
     2
 73
     2
 90
        0
 40
-0.6
 41
-30.0
 62
     5
 63
     7
 74
     2
 91
        2
 64
     7
 65
   257
 75
     2
175
     1
 42
40.0
 92
        0
 66
   257
 43
1.0
 76
     1
 77
     6
 78
     2
 67
     7
 79
     3
170
     0
171
     0
290
     0
174
     0
 93
        1
 44
0.0
173
     0
291
     0
 45
0.0
1001
ACAD
1000
AcDbSavedByObjectVersion
1070
     0
  0
VISUALSTYLE
  5
24A
102
{ACAD_XDICTIONARY
360
29E
102
}
102
{ACAD_REACTORS
330
2D
102
}
330
2D
100
AcDbVisualStyle
  2
JitterOff
 70
    20
 71
     2
 72
     2
 73
     0
 90
        0
 40
-0.6
 41
-30.0
 62
     5
 63
     7
 74
     1
 91
        4
 64
     7
 65
   257
 75
     1
175
     1
 42
1.0
 92
       10
 66
     7
 43
1.0
 76
     1
 77
     6
 78
     2
 67
     7
 79
     5
170
     0
171
     0
290
     0
174
     0
 93
        1
 44
0.0
173
     0
291
     1
 45
0.0
1001
ACAD
1000
AcDbSavedByObjectVersion
1070
     0
  0
VISUALSTYLE
  5
242
102
{ACAD_XDICTIONARY
360
28E
102
}
102
{ACAD_REACTORS
330
2D
102
}
330
2D
100
AcDbVisualStyle
  2
Linepattern
 70
    14
 71
     2
 72
     2
 73
     0
 90
        0
 40
-0.6
 41
-30.0
 62
     5
 63
     7
 74
     1
 91
        4
 64
     7
 65
   257
 75
     7
175
     7
 42
1.0
 92
        8
 66
     7
 43
1.0
 76
     1
 77
     6
 78
     2
 67
     7
 79
     5
170
     0
171
     0
290
     0
174
     0
 93
        1
 44
0.0
173
     0
291
     1
 45
0.0
1001
ACAD
1000
AcDbSavedByObjectVersion
1070
     0
  0
VISUALSTYLE
  5
24B
102
{ACAD_XDICTIONARY
360
2A0
102
}
102
{ACAD_REACTORS
330
2D
102
}
330
2D
100
AcDbVisualStyle
  2
OverhangOff
 70
    21
 71
     2
 72
     2
 73
     0
 90
        0
 40
-0.6
 41
-30.0
 62
     5
 63
     7
 74
     1
 91
        4
 64
     7
 65
   257
 75
     1
175
     1
 42
1.0
 92
        9
 66
     7
 43
1.0
 76
     1
 77
     6
 78
     2
 67
     7
 79
     5
170
     0
171
     0
290
     0
174
     0
 93
        1
 44
0.0
173
     0
291
     1
 45
0.0
1001
ACAD
1000
AcDbSavedByObjectVersion
1070
     0
  0
VISUALSTYLE
  5
60
102
{ACAD_XDICTIONARY
360
271
102
}
102
{ACAD_REACTORS
330
2D
102
}
330
2D
100
AcDbVisualStyle
  2
Realistic
 70
     8
 71
     2
 72
     2
 73
     0
 90
        0
 40
-0.6
 41
-30.0
 62
     5
 63
     7
 74
     1
 91
        0
 64
     7
 65
   257
 75
     1
175
     1
 42
1.0
 92
        8
 66
     8
 43
1.0
 76
     1
 77
     6
 78
     2
 67
     7
 79
     5
170
     0
171
     0
290
     0
174
     0
 93
       13
 44
0.0
173
     0
291
     0
 45
0.0
1001
ACAD
1000
AcDbSavedByObjectVersion
1070
     0
  0
VISUALSTYLE
  5
249
102
{ACAD_XDICTIONARY
360
29C
102
}
102
{ACAD_REACTORS
330
2D
102
}
330
2D
100
AcDbVisualStyle
  2
Shaded
 70
    27
 71
     2
 72
     2
 73
     1
 90
        2
 40
-0.6
 41
30.0
 62
     5
 63
     7
 74
     0
 91
        4
 64
     7
 65
   257
 75
     1
175
     1
 42
1.0
 92
        8
 66
   257
 43
1.0
 76
     1
 77
     6
 78
     2
 67
     8
 79
     3
170
     0
171
     0
290
     0
174
     0
 93
        5
 44
0.0
173
     0
291
     0
 45
0.0
1001
ACAD
1000
AcDbSavedByObjectVersion
1070
     0
  0
VISUALSTYLE
  5
248
102
{ACAD_XDICTIONARY
360
29A
102
}
102
{ACAD_REACTORS
330
2D
102
}
330
2D
100
AcDbVisualStyle
  2
Shaded with edges
 70
    26
 71
     2
 72
     2
 73
     1
 90
        2
 40
-0.6
 41
30.0
 62
     5
 63
     7
 74
     1
 91
        2
 64
     7
 65
   257
 75
     2
175
     1
 42
1.0
 92
        8
 66
   257
 43
1.0
 76
     1
 77
     6
 78
     2
 67
     7
 79
     3
170
     0
171
     0
290
     0
174
     0
 93
        5
 44
0.0
173
     0
291
     0
 45
0.0
1001
ACAD
1000
AcDbSavedByObjectVersion
1070
     0
  0
VISUALSTYLE
  5
245
102
{ACAD_XDICTIONARY
360
294
102
}
102
{ACAD_REACTORS
330
2D
102
}
330
2D
100
AcDbVisualStyle
  2
Shades of Gray
 70
    23
 71
     2
 72
     2
 73
     3
 90
        0
 40
-0.6
 41
-30.0
 62
     5
 63
     7
 74
     2
 91
        2
 64
     7
 65
     7
 75
     1
175
     1
 42
40.0
 92
        8
 66
     7
 43
1.0
 76
     1
 77
     6
 78
     2
 67
     7
 79
     3
170
     0
171
     0
290
     0
174
     0
 93
        1
 44
0.0
173
     0
291
     0
 45
0.0
1001
ACAD
1000
AcDbSavedByObjectVersion
1070
     0
  0
VISUALSTYLE
  5
246
102
{ACAD_XDICTIONARY
360
296
102
}
102
{ACAD_REACTORS
330
2D
102
}
330
2D
100
AcDbVisualStyle
  2
Sketchy
 70
    24
 71
     1
 72
     2
 73
     2
 90
        0
 40
-0.6
 41
-30.0
 62
     5
 63
     7
 74
     2
 91
        2
 64
     7
 65
     7
 75
     1
175
     1
 42
40.0
 92
       11
 66
     7
 43
1.0
 76
     1
 77
     6
 78
     2
 67
     7
 79
     6
170
     0
171
     0
290
     0
174
     0
 93
        1
 44
0.0
173
     0
291
     0
 45
0.0
1001
ACAD
1000
AcDbSavedByObjectVersion
1070
     0
  0
VISUALSTYLE
  5
241
102
{ACAD_XDICTIONARY
360
28C
102
}
102
{ACAD_REACTORS
330
2D
102
}
330
2D
100
AcDbVisualStyle
  2
Thicken
 70
    13
 71
     2
 72
     2
 73
     0
 90
        0
 40
-0.6
 41
-30.0
 62
     5
 63
     7
 74
     1
 91
        4
 64
     7
 65
   257
 75
     1
175
     1
 42
1.0
 92
       12
 66
     7
 43
1.0
 76
     1
 77
     6
 78
     2
 67
     7
 79
     5
170
     0
171
     0
290
     0
174
     0
 93
        1
 44
0.0
173
     0
291
     1
 45
0.0
1001
ACAD
1000
AcDbSavedByObjectVersion
1070
     0
  0
VISUALSTYLE
  5
23C
102
{ACAD_XDICTIONARY
360
282
102
}
102
{ACAD_REACTORS
330
2D
102
}
330
2D
100
AcDbVisualStyle
  2
Wireframe
 70
     5
 71
     0
 72
     2
 73
     0
 90
        0
 40
-0.6
 41
-30.0
 62
     5
 63
     7
 74
     1
 91
        4
 64
     7
 65
   257
 75
     1
175
     1
 42
1.0
 92
        0
 66
   257
 43
1.0
 76
     1
 77
     6
 78
     2
 67
     7
 79
     3
170
     0
171
     0
290
     0
174
     0
 93
        1
 44
0.0
173
     0
291
     0
 45
0.0
1001
ACAD
1000
AcDbSavedByObjectVersion
1070
     0
  0
VISUALSTYLE
  5
247
102
{ACAD_XDICTIONARY
360
298
102
}
102
{ACAD_REACTORS
330
2D
102
}
330
2D
100
AcDbVisualStyle
  2
X-Ray
 70
    25
 71
     2
 72
     2
 73
     1
 90
        1
 40
0.5
 41
-30.0
 62
     5
 63
     7
 74
     1
 91
        0
 64
     7
 65
   257
 75
     1
175
     1
 42
1.0
 92
        8
 66
     7
 43
1.0
 76
     1
 77
     6
 78
     2
 67
     7
 79
     3
170
     0
171
     0
290
     0
174
     0
 93
       13
 44
0.0
173
     0
291
     0
 45
0.0
1001
ACAD
1000
AcDbSavedByObjectVersion
1070
     0
  0
DICTIONARYVAR
  5
50
102
{ACAD_REACTORS
330
4F
102
}
330
4F
100
DictionaryVariables
280
     0
  1
1:1
  0
DICTIONARYVAR
  5
51
102
{ACAD_REACTORS
330
4F
102
}
330
4F
100
DictionaryVariables
280
     0
  1
STANDARD
  0
DICTIONARYVAR
  5
52
102
{ACAD_REACTORS
330
4F
102
}
330
4F
100
DictionaryVariables
280
     0
  1
STANDARD
  0
DICTIONARYVAR
  5
53
102
{ACAD_REACTORS
330
4F
102
}
330
4F
100
DictionaryVariables
280
     0
  1
Imperial24
  0
DICTIONARYVAR
  5
54
102
{ACAD_REACTORS
330
4F
102
}
330
4F
100
DictionaryVariables
280
     0
  1
Imperial24
  0
DICTIONARYVAR
  5
55
102
{ACAD_REACTORS
330
4F
102
}
330
4F
100
DictionaryVariables
280
     0
  1
1
  0
DICTIONARYVAR
  5
255
102
{ACAD_REACTORS
330
4F
102
}
330
4F
100
DictionaryVariables
280
     0
  1
1
  0
DICTIONARYVAR
  5
56
102
{ACAD_REACTORS
330
4F
102
}
330
4F
100
DictionaryVariables
280
     0
  1
0
  0
DICTIONARYVAR
  5
57
102
{ACAD_REACTORS
330
4F
102
}
330
4F
100
DictionaryVariables
280
     0
  1
1
  0
DICTIONARYVAR
  5
58
102
{ACAD_REACTORS
330
4F
102
}
330
4F
100
DictionaryVariables
280
     0
  1
15
  0
DICTIONARYVAR
  5
59
102
{ACAD_REACTORS
330
4F
102
}
330
4F
100
DictionaryVariables
280
     0
  1
0
  0
DICTIONARYVAR
  5
256
102
{ACAD_REACTORS
330
4F
102
}
330
4F
100
DictionaryVariables
280
     0
  1
1.570796
  0
DICTIONARYVAR
  5
257
102
{ACAD_REACTORS
330
4F
102
}
330
4F
100
DictionaryVariables
280
     0
  1
1.570796
  0
DICTIONARYVAR
  5
258
102
{ACAD_REACTORS
330
4F
102
}
330
4F
100
DictionaryVariables
280
     0
  1
-122.394000
  0
DICTIONARYVAR
  5
5A
102
{ACAD_REACTORS
330
4F
102
}
330
4F
100
DictionaryVariables
280
     0
  1
1.000000
  0
DICTIONARYVAR
  5
5B
102
{ACAD_REACTORS
330
4F
102
}
330
4F
100
DictionaryVariables
280
     0
  1
0
  0
DICTIONARYVAR
  5
5C
102
{ACAD_REACTORS
330
4F
102
}
330
4F
100
DictionaryVariables
280
     0
  1
127
  0
DICTIONARYVAR
  5
259
102
{ACAD_REACTORS
330
4F
102
}
330
4F
100
DictionaryVariables
280
     0
  1
2
  0
DICTIONARY
  5
266
102
{ACAD_REACTORS
330
264
102
}
330
264
100
AcDbDictionary
281
     1
  0
DICTIONARY
  5
265
102
{ACAD_REACTORS
330
264
102
}
330
264
100
AcDbDictionary
281
     1
  3
1817272785008
350
25F
  3
1817272785024
350
260
  3
1817272785040
350
261
  3
1817272785056
350
262
  3
1817272785072
350
263
  0
DICTIONARY
  5
2A7
330
250
100
AcDbDictionary
280
     1
281
     1
  3
ACAD_XREC_ROUNDTRIP
360
2A8
  0
DICTIONARY
  5
26A
330
1E
100
AcDbDictionary
280
     1
281
     1
  3
ACAD_XREC_ROUNDTRIP
360
26B
  0
DICTIONARY
  5
268
330
18
100
AcDbDictionary
280
     1
281
     1
  3
ACAD_XREC_ROUNDTRIP
360
269
  0
DICTIONARY
  5
44
330
43
100
AcDbDictionary
280
     1
281
     1
  3
ACAD_XREC_ROUNDTRIP
360
26F
  3
BUMPTILE
360
45
  3
DIFFUSETILE
360
46
  3
OPACITYTILE
360
47
  3
REFLECTIONTILE
360
48
  3
REFRACTIONTILE
360
49
  3
SPECULARTILE
360
4A
  0
DICTIONARY
  5
3C
330
3B
100
AcDbDictionary
280
     1
281
     1
  3
ACAD_XREC_ROUNDTRIP
360
26E
  3
BUMPTILE
360
3D
  3
DIFFUSETILE
360
3E
  3
OPACITYTILE
360
3F
  3
REFLECTIONTILE
360
40
  3
REFRACTIONTILE
360
41
  3
SPECULARTILE
360
42
  0
DICTIONARY
  5
E
330
C
100
AcDbDictionary
280
     1
281
     1
  3
ACAD_XREC_ROUNDTRIP
360
267
  3
BUMPTILE
360
F
  3
DIFFUSETILE
360
10
  3
FBXASSET
360
11
  3
OPACITYTILE
360
12
  3
REFLECTIONTILE
360
13
  3
REFRACTIONTILE
360
14
  3
SPECULARTILE
360
15
  0
DICTIONARY
  5
2A3
330
24C
100
AcDbDictionary
280
     1
281
     1
  3
ACAD_XREC_ROUNDTRIP
360
2A4
  0
DICTIONARY
  5
2A5
330
24E
100
AcDbDictionary
280
     1
281
     1
  3
ACAD_XREC_ROUNDTRIP
360
2A6
  0
DICTIONARY
  5
5F
330
5E
100
AcDbDictionary
280
     1
281
     1
  3
ACAD_ROUNDTRIP_2008_TABLESTYLE_CELLSTYLEMAP
360
25A
  3
ACAD_XREC_ROUNDTRIP
360
270
  0
DICTIONARY
  5
26C
330
2C
100
AcDbDictionary
280
     1
281
     1
  3
ACAD_XREC_ROUNDTRIP
360
26D
  0
DICTIONARY
  5
273
330
61
100
AcDbDictionary
280
     1
281
     1
  3
ACAD_XREC_ROUNDTRIP
360
274
  0
DICTIONARY
  5
280
330
23B
100
AcDbDictionary
280
     1
281
     1
  3
ACAD_XREC_ROUNDTRIP
360
281
  0
DICTIONARY
  5
28A
330
240
100
AcDbDictionary
280
     1
281
     1
  3
ACAD_XREC_ROUNDTRIP
360
28B
  0
DICTIONARY
  5
292
330
244
100
AcDbDictionary
280
     1
281
     1
  3
ACAD_XREC_ROUNDTRIP
360
293
  0
DICTIONARY
  5
286
330
23E
100
AcDbDictionary
280
     1
281
     1
  3
ACAD_XREC_ROUNDTRIP
360
287
  0
DICTIONARY
  5
288
330
23F
100
AcDbDictionary
280
     1
281
     1
  3
ACAD_XREC_ROUNDTRIP
360
289
  0
DICTIONARY
  5
275
330
1FC
100
AcDbDictionary
280
     1
281
     1
  3
ACAD_XREC_ROUNDTRIP
360
276
  0
DICTIONARY
  5
290
330
243
100
AcDbDictionary
280
     1
281
     1
  3
ACAD_XREC_ROUNDTRIP
360
291
  0
DICTIONARY
  5
278
330
237
100
AcDbDictionary
280
     1
281
     1
  3
ACAD_XREC_ROUNDTRIP
360
279
  0
DICTIONARY
  5
27A
330
238
100
AcDbDictionary
280
     1
281
     1
  3
ACAD_XREC_ROUNDTRIP
360
27B
  0
DICTIONARY
  5
27C
330
239
100
AcDbDictionary
280
     1
281
     1
  3
ACAD_XREC_ROUNDTRIP
360
27D
  0
DICTIONARY
  5
27E
330
23A
100
AcDbDictionary
280
     1
281
     1
  3
ACAD_XREC_ROUNDTRIP
360
27F
  0
DICTIONARY
  5
284
330
23D
100
AcDbDictionary
280
     1
281
     1
  3
ACAD_XREC_ROUNDTRIP
360
285
  0
DICTIONARY
  5
29E
330
24A
100
AcDbDictionary
280
     1
281
     1
  3
ACAD_XREC_ROUNDTRIP
360
29F
  0
DICTIONARY
  5
28E
330
242
100
AcDbDictionary
280
     1
281
     1
  3
ACAD_XREC_ROUNDTRIP
360
28F
  0
DICTIONARY
  5
2A0
330
24B
100
AcDbDictionary
280
     1
281
     1
  3
ACAD_XREC_ROUNDTRIP
360
2A1
  0
DICTIONARY
  5
271
330
60
100
AcDbDictionary
280
     1
281
     1
  3
ACAD_XREC_ROUNDTRIP
360
272
  0
DICTIONARY
  5
29C
330
249
100
AcDbDictionary
280
     1
281
     1
  3
ACAD_XREC_ROUNDTRIP
360
29D
  0
DICTIONARY
  5
29A
330
248
100
AcDbDictionary
280
     1
281
     1
  3
ACAD_XREC_ROUNDTRIP
360
29B
  0
DICTIONARY
  5
294
330
245
100
AcDbDictionary
280
     1
281
     1
  3
ACAD_XREC_ROUNDTRIP
360
295
  0
DICTIONARY
  5
296
330
246
100
AcDbDictionary
280
     1
281
     1
  3
ACAD_XREC_ROUNDTRIP
360
297
  0
DICTIONARY
  5
28C
330
241
100
AcDbDictionary
280
     1
281
     1
  3
ACAD_XREC_ROUNDTRIP
360
28D
  0
DICTIONARY
  5
282
330
23C
100
AcDbDictionary
280
     1
281
     1
  3
ACAD_XREC_ROUNDTRIP
360
283
  0
DICTIONARY
  5
298
330
247
100
AcDbDictionary
280
     1
281
     1
  3
ACAD_XREC_ROUNDTRIP
360
299
  0
XRECORD
  5
25F
102
{ACAD_REACTORS
330
265
102
}
330
265
100
AcDbXrecord
280
     1
  1
AcDb_Thumbnail_Schema
102
{ATTRRECORD
341
260
  2
AcDbDs::TreatedAsObjectData
280
     1
291
     1
102
ATTRRECORD}
102
{ATTRRECORD
341
261
  2
AcDbDs::Legacy
280
     1
291
     1
102
ATTRRECORD}
  2
AcDbDs::ID
280
    10
 91
        8
102
{ATTRRECORD
341
262
  2
AcDs:Indexable
280
     1
291
     1
102
ATTRRECORD}
102
{ATTRRECORD
341
263
  2
AcDbDs::HandleAttribute
280
     7
282
     1
102
ATTRRECORD}
  2
Thumbnail_Data
280
    15
 91
        0
  0
XRECORD
  5
260
102
{ACAD_REACTORS
330
265
102
}
330
265
100
AcDbXrecord
280
     1
  1
AcDbDs::TreatedAsObjectDataSchema
  2
AcDbDs::TreatedAsObjectData
280
     1
 91
        0
  0
XRECORD
  5
261
102
{ACAD_REACTORS
330
265
102
}
330
265
100
AcDbXrecord
280
     1
  1
AcDbDs::LegacySchema
  2
AcDbDs::Legacy
280
     1
 91
        0
  0
XRECORD
  5
262
102
{ACAD_REACTORS
330
265
102
}
330
265
100
AcDbXrecord
280
     1
  1
AcDbDs::IndexedPropertySchema
  2
AcDs:Indexable
280
     1
 91
        0
  0
XRECORD
  5
263
102
{ACAD_REACTORS
330
265
102
}
330
265
100
AcDbXrecord
280
     1
  1
AcDbDs::HandleAttributeSchema
  2
AcDbDs::HandleAttribute
280
     7
 91
        1
284
     1
  0
XRECORD
  5
2A8
102
{ACAD_REACTORS
330
2A7
102
}
330
2A7
100
AcDbXrecord
280
     1
102
DISPLAYNAME
  1
Imperial24
102
FLAGS
 90
        0
  0
XRECORD
  5
26B
102
{ACAD_REACTORS
330
26A
102
}
330
26A
100
AcDbXrecord
280
     1
102
SHADEPLOT
 70
     0
102
SHADEPLOTRESLEVEL
 70
     2
102
SHADEPLOTCUSTOMDPI
 70
   300
  0
XRECORD
  5
269
102
{ACAD_REACTORS
330
268
102
}
330
268
100
AcDbXrecord
280
     1
102
SHADEPLOT
 70
     1
102
SHADEPLOTRESLEVEL
 70
     2
102
SHADEPLOTCUSTOMDPI
 70
   300
  0
XRECORD
  5
26F
102
{ACAD_REACTORS
330
44
102
}
330
44
100
AcDbXrecord
280
     1
102
MATERIAL
148
0.0
149
0.0
149
0.0
 93
        0
 94
      127
282
     0
 72
     0
 77
     0
171
     0
175
     0
179
     0
273
     0
  0
XRECORD
  5
45
102
{ACAD_REACTORS
330
44
102
}
330
44
100
AcDbXrecord
280
     1
270
     1
271
     1
  0
XRECORD
  5
46
102
{ACAD_REACTORS
330
44
102
}
330
44
100
AcDbXrecord
280
     1
270
     1
271
     1
  0
XRECORD
  5
47
102
{ACAD_REACTORS
330
44
102
}
330
44
100
AcDbXrecord
280
     1
270
     1
271
     1
  0
XRECORD
  5
48
102
{ACAD_REACTORS
330
44
102
}
330
44
100
AcDbXrecord
280
     1
270
     1
271
     1
  0
XRECORD
  5
49
102
{ACAD_REACTORS
330
44
102
}
330
44
100
AcDbXrecord
280
     1
270
     1
271
     1
  0
XRECORD
  5
4A
102
{ACAD_REACTORS
330
44
102
}
330
44
100
AcDbXrecord
280
     1
270
     1
271
     1
  0
XRECORD
  5
26E
102
{ACAD_REACTORS
330
3C
102
}
330
3C
100
AcDbXrecord
280
     1
102
MATERIAL
148
0.0
149
0.0
149
0.0
 93
        0
 94
      127
282
     0
 72
     0
 77
     0
171
     0
175
     0
179
     0
273
     0
  0
XRECORD
  5
3D
102
{ACAD_REACTORS
330
3C
102
}
330
3C
100
AcDbXrecord
280
     1
270
     1
271
     1
  0
XRECORD
  5
3E
102
{ACAD_REACTORS
330
3C
102
}
330
3C
100
AcDbXrecord
280
     1
270
     1
271
     1
  0
XRECORD
  5
3F
102
{ACAD_REACTORS
330
3C
102
}
330
3C
100
AcDbXrecord
280
     1
270
     1
271
     1
  0
XRECORD
  5
40
102
{ACAD_REACTORS
330
3C
102
}
330
3C
100
AcDbXrecord
280
     1
270
     1
271
     1
  0
XRECORD
  5
41
102
{ACAD_REACTORS
330
3C
102
}
330
3C
100
AcDbXrecord
280
     1
270
     1
271
     1
  0
XRECORD
  5
42
102
{ACAD_REACTORS
330
3C
102
}
330
3C
100
AcDbXrecord
280
     1
270
     1
271
     1
  0
XRECORD
  5
267
102
{ACAD_REACTORS
330
E
102
}
330
E
100
AcDbXrecord
280
     1
102
MATERIAL
148
0.0
149
0.0
149
0.0
 93
        0
 94
      127
282
     0
 72
     0
 77
     0
171
     0
175
     0
179
     0
273
     0
  0
XRECORD
  5
F
102
{ACAD_REACTORS
330
E
102
}
330
E
100
AcDbXrecord
280
     1
270
     1
271
     1
  0
XRECORD
  5
10
102
{ACAD_REACTORS
330
E
102
}
330
E
100
AcDbXrecord
280
     1
270
     1
271
     1
  0
XRECORD
  5
11
102
{ACAD_REACTORS
330
E
102
}
330
E
100
AcDbXrecord
280
     1
 70
     1
 90
1959938040
 71
     1
  1
E796C4E7-4D98-4856-9C8E-EBAD8519823D
311
504B0304140006080800A25E7F4843791792DA000000200100004F00000043394133423438302D453633392D343935452D423031342D3937314144463733393646422F4173736574446174612F446566696E6974696F6E4974657261746F7250726F706572746965732E62696E454E3D4FC3400C3D188A1818FA0FAAEEC7DD
311
252924515B1448D3091698BA54EEC52D912E49954B244646FE35B545512D3D3F7F3EFB4708F17B360AC515E19BFC1DF11A1BEC2AFB6E3FB10631E28A6B77E06E2EBD6B0A39CD710F83EB79EBB5F2169D8306DBC18F2FA3931A7A920377CF4BB784FF826785C3DF31BEFF46E09798A13CA64FE03DF60BB5DF7DA9420759A8F3
311
4066D16326A32229641CBDE472A57393C4C9EA394E22D5A16F87CEA25781D2DBB3F2F6D81CAA7239EFAB1A270DD4B898DA0EE9A772BA0CB479903A94A1F930269D85A99E6DE68A274F504B0304140006080800A25E7F48DE8B39A510010000300200004500000043394133423438302D453633392D343935452D423031342D
311
3937314144463733393646422F4173736574446174612F496E7374616E636550726F706572746965732E62696EEB606060F80F0540260323103700495E20ED9E9A975A94991C9C9C919A9BA802147035B73473367135D73571B1B4D035B13035D3B574B670D575757274B13035B4B4303276614768046931363471713532B5
311
D435353131D635313332D475727372D13534373670367376B67474B5042A03DBCBA019D37FE8ABC6157B20CD04146B0062181F4C03F940F0C11EA29A8141C08141002C0426541C106CAC2CA046088033B02A030AC2157C6006F21A8018AAF50194E6010A610250382264E08660284CD9E98021862280A91564B406929A0FF6
311
2C401E28B6F88038B83CB1243943D7A928312F253505245331E524B272A0087E106D7DCA7887D4696DA18C58BF7CF7383790C92000320B042258B76A816800504B0304140006080800A25E7F4828BB58AF800100009E0500003D00000043394133423438302D453633392D343935452D423031342D39373141444637333936
311
46422F536368656D61732F436F6D6D6F6E536368656D612E786D6CBD544D4FC23018BEFB2B96DE15493C78601010A34B880709DEDFB52FD0D8B54BD70DF6EFED3AC0B12E6442E2716BFB3CEFF3D18E26FB440405EA8C2B1992E1C323095052C5B8DC842437EBFB673219DF8DA659866649B798C078B48AE6410122242F2A49
311
94AC7F93815DF85C049C8564CA0A901499DD886B2EB9B1E02448F358701A9235880C49A0119892A20C89D1B9FD768815CAD268CB5E0355B40B1E47F3E37A2020464BED06AA57CE8FCC20C3C3446D46761A2632A8C1283D07031EFF2AE7CCB1BFEEE916E406DFAC8E36FFD99A9D60A6944090EEDC3B670C7DC13DE86B6B2C5C
311
240D6E503BB85ACD579D513F1B9F9A69DC9CC22AFA80C426D40AF0B21EA168559156B6276F0F726A6BFF04DCD513A87A62CAD41FB24FCB2858B3952E3D852084DA25B9303C15687973CC8E8AAE11DF2836C38C6A9E765E8C1BA1BFB1DC29CDFE518C8B5A7655A4ED7E77291ABEB80DBD82EC866ADE1B8D05AF9E35CF09D7A0
311
61F38A986D9EC412B8F0F65E5D81534D9B231D1E5A8FE577A241F3A5FD01504B0304140006080800A25E7F482CCEBD668A040000E01200003E00000043394133423438302D453633392D343935452D423031342D3937314144463733393646422F536368656D61732F47656E65726963536368656D612E786D6CD5586D6FDB
311
380CFE7EBF42F0F7A649B70E1B90744856B4970F450FCD7A5F05459613EDE4174872DADCAF3F522F8ED3B88D2F1D06AC4050DBA2493EE4438AF2F8EB73AEC8466823CB62928C06C384888297A92C5693A4B6D9D9E7E4EBD51FE3A931C22EF85AE4EC6AFC38BF261BA626C9AD288496DC3F4FCEAFC63366845F7A10452AF41D
311
B320C0D44EC26EAB20918735565582695670811A6A49643A49A6E9069FA4604A64B29016DC4B48552F95E4932463CA888468C1D2B250DB4962750DF7CE273069CE8363F1FF4EDB00E0A21999574AE4A2B00C353B93F3BD4777B8A61ED8F604ABFEDD79CE56A2B7BDFBDBC50996E0ADDE16FED26223C5D30956C29BDF4A55EA
311
686E5E58B112DA45CE67F76F4FA27EFA3FB672FD7372FC388FAECDCA5209E693CAD167BADCD272F943701B3812F8A3D852008B1D2E32DB927B2F833C6EA95879925356D254582695095A3CE982924720BE5774A3CB9CDCDB350427D2DF20DA1B5532EBE2D5D6288D75D4F7E4FD9890A0EF8E3D93EBB8F8BA4758158EF6FB90
311
A6F9520281C93DE7AAC6D24607DA296BB96018123F821A7D6A5C5884050C475DA4865442732C8B95684A50165CBB3A32F25F783A4A480ED59AD7F924B968AEA50131F46303223E6A397B0E52976030DC1DCA81D7E7C1EDEEA42C19FF27635C505E2BD5198A599020DF50A2330FCB3AAF28CB0124108429553EF1B228802E22
311
65D8F7CC2401042B155BCC7070F1E5C55F13B4A9577362CCCE46C32174E010C3C378C44841A4BDA00FE3A12006CE11EE6AEC59894D3526DDE1CD59D503ECC324017F8061B7F162162FA62EDD81AE3308617770796DCBDAD2B2625C5AE8A63DE20B2C8AA5E95E76E5730823955956E33E705425A2187C185D36489A1B44D3DC
311
EC2172F6BA2105C3546287A7194B2331768EBBE64F6E70A9930ABE0ADEA89E9E2C38523B810287AD67A54A039C1606EAFE68F8304610BB9093DBDDABC0B2AE4E290DCDA15376D7E39F72B556F0B32EAB5D3D498B4C41ABADEC3A1434C422D87E8025A84BDCB2B1417ED750FAE4DA8976863974C577C7F902D3F156AD354DEA
311
3540DE6BEAE2BEA52F7A2EB4CA43802ECE5BF2CE2EDC9347179FFB023CE412E60BE16DA0BE29B374988A553F561DC04615DD35F7D2C8979F60E5955CE93DF29DED8AFA1EE6642D53418086C03C47C377910F75F7E8F5EF665F70B60FFB22AEDF897D119E8423C773E819A3C1E55E550599EE6EDCA34D0C86FD72057DF2CD46
311
F16A470682471C164E4346D5306BF12D7D12D82CFF673D41636C347443FEB51B50D72EA171A8E4A58623A4A16E0FA2B8B10A0D23268D87C33896EE8FB73305A74BF224EDBADFA0BD674AB354D63DB7BD5D83426761C077DE767728235446A552754EB93B755891C3C4CC6CADE37CF0E912A7BB38DBA010F9DE1282EDF470CA
311
69A9CDA482E334C4A6EA4107987980B17E72F31730EBF88BBD39E7C629F56797A3C0009C2C5AE7951D9A05A02773440F02EEB4DE396A3B6A570C72CCFBCD823B0B8ED3F1D5CEDDFED772FA70236C83FB7D86C385D570B87107535572A60A96035F8F7C6A7192F13007246BBE0521855E6AC46F3E27689CEE7D186A6FD679D9
311
8CDCAD13333E04EBE7ED6F55FF01504B0304140006080800A25E7F486180134D5F0100006B0300004500000043394133423438302D453633392D343935452D423031342D3937314144463733393646422F536368656D61732F52656E6465724D6174657269616C536368656D612E786D6CA5934D6FC2300C86EFFB1551EEE3
311
43DBA41D1A103009551ADAD40EAE28A4A68D9426284961FCFBE5A340113B2071746D3F765EBF4DC6BFB5407BD0862B49F0B037C0082453059725C18DDD3EBFE3F1E829991803366715D474942CD30FB4A782E00C64017A412D684E454CE3FE28995203B162A6EA5AC94B66997D225E109CD63B0135484BAD1B3C07E9080CA3
311
5DB3119C11BCA5C200461A68A1A438126C75E3E230D40FF81FB3F03C91D1E3A3A0AF79FE28E25BC39EC3E17E4C2A2D94A0833A51AF55BCCA7D88572FCBAC529C4140B020FC3AAFA886621DCED7EAD7664CC86024E806DC297DA1BB393E4156543457A4537DB8817349A70F8ACBF09B3EEE2CB2F33E91B65D60786E4E3B39B7
311
7E3FEEEF5650424525DA657FB8B46BE6BF064646F0A0F7327C0BC1BC1B4CBBC1C419FA3CCB23500007872A2580CAAE5461865565294E4EDB4617B62FF579DF9A5B2F54E834076A597573A020912FED777F9B3F504B0304140006080800A25E7F48F84FE3BF51000000570000004700000043394133423438302D453633392D
311
343935452D423031342D3937314144463733393646422F4173736574446174612F41737365745461626C654F66436F6E74656E74732E62696E536160607035B73473367135D73571B1B4D035B13035D3B574B670D575757274B13035B4B43032761102AACB4D2C492DCA4CCC492C28484D2C4ACC4B4E050A82012F90744FCD
311
03CA26072767A4E6260200504B0304140006080800A25E7F48F865834058000000680000004500000043394133423438302D453633392D343935452D423031342D3937314144463733393646422F4173736574446174612F53747265616D56657273696F6E5461626C652E696E66558CBD0A80300C06F73E4B117FB66E4517
311
41D041DC5BF98480A492E4FDD18EAEC7DD4555D89EF28DF51A0B1BD8340C4DE7DD848B988C0ACF0649566493F2408C508DDEBB99D5129FF8F1AF8CF5B9503E20FAE5A16B5AF702504B0304140006080800A25E7F48D4ACE505340100009A0400003600000043394133423438302D453633392D343935452D423031342D3937
311
314144463733393646422F4173736574446174612F636E782E786D6CCD94314FC3301085FF4AE43D764255842AC71582A51348540C6C57E752AC3A76645F10FC7BEC3603A8882943D6F3BBF3F327BF93DBCFDE161F18A2F1AE6135AF58814EFBD6B863C346EACA3B566C950CDED30F192B1CF4D8B05C664A1E831F87A9D462
311
07A3CD556BDC692ADEC788B48783C5A7EEC13B42479115DA428C0D8BFA1D7BE030926F319E780B04BCE601A31F83C634894C8FD3241D10085BA66EAAFAB6AC56E5AADED7F566BDDA54EB3729B252C983F776D29B7459F043A12FB7325549918F951C839934F92D4CFDE5911F8C932229958C141293A983BE86D401C3608D06
311
4AE884D784542611422FC545ACA4C80C7E9178C4CE38935B76C918900FCFC91E0632B83822FF799D9FCCCE4502A771B93CAE1DCE4FE1E5FC835E2F813C27666939B976C88DEB66488938AF91149ABC55D437504B0304140006080800A25E7F48C18B46FB080100004F0300003400000043394133423438302D453633392D34
311
3935452D423031342D3937314144463733393646422F536368656D61732F636E782E786D6CCD93BD4E042114855F6542BF30385963360C5B5858D9A8951DC2DD952C7027FC187D7B61A4D84DECB4D80E0E5FC839878BD87F7A377C404C16C34C381DC90041A3B1E13893920F9B3B32ECA58888F90C2343501E66D26422C531
311
6259BA64E0A08A6BAAB3E1D4C57BF41EC3B37E07AFC8A09D4A692669DD5255321A48276A545694D308094BD4506FC8D643BF414750190C913723BFDD8CD366E22F9CEFB6D36EDCBE0AD64829DE105DE76DC810711934D645A87646C1DAB11425DACEB40C449E7BA3B50DC12A2145CAB176D0C9FCB554522D8BB35AE55A155B
311
C11F460AD6A25E047E8000D1EAEB4C7C61EEDF223F4130101FEB2B45ABDC7526FFCDE3DF0A60EBECD711685F417E03504B0304140006080800A25E7F48410A3D5871000000A40000002C00000043394133423438302D453633392D343935452D423031342D3937314144463733393646422F636E782E786D6C55CC4D0E8230
311
1086E1AB34B31774E7A22D31F1069E60020334B633A63FC6E34B0909B07DDE2F9FEE7EC1AB2FC5E4840DDC9A2B28E25E06C7938192C7CB1D54677514C9871928C640062A83D55394F2D968A0118BAFEA1DBF377CA444F98919176EAB9FEAAB9F2960DA5BBB1E2ED3FA6FFF504B0304140006080800A25E7F4825F86B487F00
311
0000A300000007000000636E782E786D6C4D8CD10E822018465F85FDF7140C52D91027A5EFE1121D0BA191B41E3F685E74F56D67DF39B2FB6C0EBD4D7CD9E05BA02702C8F87B98AD5F5B48FB821B409D923184FDEF06C84F9B69A16050728D213D0F349B654AAE5067FDE38057D133CD1B82878A09CCC565C09A508E454DFB
311
DB5833518D3A1BE7A2E4F9F5F296BCFA02504B0304140006080800A25E7F4816E99B5DA600000035010000130000005B436F6E74656E745F54797065735D2E786D6C9590410E82301045AFD2740F4517C6180A0BF5065E60AC53688469D30E066F6F91AD9AB89CF9FFFD3F99BA9DC7413C3026E749CB4D59498164FCCD51A7
311
E5C4B6D84BD136F5E5193089ECA5A465CF1C0E4A25D3E308A9F401292BD6C711388FB15301CC1D3A54DBAADA29E38991B8E0254336F5092D4C038BF39CD76B6FC6A538AEBEA54A4B08617006389FA516557DE4AE8E7E70DE30729138228C5F021CD93F02D4FB0DCD0B504B0304140006080800A25E7F483DEE336E64000000
311
790000001B0000006175746F6465736B2D64657369676E2D7061636B6167652E786D6C35CBC10E83200C00D05F21DCA56CA76D41FC96062B120735B69A7DBE268BB7777961F8D5AF396893C2ADB70FE7ADA196782C2DF776D7A97B5933C430F15651E5469C55D70F80A4992A3ADC954792C525AE70A1E4D6AD9816CC044FEF
311
DF01FE3FDE907802504B0304140006080800A25E7F486D1B7261F9000000960100003700000043394133423438302D453633392D343935452D423031342D3937314144463733393646422F4173736574446174612F636F72652E786D6C8550CB6E833010FC15B47703C61048641C1152BEA0A7DE2C70889560233FAA7E7EED
311
40A5F6D4D3AE66676677879EBF9667F2298C955AB580D31C12A1463D4935B7E0DD0D35909C19355ABB5F3448145F440B11064667A3FDBA43A3564EA8882A3D891DE4D60A07C9F80C4D0B76BC8B85A7DCBBC0B08F74E5E383CF22C5E9C663D47B39ED523905377993C200AB2E435FD70341435F0CA8245D83BAEB11A3637F79
311
2BFBA63C105CD32C8A197572F9D93E1AC19D988015393EA09C2082DF313E55E494571F348B4C46AD33E1E77D69FC0E5817AFBE72C769B64DFFB8FA75FADFD54BE548B1BB6E0A0B0C87235F0346B3985228AF08438D89B26F504B0304140006080800A25E7F483F1E2424F8000000940100003500000043394133423438302D
311
453633392D343935452D423031342D3937314144463733393646422F536368656D61732F636F72652E786D6C8550416E833010FC0ADABB01630824328E125A3ED09E7AB3B043AC041B61BBEAF36B0395DA534FBB9A9D99DD1D7AFE9A9EC9A75CAC32BA059CE690483D18A1F4D8827737D44072667431C6FDA241A2F9245B88
311
30303A2EC6CF3B3418EDA48EA83642EE20B7563A488667685AB0C35D4E3CE5DE05867DA4331F1E7C94294E371EA3DE2BB14B95086EEAA6E402ACBAF65D5DF704F55DD1A3925C1A7479396274ECAEAF65D79407826B9A4531A34E4D3FDB8745722705B022C707941344F03BC6A78A9CF2EA836691C9A8754BF8795F1ABF03F6
311
B6DE6969B6CDFE78FA59FCEFE99576A4D83D37850586C389EB80D12C6614CA1A60A8314FF60D504B0304140006080800A25E7F4873D7085802010000D70100002D00000043394133423438302D453633392D343935452D423031342D3937314144463733393646422F636F72652E786D6C9591C152C32010865F25B3771228
311
49DB74089D46DB27F0E40DC336326D2013C0F1F125268E7AD313CCCFF7EFF2EF8AE3FB70CFDE70F2C6D906584E2143DB396D6CDF400C57B287EC28C5E45CF8814166D5800DCC3248D14F2E8EABD4391BD0CEAA751A5751798F01B2EE9E2E0DF8EE150795AB1812E16FF9A8BA9BEA3167F9C24911CCF065ED26540135C80D65
311
5B4239E1EC89B143C50FB47A16C54C4A118D0D7CB336C3E10575E6C6902281AC44B1BC262A1ABD3246A73F9AABC109E4437DE26DB9A7E4BCE53529EBEA4C5ACA4A52EFD8E9F1B2E3F5F6D2A622C92C850F539ACC5A649EC15FED8BF157B238EA7F265B1C1E24FB0E55CC6396A2F8DC413AE795C80F504B0304140006080800
311
A25E7F480BF0428F08010000B201000008000000636F72652E786D6C8D50C172832014FC15E6DD51118D4906C924B67E414FBD5121868982239869FFBE10ED4C7BEBE931BBFBDE2ECB4E9FE3801E6A76DA9A1A48920152A6B3529BBE86C55FF11ED089B3D95AFF4B06C88851D51061E0AC9FED326D50678D5726A2C64AB581
311
C239E501754378D4E0BA9B1A4522161F14EE9E4CA2BB8B5E252459759C793DFEAC76B3125E49E079467638A3989237428E253D66E53B4BA392B365D172B3D232B8EBAB5633F0F2D23655D552DC36798B0B7ADEE3F3CB81E04373792D9A7DB1A3A462695CE6CCF939FC793B12727AE4C423FAB274A538FBB076D804219444D6
311
0C5FC0339646E24FE86592FF08AD8DA7F97670DD70C04908F42482716C308C67BD61C6B6F937504B01021400140006080800A25E7F4843791792DA000000200100004F000000000000000000000000000000000043394133423438302D453633392D343935452D423031342D3937314144463733393646422F417373657444
311
6174612F446566696E6974696F6E4974657261746F7250726F706572746965732E62696E504B01021400140006080800A25E7F48DE8B39A5100100003002000045000000000000000000000000004701000043394133423438302D453633392D343935452D423031342D3937314144463733393646422F4173736574446174
311
612F496E7374616E636550726F706572746965732E62696E504B01021400140006080800A25E7F4828BB58AF800100009E0500003D00000000000000000000000000BA02000043394133423438302D453633392D343935452D423031342D3937314144463733393646422F536368656D61732F436F6D6D6F6E536368656D61
311
2E786D6C504B01021400140006080800A25E7F482CCEBD668A040000E01200003E000000000000000000000000009504000043394133423438302D453633392D343935452D423031342D3937314144463733393646422F536368656D61732F47656E65726963536368656D612E786D6C504B01021400140006080800A25E7F
311
486180134D5F0100006B03000045000000000000000000000000007B09000043394133423438302D453633392D343935452D423031342D3937314144463733393646422F536368656D61732F52656E6465724D6174657269616C536368656D612E786D6C504B01021400140006080800A25E7F48F84FE3BF51000000570000
311
0047000000000000000000000000003D0B000043394133423438302D453633392D343935452D423031342D3937314144463733393646422F4173736574446174612F41737365745461626C654F66436F6E74656E74732E62696E504B01021400140006080800A25E7F48F86583405800000068000000450000000000000000
311
0000000000F30B000043394133423438302D453633392D343935452D423031342D3937314144463733393646422F4173736574446174612F53747265616D56657273696F6E5461626C652E696E66504B01021400140006080800A25E7F48D4ACE505340100009A0400003600000000000000000000000000AE0C0000433941
311
33423438302D453633392D343935452D423031342D3937314144463733393646422F4173736574446174612F636E782E786D6C504B01021400140006080800A25E7F48C18B46FB080100004F0300003400000000000000000000000000360E000043394133423438302D453633392D343935452D423031342D393731414446
311
3733393646422F536368656D61732F636E782E786D6C504B01021400140006080800A25E7F48410A3D5871000000A40000002C00000000000000000000000000900F000043394133423438302D453633392D343935452D423031342D3937314144463733393646422F636E782E786D6C504B01021400140006080800A25E7F
311
4825F86B487F000000A300000007000000000000000000000000004B100000636E782E786D6C504B01021400140006080800A25E7F4816E99B5DA6000000350100001300000000000000000000000000EF1000005B436F6E74656E745F54797065735D2E786D6C504B01021400140006080800A25E7F483DEE336E64000000
311
790000001B00000000000000000000000000C61100006175746F6465736B2D64657369676E2D7061636B6167652E786D6C504B01021400140006080800A25E7F486D1B7261F90000009601000037000000000000000000000000006312000043394133423438302D453633392D343935452D423031342D3937314144463733
311
393646422F4173736574446174612F636F72652E786D6C504B01021400140006080800A25E7F483F1E2424F8000000940100003500000000000000000000000000B113000043394133423438302D453633392D343935452D423031342D3937314144463733393646422F536368656D61732F636F72652E786D6C504B010214
311
00140006080800A25E7F4873D7085802010000D70100002D00000000000000000000000000FC14000043394133423438302D453633392D343935452D423031342D3937314144463733393646422F636F72652E786D6C504B01021400140006080800A25E7F480BF0428F08010000B201000008000000000000000000000000
311
0049160000636F72652E786D6C504B050600000000110011005A060000771700000000
310
504B0304140006080800A25E7F48000000000000000000000000370000006662782F33363536414133302D393131412D343331412D424330352D4134353942344632373638342F617474726962757465732E62696E504B0304140006080800A25E7F48000000000000000000000000350000006662782F3336353641413330
310
2D393131412D343331412D424330352D4134353942344632373638342F76657274696365732E62696E504B0304140006080800A25E7F48F270F1330600000004000000360000006662782F33363536414133302D393131412D343331412D424330352D4134353942344632373638342F747269616E676C65732E62696E6366
310
60600000504B0304140006080800A25E7F4851464CB48900000043010000360000006662782F33363536414133302D393131412D343331412D424330352D4134353942344632373638342F6469726563746F72792E786D6C9D8F310EC2300C45AF127987122606C71DD918B841D4B851A43646695A717C52A85029031293A5
310
A76FBF6FACEF7DA7264E43906840EF0FA03836E242F406C6DCEE4EA06AC22492573150D1F66C60C640E8938CB705396EEDD86DE9B5042FE27813D640EA63BB001C722AF6E55CB61E4863F58284D5D3F53DD715CE1C3985E63FD7F1B7EBDD617E9F1E504B0304140006080800A25E7F484D38E55A39070000201C0000340000
310
006662782F33363536414133302D393131412D343331412D424330352D4134353942344632373638342F6F626A656374732E786D6CDD59DB6EDB3810FD1542FBB2FBA09B6FB10AC785633B8551A42D6A74B16F022DD30E37BA81941267BF7E8714294BB26C2BDD162836011287A186336766CE0C4793F7872844CF84719AC4
310
B7866B39062271906C69BCBF35F26C678E0DF47E8A262C49B2CA3E03C53822B7865836A6933D4BF2542D6DC90EE76173F5FEEE2FC4031213030521E6FCD6E0C12389B085F32CD912FE646D7186ADFDEE60B956B1B12E76CF70FAD8382AC58CC419A80AEB3148511AB8F53FC1247B3AB1C586DAB65EB76DFD0BDB6C69785D51
310
1AF30CC7C189560D39BD6E5AF5DDC162D91B7AE67030E89B8351CF35EFEEEF16A67BD377E6A3F9DC9B2D3D034D279B24094B07A424DE82175F8DA93BB1C57F4AF3150A6D7A07491C9340A1D9B6614B945C4A7813931AB0AE34ADE290C2D6CA42BFA3F167B67502A5A6520D6D6D9CFE5D8DDE64F33780C0BB4429E3444439CF
310
18F85A615FE48333B18BD59A5F284711CE08A3384421DD30CCC041B0B570504D8CC816210A09CCA417B5BCAAAE10D8D773A94DCB5D1E86227F8DA9CC341FF291645C6A46FF21ECA87DF534D009ACCD699C8D95B1D96B0A22BC892D178BFFF57BEA9F05906817E23D440B982936F57B0DBCE6820B560B63FAF17E73580B7E68
310
3F3C65494A5826224F26B3CA3BEDC14A6841F07500A5C0B5EEBB232A5F01FA4F807CA90B9A80E7183D0C0E036D3BC331DF252C02EF2007990EFC7090F878F26962970F4F11AA71E5394C216D7F10A635336A6757209D4E9E21E813D657C6AD031C424C3FD058E439040A0A135802BEDF6D0EC67405640A8BF0140EC17AF89E
310
D8E223825F851CE09B8687DAE8B783A374C234F3ECE8AB0F10338C06A5AB6A369EC377F843F09D2DD61FD739DBE1803CA8C45E901D8D6906C5B45DA11AE8B594FFB6FA2433F2C49EDAAE00CED92782385AFCB2567E41D231A08AA8C3856BE4CA0385740F431C9324E76ABD8DA882244C98BF79F58B1C6E3DEB4F1D04C56190
310
DF22025AC90CAA7BC0682A4031A6CABC9209AD234E82075500EE0BA7FA1B1C3C0978FD0018EB7BF480A8C5AC29348F521F47491E0BFA3E0DEFA66956DF915FAEEBF51CAF37F646DA582EC5EBECD1D4502A2FCE89707AE69079CD5B8A35B4E4228F06C0966D1604D033E5999FA438A0597B2C348C50190A605F54794B77BB9C
310
03A9B7C2D2D0D8EABB43E4547E96875CD65E1DE2D308EF89BFC3A2C2B59E5703A814AE2D6845661F269CD39870D9A19C30570315C7022228E2564B6D0942CAFD8864F87BE24F96BC46F831B20B7DE8A532D1CD5E8F3EADA0AA9EE7248ACE2D897D69FFABCF7194864597760D03B7D738A11557A1B438E219E2CDC799EF6C89
310
6CBAAF492F7941E3DB49BAF7DDE2CFC0C3F04F87471F41A1F5861A79DDB3AE35743DF1350652190DDDFE8D76C435ACF45199E841C21CBAA6E0D57F2174FFD88DD03A9DC349B8F36918E6915FD4838C44D082E12C679DF27534744E9CAF78A19110959376348406B93369CADE43771F60956C3ECE9166E518308AC67047EB64
310
C88915AD212C7D21EFA3E2DA75DDFB6F97FA9FF9B27A4F7922AF2F09DBB66A5A6F237407A61B064197AAC2957124254F27D5E48BE4C5E53A0E032D44F15B714B5011C2C83315830979036ABD3FF0179C0540A46BF9DBBC838CD892EDB1A7A88953630E630A876A69BA4FADDE7480EC44F9A8355E2B41A8114C1BB0E0D907F1
310
21FC8AC1D5D0F9715B753576B1BE1285CD82C1CA518F0BB23E7F5837A4C04AE7A7BF088CC84B43825A9D8B46EE82A86FAB63BFDA90A02CFAB6BAF078F698479B185351194558E06DFAEEBDBC4BDEDA7051B0EF9DDEACEF2C7AE66C70333307F7DEBD391ECC17E6D259B8DED85BDE8DBD81CD084F7216106EF76CC7D7BD531A
310
EF756014D075B951C054E1FAD54FC773D3C1FFE31B45986CF0B958FC552F1465BB271AB2462E76BD50B412F5E66DDDBF7B42D4ED45EC4D9D73312BD0017EB96C0119E97ADFBDB5D0A27527D1AE73A522BEB1F09EBDADFCF41A5323F4D6FA50DBD146F9752E86D9534B95D2B75BC96BCB1B6F341F2C6FCCC1C21B9B83F17064
310
7AF3F1D25CDECD166368E2C6BDFEA2445CD5C2AE75E597E050AD6C658C06D3609E841486F2648BF624811B104C1D3AF02B8B0897371B68005419D76F043A3CFD5CCC5433BC09F5D3C12386C174A82A721EC050146E1DB7865A47BFC118544C22E570CA7A82C2A3A2DD4039A3B706844046A1BE581B1867C9E1A194DE185782
310
DB70BC1777A6E2A9F2EFE363021D8895A35DE59E2EB828CB6AD109C38154BE2700B6D30DC9F79BAED54138838F9B3C2B8D392E1CAD5120E81702857130F57B52F01E80782EDBE55A724F0D924E93F98B7150483533CCF672BC5EC17BB6F8628BC9F8EA334AC37C2FDC79A9DED72499A2CF08F362083581C05066A658DCC3E7
310
EFEC2F2C81574C11BAA71004E8F7C378F4873D4FA228898B257BA65E54A1F523BC76DADA7AE4078D8BE30E6DD9F7A8B13ECCAD38B1F0963FC102B89651311B2D20AE0540494F9500D01E11BE80C76AFB570BA48A40A585ADB6AE021E39D3479048E25D8E489BEA86CA00127201B42AE6B4E507BD30B1190CC1A7FF02504B03
310
04140006080800A25E7F4889358A853E01000046050000300000006662782F33363536414133302D393131412D343331412D424330352D4134353942344632373638342F636E782E786D6CCD94C14A033110865F65C97D371B4B454A36050F3E8107F196CD4ED7D86CB22413B16F6F52D3AA48C543A1BD85C93FF07F333FC3
310
D7EF93A9DEC007ED6C4758D3920AAC7283B66347226EEA3B52AD05F7CEE13719A9AC9CA023B94C041FBD8B73290DB091D1E4AAD1765B8A12D1EB3E220452292343E848502F30C946467403846D3348940D6B3C0417BD82D48F7A82D2AF3C488481889B96DDD6EDA25EB047C656CBC5AA5D3E739A9582F7CE99A2D716C1BBB9
310
522E3D6C32D3729ABF058F5E174D2620E2CB59D36BCB69FA173C24B7762C3ADCCD5937CF462B89694CD42904AC9308E4C4E9A758709A797F503FDC3F1D1C5483F6A0D0F9DD8506C04E0DE068AC4949F81FFF5EF837B6EB5F13EEA5B67D12B6D83A1BEA21AD21C5F5F7FE538AA41DCDF585FE68ECFC994FA704B5BA3EE483AF
310
3311D3FDC94B4BCF17507C00504B0304140006080800A25E7F48FB02305A7F000000A30000000B0000006662782F636E782E786D6C4D8C4D0AC3201844AF22DFDE56E34F13508329F41EA131419A68B1B1F4F8D5924537F3E03133AAFF6C2B7ABBF4F23168A02702C8857B9C7C5834E47DC62DA0DEA814E3FE570314C6CD69
310
A81A8C5A52CCCF434D6E1EF35AEDEAC3E3904C0A692D23B8A3D462CE4A0C5722B0E5A21BF8ADB9C89697C5B94E0A7E7F85F5DE7C01504B0304140006080800A25E7F48A6D797065F0000008200000007000000636E782E786D6C4DCB3B0E80201045D1AD90E9FD7516806B51190811670C8A61F982B1B0BAC9C97B72CA7B10
310
37C6D3332918DA1E04D2CAC69353902EDB8C20262D23F3F59B81A079470595414B17391D1F19B4730A5583A7ED43BBE4025D9592775E5ADFFA01504B0304140006080800A25E7F484FEB6A7CA0000000F4000000130000005B436F6E74656E745F54797065735D2E786D6C7D8F4B0EC2300C44AF1279DFA6B0400835ED02B8
310
011730C16D239A8F121795DB93D02D6269CFBC19BBED573B8B17C564BC53B0AB1B10E4B47F18372A5878A88E20FAAEBDBD032591BD2E299898C349CAA427B2986A1FC86565F0D122E7318E32A07EE24872DF3407A9BD63725C71C980AEBDD080CBCCE2BAE6F5D69B7110E7CD57AA146008B3D1C8F92C5954F993BB1BF787F3
310
9A89ABC491D09600F9FDA2FB00504B0304140006080800A25E7F483DEE336E64000000790000001B0000006175746F6465736B2D64657369676E2D7061636B6167652E786D6C35CBC10E83200C00D05F21DCA56CA76D41FC96062B120735B69A7DBE268BB7777961F8D5AF396893C2ADB70FE7ADA196782C2DF776D7A97B59
310
33C430F15651E5469C55D70F80A4992A3ADC954792C525AE70A1E4D6AD9816CC044FEFDF01FE3FDE907802504B0304140006080800A25E7F48AEF490E3F7000000960100003B0000006662782F33363536414133302D393131412D343331412D424330352D4134353942344632373638342F7265736F75726365732F636F72
310
652E786D6C8550CB6EC32010FC156BEFD8066237893051EBE60F7AEA0DE18D8B1283C5A3EAE71712576A4F3D2D9A9D9965469CBE965BF5893E186707A0750B155AED2663E70152BC903D542729BC73F1170D2AAB161CA0C020C5EC5D5A37483B1BD116D4BA0937508580112A7DCB8F0182FEC045D52AC5CC08D77A55FAAA66
310
AC69FDE04991929936A999B29BB918F420E94BCF5EF9F940CEBC1DC9AEA38C3CEF9E4692D19E75FB8E1D462E9A2296229AE5E7BAF6A8224E20594B7BD272C2E91BA5C78E1FDBEE5D34852945883E67DE8E9674203D0697BCC6209AC7F68F6B5AA7FF5D93B191B3CDF5A1083947FEE47D2145535ACAE35E619EA551F90D504B
310
0304140006080800A25E7F48CF220C7AF1000000B1010000310000006662782F33363536414133302D393131412D343331412D424330352D4134353942344632373638342F636F72652E786D6C8D504B6EC32014BC8AF5F6D8606C3789309153A927E8AA3B04C44589C1E253F5F885D895DA5D363C34CC30F3869DBF977BF5
310
A57D30CE8E406A0C95B6D22963E71152BCA2035467CEBC73F10F0D2A2B163D428181B3D9BBB4EE9074366A5B50EB94DE4111828E50C97BBE8C10E4A75E442D52CC8C70AB57216F62D635A9371E67D12CBF52E9B5885A016F311910A6889277424E3D3DE1FE833585C9594A46ED564665777335DA03A7433F4C13C5E848C884
310
3A9A8FCB2BEED1D4F5C74BF7D6BE0C878E3545CC59883EEFBC7F52B67B56BE09FF654EAB7A22B3B191B6BBE1A608C049CEF378E0AC2905E6F16837CF5236FF01504B0304140006080800A25E7F48BE33916852010000DD0200000C0000006662782F636F72652E786D6C8D52CB6E833010FC15E4BB01434893C8386AD3FC41
310
4FBD39C6A156C046C646F9FCAE7928E5D0B44232D6ECCEECCEC8F4786F9B6890B657469788C4298AA416A652BA2E917757BC43D191516B8CFBD18622CD5B59A20023466B6B7C3743C268277540B5A9E40CF2BE970E45A2814B897AF1255B1E73EFA0A3BFC51D17375ECB98C4531FA3DEAB6AA6AA0AD4D455498B1879DB66EF
310
F9798FCF797AC29B8264F875F372C2806EB3625764FB534E934066D4A976992EACE44E56886529D9E234C739F920E450E487B4F8A449E864B477163CCF43833BC4AE973B4D267CA5E7BBEA6F3DAFB4CBB3596F62F4E000D61B0B8C26211FF88DE1AD3384C1909FE39766B170036890C219BB814A65FCA334F0C64B904EA3F1
310
A3C95405E551E0379DEC89CE730D088AEB1A56E30EAE17EFC2F4F54E9DB47870F7481BDBF2E6B1DCB4E2E37C0C5A595AE8C234C6FE87BD585DC24CC2C364DF504B0304140006080800A25E7F48DA24A56606010000B201000008000000636F72652E786D6C8D504B6EC32014BC0A628F6D2076930813B56E6ED05577D41007
310
C5068B4FD4DEBE1053A9DD75F5D0CCBC37C3B0D3E73283BB725E5BD3435C351028335AA9CDD4C3182E680FC18933676DF82583C08845F530C390B3C9D9B81668B42628935163A52AA0F05E0508C6393D7AE8C7AB5A442562480A7FAB5631DEC4A42A5C6D3ACE825E7E5647A744501272D2E00E351451FC86F1B1A5C7A67D67
310
75567216A396C54ACBE4AE2F5A39C8F14B475EE9F980CEB419D0AEC5043DEF9E0694D08EB4FB961C06CAEABCCC990F2EFDB91C493903F0E29E7D59BD519C7D583B17410A258135F317E40DAB33F127745CE53F426B13282907B70D9F32A7400F2219E706D378D49B666E9B7F03504B01021400140006080800A25E7F480000
310
000000000000000000003700000000000000000000000000000000006662782F33363536414133302D393131412D343331412D424330352D4134353942344632373638342F617474726962757465732E62696E504B01021400140006080800A25E7F4800000000000000000000000035000000000000000000000000005500
310
00006662782F33363536414133302D393131412D343331412D424330352D4134353942344632373638342F76657274696365732E62696E504B01021400140006080800A25E7F48F270F13306000000040000003600000000000000000000000000A80000006662782F33363536414133302D393131412D343331412D424330
310
352D4134353942344632373638342F747269616E676C65732E62696E504B01021400140006080800A25E7F4851464CB489000000430100003600000000000000000000000000020100006662782F33363536414133302D393131412D343331412D424330352D4134353942344632373638342F6469726563746F72792E786D
310
6C504B01021400140006080800A25E7F484D38E55A39070000201C00003400000000000000000000000000DF0100006662782F33363536414133302D393131412D343331412D424330352D4134353942344632373638342F6F626A656374732E786D6C504B01021400140006080800A25E7F4889358A853E01000046050000
310
30000000000000000000000000006A0900006662782F33363536414133302D393131412D343331412D424330352D4134353942344632373638342F636E782E786D6C504B01021400140006080800A25E7F48FB02305A7F000000A30000000B00000000000000000000000000F60A00006662782F636E782E786D6C504B0102
310
1400140006080800A25E7F48A6D797065F0000008200000007000000000000000000000000009E0B0000636E782E786D6C504B01021400140006080800A25E7F484FEB6A7CA0000000F40000001300000000000000000000000000220C00005B436F6E74656E745F54797065735D2E786D6C504B01021400140006080800A2
310
5E7F483DEE336E64000000790000001B00000000000000000000000000F30C00006175746F6465736B2D64657369676E2D7061636B6167652E786D6C504B01021400140006080800A25E7F48AEF490E3F7000000960100003B00000000000000000000000000900D00006662782F33363536414133302D393131412D343331
310
412D424330352D4134353942344632373638342F7265736F75726365732F636F72652E786D6C504B01021400140006080800A25E7F48CF220C7AF1000000B10100003100000000000000000000000000E00E00006662782F33363536414133302D393131412D343331412D424330352D4134353942344632373638342F636F
310
72652E786D6C504B01021400140006080800A25E7F48BE33916852010000DD0200000C00000000000000000000000000201000006662782F636F72652E786D6C504B01021400140006080800A25E7F48DA24A56606010000B201000008000000000000000000000000009C110000636F72652E786D6C504B0506000000000E
310
000E0080040000C81200000000
  0
XRECORD
  5
12
102
{ACAD_REACTORS
330
E
102
}
330
E
100
AcDbXrecord
280
     1
270
     1
271
     1
  0
XRECORD
  5
13
102
{ACAD_REACTORS
330
E
102
}
330
E
100
AcDbXrecord
280
     1
270
     1
271
     1
  0
XRECORD
  5
14
102
{ACAD_REACTORS
330
E
102
}
330
E
100
AcDbXrecord
280
     1
270
     1
271
     1
  0
XRECORD
  5
15
102
{ACAD_REACTORS
330
E
102
}
330
E
100
AcDbXrecord
280
     1
270
     1
271
     1
  0
XRECORD
  5
2A4
102
{ACAD_REACTORS
330
2A3
102
}
330
2A3
100
AcDbXrecord
280
     1
102
ACAD_ROUNDTRIP_2012_MLEADER_STYLE
298
     1
  0
XRECORD
  5
2A6
102
{ACAD_REACTORS
330
2A5
102
}
330
2A5
100
AcDbXrecord
280
     1
102
DISPLAYNAME
  1
Imperial24
102
FLAGS
 90
        0
  0
CELLSTYLEMAP
  5
25A
102
{ACAD_REACTORS
330
5F
102
}
330
5F
100
AcDbCellStyleMap
 90
        3
300
CELLSTYLE
  1
TABLEFORMAT_BEGIN
 90
        5
170
     1
 91
        0
 92
    32768
 62
   257
 93
        1
300
CONTENTFORMAT
  1
CONTENTFORMAT_BEGIN
 90
        0
 91
        0
 92
      512
 93
        0
300

 40
0.0
140
1.0
 94
        5
 62
     0
340
23
144
0.25
309
CONTENTFORMAT_END
171
     1
301
MARGIN
  1
CELLMARGIN_BEGIN
 40
0.06
 40
0.06
 40
0.06
 40
0.06
 40
0.18
 40
0.18
309
CELLMARGIN_END
 94
        6
 95
        1
302
GRIDFORMAT
  1
GRIDFORMAT_BEGIN
 90
        0
 91
        1
 62
     0
 92
       -2
340
0
 93
        0
 40
0.045
309
GRIDFORMAT_END
 95
        2
302
GRIDFORMAT
  1
GRIDFORMAT_BEGIN
 90
        0
 91
        1
 62
     0
 92
       -2
340
0
 93
        0
 40
0.045
309
GRIDFORMAT_END
 95
        4
302
GRIDFORMAT
  1
GRIDFORMAT_BEGIN
 90
        0
 91
        1
 62
     0
 92
       -2
340
0
 93
        0
 40
0.045
309
GRIDFORMAT_END
 95
        8
302
GRIDFORMAT
  1
GRIDFORMAT_BEGIN
 90
        0
 91
        1
 62
     0
 92
       -2
340
0
 93
        0
 40
0.045
309
GRIDFORMAT_END
 95
       16
302
GRIDFORMAT
  1
GRIDFORMAT_BEGIN
 90
        0
 91
        1
 62
     0
 92
       -2
340
0
 93
        0
 40
0.045
309
GRIDFORMAT_END
 95
       32
302
GRIDFORMAT
  1
GRIDFORMAT_BEGIN
 90
        0
 91
        1
 62
     0
 92
       -2
340
0
 93
        0
 40
0.045
309
GRIDFORMAT_END
309
TABLEFORMAT_END
  1
CELLSTYLE_BEGIN
 90
        1
 91
        1
300
_TITLE
309
CELLSTYLE_END
300
CELLSTYLE
  1
TABLEFORMAT_BEGIN
 90
        5
170
     1
 91
        0
 92
        0
 62
   257
 93
        1
300
CONTENTFORMAT
  1
CONTENTFORMAT_BEGIN
 90
        0
 91
        0
 92
      512
 93
        0
300

 40
0.0
140
1.0
 94
        5
 62
     0
340
23
144
0.18
309
CONTENTFORMAT_END
171
     1
301
MARGIN
  1
CELLMARGIN_BEGIN
 40
0.06
 40
0.06
 40
0.06
 40
0.06
 40
0.18
 40
0.18
309
CELLMARGIN_END
 94
        6
 95
        1
302
GRIDFORMAT
  1
GRIDFORMAT_BEGIN
 90
        0
 91
        1
 62
     0
 92
       -2
340
0
 93
        0
 40
0.045
309
GRIDFORMAT_END
 95
        2
302
GRIDFORMAT
  1
GRIDFORMAT_BEGIN
 90
        0
 91
        1
 62
     0
 92
       -2
340
0
 93
        0
 40
0.045
309
GRIDFORMAT_END
 95
        4
302
GRIDFORMAT
  1
GRIDFORMAT_BEGIN
 90
        0
 91
        1
 62
     0
 92
       -2
340
0
 93
        0
 40
0.045
309
GRIDFORMAT_END
 95
        8
302
GRIDFORMAT
  1
GRIDFORMAT_BEGIN
 90
        0
 91
        1
 62
     0
 92
       -2
340
0
 93
        0
 40
0.045
309
GRIDFORMAT_END
 95
       16
302
GRIDFORMAT
  1
GRIDFORMAT_BEGIN
 90
        0
 91
        1
 62
     0
 92
       -2
340
0
 93
        0
 40
0.045
309
GRIDFORMAT_END
 95
       32
302
GRIDFORMAT
  1
GRIDFORMAT_BEGIN
 90
        0
 91
        1
 62
     0
 92
       -2
340
0
 93
        0
 40
0.045
309
GRIDFORMAT_END
309
TABLEFORMAT_END
  1
CELLSTYLE_BEGIN
 90
        2
 91
        1
300
_HEADER
309
CELLSTYLE_END
300
CELLSTYLE
  1
TABLEFORMAT_BEGIN
 90
        5
170
     1
 91
        0
 92
        0
 62
   257
 93
        1
300
CONTENTFORMAT
  1
CONTENTFORMAT_BEGIN
 90
        0
 91
        0
 92
      512
 93
        0
300

 40
0.0
140
1.0
 94
        2
 62
     0
340
23
144
0.18
309
CONTENTFORMAT_END
171
     1
301
MARGIN
  1
CELLMARGIN_BEGIN
 40
0.06
 40
0.06
 40
0.06
 40
0.06
 40
0.18
 40
0.18
309
CELLMARGIN_END
 94
        6
 95
        1
302
GRIDFORMAT
  1
GRIDFORMAT_BEGIN
 90
        0
 91
        1
 62
     0
 92
       -2
340
0
 93
        0
 40
0.045
309
GRIDFORMAT_END
 95
        2
302
GRIDFORMAT
  1
GRIDFORMAT_BEGIN
 90
        0
 91
        1
 62
     0
 92
       -2
340
0
 93
        0
 40
0.045
309
GRIDFORMAT_END
 95
        4
302
GRIDFORMAT
  1
GRIDFORMAT_BEGIN
 90
        0
 91
        1
 62
     0
 92
       -2
340
0
 93
        0
 40
0.045
309
GRIDFORMAT_END
 95
        8
302
GRIDFORMAT
  1
GRIDFORMAT_BEGIN
 90
        0
 91
        1
 62
     0
 92
       -2
340
0
 93
        0
 40
0.045
309
GRIDFORMAT_END
 95
       16
302
GRIDFORMAT
  1
GRIDFORMAT_BEGIN
 90
        0
 91
        1
 62
     0
 92
       -2
340
0
 93
        0
 40
0.045
309
GRIDFORMAT_END
 95
       32
302
GRIDFORMAT
  1
GRIDFORMAT_BEGIN
 90
        0
 91
        1
 62
     0
 92
       -2
340
0
 93
        0
 40
0.045
309
GRIDFORMAT_END
309
TABLEFORMAT_END
  1
CELLSTYLE_BEGIN
 90
        3
 91
        2
300
_DATA
309
CELLSTYLE_END
  0
XRECORD
  5
270
102
{ACAD_REACTORS
330
5F
102
}
330
5F
100
AcDbXrecord
280
     1
102
ACAD_ROUNDTRIP_PRE2007_TABLESTYLE
 90
      512
 91
        0
  1

 92
      512
 93
        0
  2

 94
      512
 95
        0
  3

  0
XRECORD
  5
26D
102
{ACAD_REACTORS
330
26C
102
}
330
26C
100
AcDbXrecord
280
     1
102
RTVSPost2010Prop28
280
     1
102
RTVSPost2010PropOp28
 70
     1
102
RTVSPost2010Prop29
280
     1
102
RTVSPost2010PropOp29
 70
     1
102
RTVSPost2010Prop30
280
     0
102
RTVSPost2010PropOp30
 70
     1
102
RTVSPost2010Prop31
280
     0
102
RTVSPost2010PropOp31
 70
     1
102
RTVSPost2010Prop32
280
     0
102
RTVSPost2010PropOp32
 70
     1
102
RTVSPost2010Prop33
280
     0
102
RTVSPost2010PropOp33
 70
     1
102
RTVSPost2010Prop34
280
     0
102
RTVSPost2010PropOp34
 70
     1
102
RTVSPost2010Prop35
280
     0
102
RTVSPost2010PropOp35
 70
     1
102
RTVSPost2010Prop36
280
     0
102
RTVSPost2010PropOp36
 70
     1
102
RTVSPost2010Prop37
 90
       50
102
RTVSPost2010PropOp37
 70
     1
102
RTVSPost2010Prop38
140
0.0
102
RTVSPost2010PropOp38
 70
     1
102
RTVSPost2010Prop39
140
1.0
102
RTVSPost2010PropOp39
 70
     1
102
RTVSPost2010Prop40
 90
        0
102
RTVSPost2010PropOp40
 70
     1
102
RTVSPost2010Prop41ColorIndex
 90
       18
102
RTVSPost2010Prop41ColorRGB
 90
-16777216
102
RTVSPost2010PropOp41
 70
     1
102
RTVSPost2010Prop42
 90
       50
102
RTVSPost2010PropOp42
 70
     1
102
RTVSPost2010Prop43
 90
        3
102
RTVSPost2010PropOp43
 70
     1
102
RTVSPost2010Prop44ColorIndex
 90
        5
102
RTVSPost2010Prop44ColorRGB
 90
      255
102
RTVSPost2010PropOp44
 70
     1
102
RTVSPost2010Prop45
280
     0
102
RTVSPost2010PropOp45
 70
     1
102
RTVSPost2010Prop46
 90
       50
102
RTVSPost2010PropOp46
 70
     1
102
RTVSPost2010Prop47
 90
       50
102
RTVSPost2010PropOp47
 70
     1
102
RTVSPost2010Prop48
 90
       50
102
RTVSPost2010PropOp48
 70
     1
102
RTVSPost2010Prop49
280
     0
102
RTVSPost2010PropOp49
 70
     1
102
RTVSPost2010Prop50
 90
       50
102
RTVSPost2010PropOp50
 70
     1
102
RTVSPost2010Prop51ColorIndex
 90
      256
102
RTVSPost2010Prop51ColorRGB
 90
-16777216
102
RTVSPost2010PropOp51
 70
     0
102
RTVSPost2010Prop52
140
1.0
102
RTVSPost2010PropOp52
 70
     0
102
RTVSPost2010Prop53
 90
        2
102
RTVSPost2010PropOp53
 70
     1
102
RTVSPost2010Prop54
  1
strokes_ogs.tif
102
RTVSPost2010PropOp54
 70
     1
102
RTVSPost2010Prop55
280
     0
102
RTVSPost2010PropOp55
 70
     1
102
RTVSPost2010Prop56
140
1.0
102
RTVSPost2010PropOp56
 70
     1
102
RTVSPost2010Prop57
140
1.0
102
RTVSPost2010PropOp57
 70
     1
102
RTVSPropertyOp0
 70
     1
102
RTVSPropertyOp1
 70
     1
102
RTVSPropertyOp2
 70
     1
102
RTVSPropertyOp3
 70
     1
102
RTVSPropertyOp4
 70
     1
102
RTVSPropertyOp5
 70
     1
102
RTVSPropertyOp6
 70
     1
102
RTVSPropertyOp7
 70
     1
102
RTVSPropertyOp8
 70
     1
102
RTVSPropertyOp9
 70
     1
102
RTVSPropertyOp10
 70
     1
102
RTVSPropertyOp11
 70
     1
102
RTVSPropertyOp12
 70
     1
102
RTVSPropertyOp13
 70
     1
102
RTVSPropertyOp14
 70
     1
102
RTVSPropertyOp15
 70
     1
102
RTVSPropertyOp16
 70
     1
102
RTVSPropertyOp17
 70
     1
102
RTVSPropertyOp18
 70
     1
102
RTVSPropertyOp19
 70
     1
102
RTVSPropertyOp20
 70
     1
102
RTVSPropertyOp21
 70
     1
102
RTVSPropertyOp22
 70
     1
102
RTVSPropertyOp23
 70
     1
102
RTVSPropertyOp24
 70
     1
102
RTVSPropertyOp25
 70
     1
102
RTVSPropertyOp26
 70
     1
102
RTVSPropertyOp27
 70
     1
102
RTVSPropertyOp28
 70
     1
102
RTVSPropertyOp29
 70
     1
102
RTVSPropertyOp30
 70
     1
102
RTVSPropertyOp31
 70
     1
102
RTVSPropertyOp32
 70
     1
102
RTVSPropertyOp33
 70
     1
102
RTVSPropertyOp34
 70
     1
102
RTVSPropertyOp35
 70
     1
102
RTVSPropertyOp36
 70
     1
102
RTVSPropertyOp37
 70
     1
102
RTVSPropertyOp38
 70
     1
102
RTVSPropertyOp39
 70
     1
102
RTVSPropertyOp40
 70
     1
102
RTVSPropertyOp41
 70
     1
102
RTVSPropertyOp42
 70
     1
102
RTVSPropertyOp43
 70
     1
102
RTVSPropertyOp44
 70
     1
102
RTVSPropertyOp45
 70
     1
102
RTVSPropertyOp46
 70
     1
102
RTVSPropertyOp47
 70
     1
102
RTVSPropertyOp48
 70
     1
102
RTVSPropertyOp49
 70
     1
102
RTVSPropertyOp50
 70
     1
102
RTVSPropertyOp51
 70
     0
102
RTVSPropertyOp52
 70
     0
102
RTVSPropertyOp53
 70
     1
102
RTVSPropertyOp54
 70
     1
102
RTVSPropertyOp55
 70
     1
102
RTVSPropertyOp56
 70
     1
102
RTVSPropertyOp57
 70
     1
102
RTVSPropertyOp58
 70
     1
102
RTVSPropertyOp59
 70
     1
102
RTVSPropertyOp60
 70
     1
102
RTVSPropertyOp61
 70
     1
102
RTVSPropertyOp62
 70
     1
  0
XRECORD
  5
274
102
{ACAD_REACTORS
330
273
102
}
330
273
100
AcDbXrecord
280
     1
102
RTVSPost2010Prop28
280
     0
102
RTVSPost2010PropOp28
 70
     1
102
RTVSPost2010Prop29
280
     1
102
RTVSPost2010PropOp29
 70
     1
102
RTVSPost2010Prop30
280
     1
102
RTVSPost2010PropOp30
 70
     1
102
RTVSPost2010Prop31
280
     0
102
RTVSPost2010PropOp31
 70
     1
102
RTVSPost2010Prop32
280
     0
102
RTVSPost2010PropOp32
 70
     1
102
RTVSPost2010Prop33
280
     0
102
RTVSPost2010PropOp33
 70
     1
102
RTVSPost2010Prop34
280
     0
102
RTVSPost2010PropOp34
 70
     1
102
RTVSPost2010Prop35
280
     0
102
RTVSPost2010PropOp35
 70
     1
102
RTVSPost2010Prop36
280
     0
102
RTVSPost2010PropOp36
 70
     1
102
RTVSPost2010Prop37
 90
       50
102
RTVSPost2010PropOp37
 70
     1
102
RTVSPost2010Prop38
140
0.0
102
RTVSPost2010PropOp38
 70
     1
102
RTVSPost2010Prop39
140
1.0
102
RTVSPost2010PropOp39
 70
     1
102
RTVSPost2010Prop40
 90
        0
102
RTVSPost2010PropOp40
 70
     1
102
RTVSPost2010Prop41ColorIndex
 90
       18
102
RTVSPost2010Prop41ColorRGB
 90
-16777216
102
RTVSPost2010PropOp41
 70
     1
102
RTVSPost2010Prop42
 90
       50
102
RTVSPost2010PropOp42
 70
     1
102
RTVSPost2010Prop43
 90
        3
102
RTVSPost2010PropOp43
 70
     1
102
RTVSPost2010Prop44ColorIndex
 90
        5
102
RTVSPost2010Prop44ColorRGB
 90
      255
102
RTVSPost2010PropOp44
 70
     1
102
RTVSPost2010Prop45
280
     0
102
RTVSPost2010PropOp45
 70
     1
102
RTVSPost2010Prop46
 90
       50
102
RTVSPost2010PropOp46
 70
     1
102
RTVSPost2010Prop47
 90
       50
102
RTVSPost2010PropOp47
 70
     1
102
RTVSPost2010Prop48
 90
       50
102
RTVSPost2010PropOp48
 70
     1
102
RTVSPost2010Prop49
280
     0
102
RTVSPost2010PropOp49
 70
     1
102
RTVSPost2010Prop50
 90
       50
102
RTVSPost2010PropOp50
 70
     1
102
RTVSPost2010Prop51ColorIndex
 90
      256
102
RTVSPost2010Prop51ColorRGB
 90
-16777216
102
RTVSPost2010PropOp51
 70
     0
102
RTVSPost2010Prop52
140
1.0
102
RTVSPost2010PropOp52
 70
     0
102
RTVSPost2010Prop53
 90
        2
102
RTVSPost2010PropOp53
 70
     1
102
RTVSPost2010Prop54
  1
strokes_ogs.tif
102
RTVSPost2010PropOp54
 70
     1
102
RTVSPost2010Prop55
280
     0
102
RTVSPost2010PropOp55
 70
     1
102
RTVSPost2010Prop56
140
1.0
102
RTVSPost2010PropOp56
 70
     1
102
RTVSPost2010Prop57
140
1.0
102
RTVSPost2010PropOp57
 70
     1
102
RTVSPropertyOp0
 70
     1
102
RTVSPropertyOp1
 70
     1
102
RTVSPropertyOp2
 70
     1
102
RTVSPropertyOp3
 70
     1
102
RTVSPropertyOp4
 70
     1
102
RTVSPropertyOp5
 70
     1
102
RTVSPropertyOp6
 70
     1
102
RTVSPropertyOp7
 70
     1
102
RTVSPropertyOp8
 70
     1
102
RTVSPropertyOp9
 70
     1
102
RTVSPropertyOp10
 70
     1
102
RTVSPropertyOp11
 70
     1
102
RTVSPropertyOp12
 70
     1
102
RTVSPropertyOp13
 70
     1
102
RTVSPropertyOp14
 70
     1
102
RTVSPropertyOp15
 70
     1
102
RTVSPropertyOp16
 70
     1
102
RTVSPropertyOp17
 70
     1
102
RTVSPropertyOp18
 70
     1
102
RTVSPropertyOp19
 70
     1
102
RTVSPropertyOp20
 70
     1
102
RTVSPropertyOp21
 70
     1
102
RTVSPropertyOp22
 70
     1
102
RTVSPropertyOp23
 70
     1
102
RTVSPropertyOp24
 70
     1
102
RTVSPropertyOp25
 70
     1
102
RTVSPropertyOp26
 70
     1
102
RTVSPropertyOp27
 70
     1
102
RTVSPropertyOp28
 70
     1
102
RTVSPropertyOp29
 70
     1
102
RTVSPropertyOp30
 70
     1
102
RTVSPropertyOp31
 70
     1
102
RTVSPropertyOp32
 70
     1
102
RTVSPropertyOp33
 70
     1
102
RTVSPropertyOp34
 70
     1
102
RTVSPropertyOp35
 70
     1
102
RTVSPropertyOp36
 70
     1
102
RTVSPropertyOp37
 70
     1
102
RTVSPropertyOp38
 70
     1
102
RTVSPropertyOp39
 70
     1
102
RTVSPropertyOp40
 70
     1
102
RTVSPropertyOp41
 70
     1
102
RTVSPropertyOp42
 70
     1
102
RTVSPropertyOp43
 70
     1
102
RTVSPropertyOp44
 70
     1
102
RTVSPropertyOp45
 70
     1
102
RTVSPropertyOp46
 70
     1
102
RTVSPropertyOp47
 70
     1
102
RTVSPropertyOp48
 70
     1
102
RTVSPropertyOp49
 70
     1
102
RTVSPropertyOp50
 70
     1
102
RTVSPropertyOp51
 70
     0
102
RTVSPropertyOp52
 70
     0
102
RTVSPropertyOp53
 70
     1
102
RTVSPropertyOp54
 70
     1
102
RTVSPropertyOp55
 70
     1
102
RTVSPropertyOp56
 70
     1
102
RTVSPropertyOp57
 70
     1
102
RTVSPropertyOp58
 70
     1
102
RTVSPropertyOp59
 70
     1
102
RTVSPropertyOp60
 70
     1
102
RTVSPropertyOp61
 70
     1
102
RTVSPropertyOp62
 70
     1
  0
XRECORD
  5
281
102
{ACAD_REACTORS
330
280
102
}
330
280
100
AcDbXrecord
280
     1
102
RTVSPost2010Prop28
280
     0
102
RTVSPost2010PropOp28
 70
     1
102
RTVSPost2010Prop29
280
     1
102
RTVSPost2010PropOp29
 70
     1
102
RTVSPost2010Prop30
280
     1
102
RTVSPost2010PropOp30
 70
     1
102
RTVSPost2010Prop31
280
     0
102
RTVSPost2010PropOp31
 70
     1
102
RTVSPost2010Prop32
280
     0
102
RTVSPost2010PropOp32
 70
     1
102
RTVSPost2010Prop33
280
     0
102
RTVSPost2010PropOp33
 70
     1
102
RTVSPost2010Prop34
280
     0
102
RTVSPost2010PropOp34
 70
     1
102
RTVSPost2010Prop35
280
     0
102
RTVSPost2010PropOp35
 70
     1
102
RTVSPost2010Prop36
280
     0
102
RTVSPost2010PropOp36
 70
     1
102
RTVSPost2010Prop37
 90
       50
102
RTVSPost2010PropOp37
 70
     1
102
RTVSPost2010Prop38
140
0.0
102
RTVSPost2010PropOp38
 70
     1
102
RTVSPost2010Prop39
140
1.0
102
RTVSPost2010PropOp39
 70
     1
102
RTVSPost2010Prop40
 90
        0
102
RTVSPost2010PropOp40
 70
     1
102
RTVSPost2010Prop41ColorIndex
 90
       18
102
RTVSPost2010Prop41ColorRGB
 90
        0
102
RTVSPost2010PropOp41
 70
     1
102
RTVSPost2010Prop42
 90
       50
102
RTVSPost2010PropOp42
 70
     1
102
RTVSPost2010Prop43
 90
        3
102
RTVSPost2010PropOp43
 70
     1
102
RTVSPost2010Prop44ColorIndex
 90
        5
102
RTVSPost2010Prop44ColorRGB
 90
      255
102
RTVSPost2010PropOp44
 70
     1
102
RTVSPost2010Prop45
280
     0
102
RTVSPost2010PropOp45
 70
     1
102
RTVSPost2010Prop46
 90
       50
102
RTVSPost2010PropOp46
 70
     1
102
RTVSPost2010Prop47
 90
       50
102
RTVSPost2010PropOp47
 70
     1
102
RTVSPost2010Prop48
 90
       50
102
RTVSPost2010PropOp48
 70
     1
102
RTVSPost2010Prop49
280
     0
102
RTVSPost2010PropOp49
 70
     1
102
RTVSPost2010Prop50
 90
       50
102
RTVSPost2010PropOp50
 70
     1
102
RTVSPost2010Prop51ColorIndex
 90
      256
102
RTVSPost2010Prop51ColorRGB
 90
-16777216
102
RTVSPost2010PropOp51
 70
     0
102
RTVSPost2010Prop52
140
1.0
102
RTVSPost2010PropOp52
 70
     0
102
RTVSPost2010Prop53
 90
        2
102
RTVSPost2010PropOp53
 70
     1
102
RTVSPost2010Prop54
  1
strokes_ogs.tif
102
RTVSPost2010PropOp54
 70
     1
102
RTVSPost2010Prop55
280
     0
102
RTVSPost2010PropOp55
 70
     1
102
RTVSPost2010Prop56
140
1.0
102
RTVSPost2010PropOp56
 70
     1
102
RTVSPost2010Prop57
140
1.0
102
RTVSPost2010PropOp57
 70
     1
102
RTVSPropertyOp0
 70
     1
102
RTVSPropertyOp1
 70
     1
102
RTVSPropertyOp2
 70
     1
102
RTVSPropertyOp3
 70
     1
102
RTVSPropertyOp4
 70
     1
102
RTVSPropertyOp5
 70
     1
102
RTVSPropertyOp6
 70
     1
102
RTVSPropertyOp7
 70
     1
102
RTVSPropertyOp8
 70
     1
102
RTVSPropertyOp9
 70
     1
102
RTVSPropertyOp10
 70
     1
102
RTVSPropertyOp11
 70
     1
102
RTVSPropertyOp12
 70
     1
102
RTVSPropertyOp13
 70
     1
102
RTVSPropertyOp14
 70
     1
102
RTVSPropertyOp15
 70
     1
102
RTVSPropertyOp16
 70
     1
102
RTVSPropertyOp17
 70
     1
102
RTVSPropertyOp18
 70
     1
102
RTVSPropertyOp19
 70
     1
102
RTVSPropertyOp20
 70
     1
102
RTVSPropertyOp21
 70
     1
102
RTVSPropertyOp22
 70
     1
102
RTVSPropertyOp23
 70
     1
102
RTVSPropertyOp24
 70
     1
102
RTVSPropertyOp25
 70
     1
102
RTVSPropertyOp26
 70
     1
102
RTVSPropertyOp27
 70
     1
102
RTVSPropertyOp28
 70
     1
102
RTVSPropertyOp29
 70
     1
102
RTVSPropertyOp30
 70
     1
102
RTVSPropertyOp31
 70
     1
102
RTVSPropertyOp32
 70
     1
102
RTVSPropertyOp33
 70
     1
102
RTVSPropertyOp34
 70
     1
102
RTVSPropertyOp35
 70
     1
102
RTVSPropertyOp36
 70
     1
102
RTVSPropertyOp37
 70
     1
102
RTVSPropertyOp38
 70
     1
102
RTVSPropertyOp39
 70
     1
102
RTVSPropertyOp40
 70
     1
102
RTVSPropertyOp41
 70
     1
102
RTVSPropertyOp42
 70
     1
102
RTVSPropertyOp43
 70
     1
102
RTVSPropertyOp44
 70
     1
102
RTVSPropertyOp45
 70
     1
102
RTVSPropertyOp46
 70
     1
102
RTVSPropertyOp47
 70
     1
102
RTVSPropertyOp48
 70
     1
102
RTVSPropertyOp49
 70
     1
102
RTVSPropertyOp50
 70
     1
102
RTVSPropertyOp51
 70
     0
102
RTVSPropertyOp52
 70
     0
102
RTVSPropertyOp53
 70
     1
102
RTVSPropertyOp54
 70
     1
102
RTVSPropertyOp55
 70
     1
102
RTVSPropertyOp56
 70
     1
102
RTVSPropertyOp57
 70
     1
102
RTVSPropertyOp58
 70
     1
102
RTVSPropertyOp59
 70
     1
102
RTVSPropertyOp60
 70
     1
102
RTVSPropertyOp61
 70
     1
102
RTVSPropertyOp62
 70
     1
  0
XRECORD
  5
28B
102
{ACAD_REACTORS
330
28A
102
}
330
28A
100
AcDbXrecord
280
     1
102
RTVSPost2010Prop28
280
     0
102
RTVSPost2010PropOp28
 70
     1
102
RTVSPost2010Prop29
280
     1
102
RTVSPost2010PropOp29
 70
     1
102
RTVSPost2010Prop30
280
     1
102
RTVSPost2010PropOp30
 70
     1
102
RTVSPost2010Prop31
280
     0
102
RTVSPost2010PropOp31
 70
     1
102
RTVSPost2010Prop32
280
     0
102
RTVSPost2010PropOp32
 70
     1
102
RTVSPost2010Prop33
280
     0
102
RTVSPost2010PropOp33
 70
     1
102
RTVSPost2010Prop34
280
     0
102
RTVSPost2010PropOp34
 70
     1
102
RTVSPost2010Prop35
280
     0
102
RTVSPost2010PropOp35
 70
     1
102
RTVSPost2010Prop36
280
     0
102
RTVSPost2010PropOp36
 70
     1
102
RTVSPost2010Prop37
 90
       50
102
RTVSPost2010PropOp37
 70
     1
102
RTVSPost2010Prop38
140
0.0
102
RTVSPost2010PropOp38
 70
     1
102
RTVSPost2010Prop39
140
1.0
102
RTVSPost2010PropOp39
 70
     1
102
RTVSPost2010Prop40
 90
        0
102
RTVSPost2010PropOp40
 70
     1
102
RTVSPost2010Prop41ColorIndex
 90
       18
102
RTVSPost2010Prop41ColorRGB
 90
        0
102
RTVSPost2010PropOp41
 70
     1
102
RTVSPost2010Prop42
 90
       50
102
RTVSPost2010PropOp42
 70
     1
102
RTVSPost2010Prop43
 90
        3
102
RTVSPost2010PropOp43
 70
     1
102
RTVSPost2010Prop44ColorIndex
 90
        5
102
RTVSPost2010Prop44ColorRGB
 90
      255
102
RTVSPost2010PropOp44
 70
     1
102
RTVSPost2010Prop45
280
     0
102
RTVSPost2010PropOp45
 70
     1
102
RTVSPost2010Prop46
 90
       50
102
RTVSPost2010PropOp46
 70
     1
102
RTVSPost2010Prop47
 90
       50
102
RTVSPost2010PropOp47
 70
     1
102
RTVSPost2010Prop48
 90
       50
102
RTVSPost2010PropOp48
 70
     1
102
RTVSPost2010Prop49
280
     0
102
RTVSPost2010PropOp49
 70
     1
102
RTVSPost2010Prop50
 90
       50
102
RTVSPost2010PropOp50
 70
     1
102
RTVSPost2010Prop51ColorIndex
 90
      256
102
RTVSPost2010Prop51ColorRGB
 90
-16777216
102
RTVSPost2010PropOp51
 70
     0
102
RTVSPost2010Prop52
140
1.0
102
RTVSPost2010PropOp52
 70
     0
102
RTVSPost2010Prop53
 90
        2
102
RTVSPost2010PropOp53
 70
     1
102
RTVSPost2010Prop54
  1
strokes_ogs.tif
102
RTVSPost2010PropOp54
 70
     1
102
RTVSPost2010Prop55
280
     0
102
RTVSPost2010PropOp55
 70
     1
102
RTVSPost2010Prop56
140
1.0
102
RTVSPost2010PropOp56
 70
     1
102
RTVSPost2010Prop57
140
1.0
102
RTVSPost2010PropOp57
 70
     1
102
RTVSPropertyOp0
 70
     1
102
RTVSPropertyOp1
 70
     1
102
RTVSPropertyOp2
 70
     1
102
RTVSPropertyOp3
 70
     1
102
RTVSPropertyOp4
 70
     1
102
RTVSPropertyOp5
 70
     1
102
RTVSPropertyOp6
 70
     1
102
RTVSPropertyOp7
 70
     1
102
RTVSPropertyOp8
 70
     1
102
RTVSPropertyOp9
 70
     1
102
RTVSPropertyOp10
 70
     1
102
RTVSPropertyOp11
 70
     1
102
RTVSPropertyOp12
 70
     1
102
RTVSPropertyOp13
 70
     1
102
RTVSPropertyOp14
 70
     1
102
RTVSPropertyOp15
 70
     1
102
RTVSPropertyOp16
 70
     1
102
RTVSPropertyOp17
 70
     1
102
RTVSPropertyOp18
 70
     1
102
RTVSPropertyOp19
 70
     1
102
RTVSPropertyOp20
 70
     1
102
RTVSPropertyOp21
 70
     1
102
RTVSPropertyOp22
 70
     1
102
RTVSPropertyOp23
 70
     1
102
RTVSPropertyOp24
 70
     1
102
RTVSPropertyOp25
 70
     1
102
RTVSPropertyOp26
 70
     1
102
RTVSPropertyOp27
 70
     1
102
RTVSPropertyOp28
 70
     1
102
RTVSPropertyOp29
 70
     1
102
RTVSPropertyOp30
 70
     1
102
RTVSPropertyOp31
 70
     1
102
RTVSPropertyOp32
 70
     1
102
RTVSPropertyOp33
 70
     1
102
RTVSPropertyOp34
 70
     1
102
RTVSPropertyOp35
 70
     1
102
RTVSPropertyOp36
 70
     1
102
RTVSPropertyOp37
 70
     1
102
RTVSPropertyOp38
 70
     1
102
RTVSPropertyOp39
 70
     1
102
RTVSPropertyOp40
 70
     1
102
RTVSPropertyOp41
 70
     1
102
RTVSPropertyOp42
 70
     1
102
RTVSPropertyOp43
 70
     1
102
RTVSPropertyOp44
 70
     1
102
RTVSPropertyOp45
 70
     1
102
RTVSPropertyOp46
 70
     1
102
RTVSPropertyOp47
 70
     1
102
RTVSPropertyOp48
 70
     1
102
RTVSPropertyOp49
 70
     1
102
RTVSPropertyOp50
 70
     1
102
RTVSPropertyOp51
 70
     0
102
RTVSPropertyOp52
 70
     0
102
RTVSPropertyOp53
 70
     1
102
RTVSPropertyOp54
 70
     1
102
RTVSPropertyOp55
 70
     1
102
RTVSPropertyOp56
 70
     1
102
RTVSPropertyOp57
 70
     1
102
RTVSPropertyOp58
 70
     1
102
RTVSPropertyOp59
 70
     1
102
RTVSPropertyOp60
 70
     1
102
RTVSPropertyOp61
 70
     1
102
RTVSPropertyOp62
 70
     1
  0
XRECORD
  5
293
102
{ACAD_REACTORS
330
292
102
}
330
292
100
AcDbXrecord
280
     1
102
RTVSPost2010Prop28
280
     0
102
RTVSPost2010PropOp28
 70
     1
102
RTVSPost2010Prop29
280
     1
102
RTVSPost2010PropOp29
 70
     1
102
RTVSPost2010Prop30
280
     1
102
RTVSPost2010PropOp30
 70
     1
102
RTVSPost2010Prop31
280
     0
102
RTVSPost2010PropOp31
 70
     1
102
RTVSPost2010Prop32
280
     0
102
RTVSPost2010PropOp32
 70
     1
102
RTVSPost2010Prop33
280
     0
102
RTVSPost2010PropOp33
 70
     1
102
RTVSPost2010Prop34
280
     0
102
RTVSPost2010PropOp34
 70
     1
102
RTVSPost2010Prop35
280
     0
102
RTVSPost2010PropOp35
 70
     1
102
RTVSPost2010Prop36
280
     0
102
RTVSPost2010PropOp36
 70
     1
102
RTVSPost2010Prop37
 90
       50
102
RTVSPost2010PropOp37
 70
     1
102
RTVSPost2010Prop38
140
0.0
102
RTVSPost2010PropOp38
 70
     1
102
RTVSPost2010Prop39
140
1.0
102
RTVSPost2010PropOp39
 70
     1
102
RTVSPost2010Prop40
 90
        0
102
RTVSPost2010PropOp40
 70
     1
102
RTVSPost2010Prop41ColorIndex
 90
       18
102
RTVSPost2010Prop41ColorRGB
 90
        0
102
RTVSPost2010PropOp41
 70
     1
102
RTVSPost2010Prop42
 90
       50
102
RTVSPost2010PropOp42
 70
     1
102
RTVSPost2010Prop43
 90
        3
102
RTVSPost2010PropOp43
 70
     1
102
RTVSPost2010Prop44ColorIndex
 90
        5
102
RTVSPost2010Prop44ColorRGB
 90
      255
102
RTVSPost2010PropOp44
 70
     1
102
RTVSPost2010Prop45
280
     0
102
RTVSPost2010PropOp45
 70
     1
102
RTVSPost2010Prop46
 90
       50
102
RTVSPost2010PropOp46
 70
     1
102
RTVSPost2010Prop47
 90
       50
102
RTVSPost2010PropOp47
 70
     1
102
RTVSPost2010Prop48
 90
       50
102
RTVSPost2010PropOp48
 70
     1
102
RTVSPost2010Prop49
280
     0
102
RTVSPost2010PropOp49
 70
     1
102
RTVSPost2010Prop50
 90
       50
102
RTVSPost2010PropOp50
 70
     1
102
RTVSPost2010Prop51ColorIndex
 90
      256
102
RTVSPost2010Prop51ColorRGB
 90
-16777216
102
RTVSPost2010PropOp51
 70
     0
102
RTVSPost2010Prop52
140
1.0
102
RTVSPost2010PropOp52
 70
     0
102
RTVSPost2010Prop53
 90
        2
102
RTVSPost2010PropOp53
 70
     1
102
RTVSPost2010Prop54
  1
strokes_ogs.tif
102
RTVSPost2010PropOp54
 70
     1
102
RTVSPost2010Prop55
280
     0
102
RTVSPost2010PropOp55
 70
     1
102
RTVSPost2010Prop56
140
1.0
102
RTVSPost2010PropOp56
 70
     1
102
RTVSPost2010Prop57
140
1.0
102
RTVSPost2010PropOp57
 70
     1
102
RTVSPropertyOp0
 70
     1
102
RTVSPropertyOp1
 70
     1
102
RTVSPropertyOp2
 70
     1
102
RTVSPropertyOp3
 70
     1
102
RTVSPropertyOp4
 70
     1
102
RTVSPropertyOp5
 70
     1
102
RTVSPropertyOp6
 70
     1
102
RTVSPropertyOp7
 70
     1
102
RTVSPropertyOp8
 70
     1
102
RTVSPropertyOp9
 70
     1
102
RTVSPropertyOp10
 70
     1
102
RTVSPropertyOp11
 70
     1
102
RTVSPropertyOp12
 70
     1
102
RTVSPropertyOp13
 70
     1
102
RTVSPropertyOp14
 70
     1
102
RTVSPropertyOp15
 70
     1
102
RTVSPropertyOp16
 70
     1
102
RTVSPropertyOp17
 70
     1
102
RTVSPropertyOp18
 70
     1
102
RTVSPropertyOp19
 70
     1
102
RTVSPropertyOp20
 70
     1
102
RTVSPropertyOp21
 70
     1
102
RTVSPropertyOp22
 70
     1
102
RTVSPropertyOp23
 70
     1
102
RTVSPropertyOp24
 70
     1
102
RTVSPropertyOp25
 70
     1
102
RTVSPropertyOp26
 70
     1
102
RTVSPropertyOp27
 70
     1
102
RTVSPropertyOp28
 70
     1
102
RTVSPropertyOp29
 70
     1
102
RTVSPropertyOp30
 70
     1
102
RTVSPropertyOp31
 70
     1
102
RTVSPropertyOp32
 70
     1
102
RTVSPropertyOp33
 70
     1
102
RTVSPropertyOp34
 70
     1
102
RTVSPropertyOp35
 70
     1
102
RTVSPropertyOp36
 70
     1
102
RTVSPropertyOp37
 70
     1
102
RTVSPropertyOp38
 70
     1
102
RTVSPropertyOp39
 70
     1
102
RTVSPropertyOp40
 70
     1
102
RTVSPropertyOp41
 70
     1
102
RTVSPropertyOp42
 70
     1
102
RTVSPropertyOp43
 70
     1
102
RTVSPropertyOp44
 70
     1
102
RTVSPropertyOp45
 70
     1
102
RTVSPropertyOp46
 70
     1
102
RTVSPropertyOp47
 70
     1
102
RTVSPropertyOp48
 70
     1
102
RTVSPropertyOp49
 70
     1
102
RTVSPropertyOp50
 70
     1
102
RTVSPropertyOp51
 70
     0
102
RTVSPropertyOp52
 70
     0
102
RTVSPropertyOp53
 70
     1
102
RTVSPropertyOp54
 70
     1
102
RTVSPropertyOp55
 70
     1
102
RTVSPropertyOp56
 70
     1
102
RTVSPropertyOp57
 70
     1
102
RTVSPropertyOp58
 70
     1
102
RTVSPropertyOp59
 70
     1
102
RTVSPropertyOp60
 70
     1
102
RTVSPropertyOp61
 70
     1
102
RTVSPropertyOp62
 70
     1
  0
XRECORD
  5
287
102
{ACAD_REACTORS
330
286
102
}
330
286
100
AcDbXrecord
280
     1
102
RTVSPost2010Prop28
280
     0
102
RTVSPost2010PropOp28
 70
     1
102
RTVSPost2010Prop29
280
     1
102
RTVSPost2010PropOp29
 70
     1
102
RTVSPost2010Prop30
280
     1
102
RTVSPost2010PropOp30
 70
     1
102
RTVSPost2010Prop31
280
     0
102
RTVSPost2010PropOp31
 70
     1
102
RTVSPost2010Prop32
280
     0
102
RTVSPost2010PropOp32
 70
     1
102
RTVSPost2010Prop33
280
     0
102
RTVSPost2010PropOp33
 70
     1
102
RTVSPost2010Prop34
280
     0
102
RTVSPost2010PropOp34
 70
     1
102
RTVSPost2010Prop35
280
     0
102
RTVSPost2010PropOp35
 70
     1
102
RTVSPost2010Prop36
280
     0
102
RTVSPost2010PropOp36
 70
     1
102
RTVSPost2010Prop37
 90
       50
102
RTVSPost2010PropOp37
 70
     1
102
RTVSPost2010Prop38
140
0.0
102
RTVSPost2010PropOp38
 70
     1
102
RTVSPost2010Prop39
140
1.0
102
RTVSPost2010PropOp39
 70
     1
102
RTVSPost2010Prop40
 90
        0
102
RTVSPost2010PropOp40
 70
     1
102
RTVSPost2010Prop41ColorIndex
 90
       18
102
RTVSPost2010Prop41ColorRGB
 90
        0
102
RTVSPost2010PropOp41
 70
     1
102
RTVSPost2010Prop42
 90
       50
102
RTVSPost2010PropOp42
 70
     1
102
RTVSPost2010Prop43
 90
        3
102
RTVSPost2010PropOp43
 70
     1
102
RTVSPost2010Prop44ColorIndex
 90
        5
102
RTVSPost2010Prop44ColorRGB
 90
      255
102
RTVSPost2010PropOp44
 70
     1
102
RTVSPost2010Prop45
280
     0
102
RTVSPost2010PropOp45
 70
     1
102
RTVSPost2010Prop46
 90
       50
102
RTVSPost2010PropOp46
 70
     1
102
RTVSPost2010Prop47
 90
       50
102
RTVSPost2010PropOp47
 70
     1
102
RTVSPost2010Prop48
 90
       50
102
RTVSPost2010PropOp48
 70
     1
102
RTVSPost2010Prop49
280
     0
102
RTVSPost2010PropOp49
 70
     1
102
RTVSPost2010Prop50
 90
       50
102
RTVSPost2010PropOp50
 70
     1
102
RTVSPost2010Prop51ColorIndex
 90
      256
102
RTVSPost2010Prop51ColorRGB
 90
-16777216
102
RTVSPost2010PropOp51
 70
     0
102
RTVSPost2010Prop52
140
1.0
102
RTVSPost2010PropOp52
 70
     0
102
RTVSPost2010Prop53
 90
        2
102
RTVSPost2010PropOp53
 70
     1
102
RTVSPost2010Prop54
  1
strokes_ogs.tif
102
RTVSPost2010PropOp54
 70
     1
102
RTVSPost2010Prop55
280
     0
102
RTVSPost2010PropOp55
 70
     1
102
RTVSPost2010Prop56
140
1.0
102
RTVSPost2010PropOp56
 70
     1
102
RTVSPost2010Prop57
140
1.0
102
RTVSPost2010PropOp57
 70
     1
102
RTVSPropertyOp0
 70
     1
102
RTVSPropertyOp1
 70
     1
102
RTVSPropertyOp2
 70
     1
102
RTVSPropertyOp3
 70
     1
102
RTVSPropertyOp4
 70
     1
102
RTVSPropertyOp5
 70
     1
102
RTVSPropertyOp6
 70
     1
102
RTVSPropertyOp7
 70
     1
102
RTVSPropertyOp8
 70
     1
102
RTVSPropertyOp9
 70
     1
102
RTVSPropertyOp10
 70
     1
102
RTVSPropertyOp11
 70
     1
102
RTVSPropertyOp12
 70
     1
102
RTVSPropertyOp13
 70
     1
102
RTVSPropertyOp14
 70
     1
102
RTVSPropertyOp15
 70
     1
102
RTVSPropertyOp16
 70
     1
102
RTVSPropertyOp17
 70
     1
102
RTVSPropertyOp18
 70
     1
102
RTVSPropertyOp19
 70
     1
102
RTVSPropertyOp20
 70
     1
102
RTVSPropertyOp21
 70
     1
102
RTVSPropertyOp22
 70
     1
102
RTVSPropertyOp23
 70
     1
102
RTVSPropertyOp24
 70
     1
102
RTVSPropertyOp25
 70
     1
102
RTVSPropertyOp26
 70
     1
102
RTVSPropertyOp27
 70
     1
102
RTVSPropertyOp28
 70
     1
102
RTVSPropertyOp29
 70
     1
102
RTVSPropertyOp30
 70
     1
102
RTVSPropertyOp31
 70
     1
102
RTVSPropertyOp32
 70
     1
102
RTVSPropertyOp33
 70
     1
102
RTVSPropertyOp34
 70
     1
102
RTVSPropertyOp35
 70
     1
102
RTVSPropertyOp36
 70
     1
102
RTVSPropertyOp37
 70
     1
102
RTVSPropertyOp38
 70
     1
102
RTVSPropertyOp39
 70
     1
102
RTVSPropertyOp40
 70
     1
102
RTVSPropertyOp41
 70
     1
102
RTVSPropertyOp42
 70
     1
102
RTVSPropertyOp43
 70
     1
102
RTVSPropertyOp44
 70
     1
102
RTVSPropertyOp45
 70
     1
102
RTVSPropertyOp46
 70
     1
102
RTVSPropertyOp47
 70
     1
102
RTVSPropertyOp48
 70
     1
102
RTVSPropertyOp49
 70
     1
102
RTVSPropertyOp50
 70
     1
102
RTVSPropertyOp51
 70
     0
102
RTVSPropertyOp52
 70
     0
102
RTVSPropertyOp53
 70
     1
102
RTVSPropertyOp54
 70
     1
102
RTVSPropertyOp55
 70
     1
102
RTVSPropertyOp56
 70
     1
102
RTVSPropertyOp57
 70
     1
102
RTVSPropertyOp58
 70
     1
102
RTVSPropertyOp59
 70
     1
102
RTVSPropertyOp60
 70
     1
102
RTVSPropertyOp61
 70
     1
102
RTVSPropertyOp62
 70
     1
  0
XRECORD
  5
289
102
{ACAD_REACTORS
330
288
102
}
330
288
100
AcDbXrecord
280
     1
102
RTVSPost2010Prop28
280
     0
102
RTVSPost2010PropOp28
 70
     1
102
RTVSPost2010Prop29
280
     1
102
RTVSPost2010PropOp29
 70
     1
102
RTVSPost2010Prop30
280
     1
102
RTVSPost2010PropOp30
 70
     1
102
RTVSPost2010Prop31
280
     0
102
RTVSPost2010PropOp31
 70
     1
102
RTVSPost2010Prop32
280
     0
102
RTVSPost2010PropOp32
 70
     1
102
RTVSPost2010Prop33
280
     0
102
RTVSPost2010PropOp33
 70
     1
102
RTVSPost2010Prop34
280
     0
102
RTVSPost2010PropOp34
 70
     1
102
RTVSPost2010Prop35
280
     0
102
RTVSPost2010PropOp35
 70
     1
102
RTVSPost2010Prop36
280
     0
102
RTVSPost2010PropOp36
 70
     1
102
RTVSPost2010Prop37
 90
       50
102
RTVSPost2010PropOp37
 70
     1
102
RTVSPost2010Prop38
140
0.0
102
RTVSPost2010PropOp38
 70
     1
102
RTVSPost2010Prop39
140
1.0
102
RTVSPost2010PropOp39
 70
     1
102
RTVSPost2010Prop40
 90
        0
102
RTVSPost2010PropOp40
 70
     1
102
RTVSPost2010Prop41ColorIndex
 90
       18
102
RTVSPost2010Prop41ColorRGB
 90
        0
102
RTVSPost2010PropOp41
 70
     1
102
RTVSPost2010Prop42
 90
       50
102
RTVSPost2010PropOp42
 70
     1
102
RTVSPost2010Prop43
 90
        3
102
RTVSPost2010PropOp43
 70
     1
102
RTVSPost2010Prop44ColorIndex
 90
        5
102
RTVSPost2010Prop44ColorRGB
 90
      255
102
RTVSPost2010PropOp44
 70
     1
102
RTVSPost2010Prop45
280
     0
102
RTVSPost2010PropOp45
 70
     1
102
RTVSPost2010Prop46
 90
       50
102
RTVSPost2010PropOp46
 70
     1
102
RTVSPost2010Prop47
 90
       50
102
RTVSPost2010PropOp47
 70
     1
102
RTVSPost2010Prop48
 90
       50
102
RTVSPost2010PropOp48
 70
     1
102
RTVSPost2010Prop49
280
     0
102
RTVSPost2010PropOp49
 70
     1
102
RTVSPost2010Prop50
 90
       50
102
RTVSPost2010PropOp50
 70
     1
102
RTVSPost2010Prop51ColorIndex
 90
      256
102
RTVSPost2010Prop51ColorRGB
 90
-16777216
102
RTVSPost2010PropOp51
 70
     0
102
RTVSPost2010Prop52
140
1.0
102
RTVSPost2010PropOp52
 70
     0
102
RTVSPost2010Prop53
 90
        2
102
RTVSPost2010PropOp53
 70
     1
102
RTVSPost2010Prop54
  1
strokes_ogs.tif
102
RTVSPost2010PropOp54
 70
     1
102
RTVSPost2010Prop55
280
     0
102
RTVSPost2010PropOp55
 70
     1
102
RTVSPost2010Prop56
140
1.0
102
RTVSPost2010PropOp56
 70
     1
102
RTVSPost2010Prop57
140
1.0
102
RTVSPost2010PropOp57
 70
     1
102
RTVSPropertyOp0
 70
     1
102
RTVSPropertyOp1
 70
     1
102
RTVSPropertyOp2
 70
     1
102
RTVSPropertyOp3
 70
     1
102
RTVSPropertyOp4
 70
     1
102
RTVSPropertyOp5
 70
     1
102
RTVSPropertyOp6
 70
     1
102
RTVSPropertyOp7
 70
     1
102
RTVSPropertyOp8
 70
     1
102
RTVSPropertyOp9
 70
     1
102
RTVSPropertyOp10
 70
     1
102
RTVSPropertyOp11
 70
     1
102
RTVSPropertyOp12
 70
     1
102
RTVSPropertyOp13
 70
     1
102
RTVSPropertyOp14
 70
     1
102
RTVSPropertyOp15
 70
     1
102
RTVSPropertyOp16
 70
     1
102
RTVSPropertyOp17
 70
     1
102
RTVSPropertyOp18
 70
     1
102
RTVSPropertyOp19
 70
     1
102
RTVSPropertyOp20
 70
     1
102
RTVSPropertyOp21
 70
     1
102
RTVSPropertyOp22
 70
     1
102
RTVSPropertyOp23
 70
     1
102
RTVSPropertyOp24
 70
     1
102
RTVSPropertyOp25
 70
     1
102
RTVSPropertyOp26
 70
     1
102
RTVSPropertyOp27
 70
     1
102
RTVSPropertyOp28
 70
     1
102
RTVSPropertyOp29
 70
     1
102
RTVSPropertyOp30
 70
     1
102
RTVSPropertyOp31
 70
     1
102
RTVSPropertyOp32
 70
     1
102
RTVSPropertyOp33
 70
     1
102
RTVSPropertyOp34
 70
     1
102
RTVSPropertyOp35
 70
     1
102
RTVSPropertyOp36
 70
     1
102
RTVSPropertyOp37
 70
     1
102
RTVSPropertyOp38
 70
     1
102
RTVSPropertyOp39
 70
     1
102
RTVSPropertyOp40
 70
     1
102
RTVSPropertyOp41
 70
     1
102
RTVSPropertyOp42
 70
     1
102
RTVSPropertyOp43
 70
     1
102
RTVSPropertyOp44
 70
     1
102
RTVSPropertyOp45
 70
     1
102
RTVSPropertyOp46
 70
     1
102
RTVSPropertyOp47
 70
     1
102
RTVSPropertyOp48
 70
     1
102
RTVSPropertyOp49
 70
     1
102
RTVSPropertyOp50
 70
     1
102
RTVSPropertyOp51
 70
     0
102
RTVSPropertyOp52
 70
     0
102
RTVSPropertyOp53
 70
     1
102
RTVSPropertyOp54
 70
     1
102
RTVSPropertyOp55
 70
     1
102
RTVSPropertyOp56
 70
     1
102
RTVSPropertyOp57
 70
     1
102
RTVSPropertyOp58
 70
     1
102
RTVSPropertyOp59
 70
     1
102
RTVSPropertyOp60
 70
     1
102
RTVSPropertyOp61
 70
     1
102
RTVSPropertyOp62
 70
     1
  0
XRECORD
  5
276
102
{ACAD_REACTORS
330
275
102
}
330
275
100
AcDbXrecord
280
     1
102
RTVSPost2010Prop28
280
     0
102
RTVSPost2010PropOp28
 70
     1
102
RTVSPost2010Prop29
280
     1
102
RTVSPost2010PropOp29
 70
     1
102
RTVSPost2010Prop30
280
     1
102
RTVSPost2010PropOp30
 70
     1
102
RTVSPost2010Prop31
280
     0
102
RTVSPost2010PropOp31
 70
     1
102
RTVSPost2010Prop32
280
     0
102
RTVSPost2010PropOp32
 70
     1
102
RTVSPost2010Prop33
280
     0
102
RTVSPost2010PropOp33
 70
     1
102
RTVSPost2010Prop34
280
     0
102
RTVSPost2010PropOp34
 70
     1
102
RTVSPost2010Prop35
280
     0
102
RTVSPost2010PropOp35
 70
     1
102
RTVSPost2010Prop36
280
     0
102
RTVSPost2010PropOp36
 70
     1
102
RTVSPost2010Prop37
 90
       50
102
RTVSPost2010PropOp37
 70
     1
102
RTVSPost2010Prop38
140
0.0
102
RTVSPost2010PropOp38
 70
     1
102
RTVSPost2010Prop39
140
1.0
102
RTVSPost2010PropOp39
 70
     1
102
RTVSPost2010Prop40
 90
        0
102
RTVSPost2010PropOp40
 70
     1
102
RTVSPost2010Prop41ColorIndex
 90
       18
102
RTVSPost2010Prop41ColorRGB
 90
-16777216
102
RTVSPost2010PropOp41
 70
     1
102
RTVSPost2010Prop42
 90
       50
102
RTVSPost2010PropOp42
 70
     1
102
RTVSPost2010Prop43
 90
        3
102
RTVSPost2010PropOp43
 70
     1
102
RTVSPost2010Prop44ColorIndex
 90
        5
102
RTVSPost2010Prop44ColorRGB
 90
      255
102
RTVSPost2010PropOp44
 70
     1
102
RTVSPost2010Prop45
280
     0
102
RTVSPost2010PropOp45
 70
     1
102
RTVSPost2010Prop46
 90
       50
102
RTVSPost2010PropOp46
 70
     1
102
RTVSPost2010Prop47
 90
       50
102
RTVSPost2010PropOp47
 70
     1
102
RTVSPost2010Prop48
 90
       50
102
RTVSPost2010PropOp48
 70
     1
102
RTVSPost2010Prop49
280
     0
102
RTVSPost2010PropOp49
 70
     1
102
RTVSPost2010Prop50
 90
       50
102
RTVSPost2010PropOp50
 70
     1
102
RTVSPost2010Prop51ColorIndex
 90
      256
102
RTVSPost2010Prop51ColorRGB
 90
-16777216
102
RTVSPost2010PropOp51
 70
     0
102
RTVSPost2010Prop52
140
1.0
102
RTVSPost2010PropOp52
 70
     0
102
RTVSPost2010Prop53
 90
        2
102
RTVSPost2010PropOp53
 70
     1
102
RTVSPost2010Prop54
  1
strokes_ogs.tif
102
RTVSPost2010PropOp54
 70
     1
102
RTVSPost2010Prop55
280
     0
102
RTVSPost2010PropOp55
 70
     1
102
RTVSPost2010Prop56
140
1.0
102
RTVSPost2010PropOp56
 70
     1
102
RTVSPost2010Prop57
140
1.0
102
RTVSPost2010PropOp57
 70
     1
102
RTVSPropertyOp0
 70
     0
102
RTVSPropertyOp1
 70
     0
102
RTVSPropertyOp2
 70
     0
102
RTVSPropertyOp3
 70
     0
102
RTVSPropertyOp4
 70
     0
102
RTVSPropertyOp5
 70
     0
102
RTVSPropertyOp6
 70
     0
102
RTVSPropertyOp7
 70
     0
102
RTVSPropertyOp8
 70
     0
102
RTVSPropertyOp9
 70
     0
102
RTVSPropertyOp10
 70
     0
102
RTVSPropertyOp11
 70
     0
102
RTVSPropertyOp12
 70
     0
102
RTVSPropertyOp13
 70
     0
102
RTVSPropertyOp14
 70
     2
102
RTVSPropertyOp15
 70
     0
102
RTVSPropertyOp16
 70
     0
102
RTVSPropertyOp17
 70
     0
102
RTVSPropertyOp18
 70
     0
102
RTVSPropertyOp19
 70
     0
102
RTVSPropertyOp20
 70
     0
102
RTVSPropertyOp21
 70
     0
102
RTVSPropertyOp22
 70
     0
102
RTVSPropertyOp23
 70
     0
102
RTVSPropertyOp24
 70
     0
102
RTVSPropertyOp25
 70
     0
102
RTVSPropertyOp26
 70
     0
102
RTVSPropertyOp27
 70
     0
102
RTVSPropertyOp28
 70
     1
102
RTVSPropertyOp29
 70
     1
102
RTVSPropertyOp30
 70
     1
102
RTVSPropertyOp31
 70
     1
102
RTVSPropertyOp32
 70
     1
102
RTVSPropertyOp33
 70
     1
102
RTVSPropertyOp34
 70
     1
102
RTVSPropertyOp35
 70
     1
102
RTVSPropertyOp36
 70
     1
102
RTVSPropertyOp37
 70
     1
102
RTVSPropertyOp38
 70
     1
102
RTVSPropertyOp39
 70
     1
102
RTVSPropertyOp40
 70
     1
102
RTVSPropertyOp41
 70
     1
102
RTVSPropertyOp42
 70
     1
102
RTVSPropertyOp43
 70
     1
102
RTVSPropertyOp44
 70
     1
102
RTVSPropertyOp45
 70
     1
102
RTVSPropertyOp46
 70
     1
102
RTVSPropertyOp47
 70
     1
102
RTVSPropertyOp48
 70
     1
102
RTVSPropertyOp49
 70
     1
102
RTVSPropertyOp50
 70
     1
102
RTVSPropertyOp51
 70
     0
102
RTVSPropertyOp52
 70
     0
102
RTVSPropertyOp53
 70
     1
102
RTVSPropertyOp54
 70
     1
102
RTVSPropertyOp55
 70
     1
102
RTVSPropertyOp56
 70
     1
102
RTVSPropertyOp57
 70
     1
102
RTVSPropertyOp58
 70
     1
102
RTVSPropertyOp59
 70
     1
102
RTVSPropertyOp60
 70
     1
102
RTVSPropertyOp61
 70
     1
102
RTVSPropertyOp62
 70
     1
  0
XRECORD
  5
291
102
{ACAD_REACTORS
330
290
102
}
330
290
100
AcDbXrecord
280
     1
102
RTVSPost2010Prop28
280
     0
102
RTVSPost2010PropOp28
 70
     1
102
RTVSPost2010Prop29
280
     1
102
RTVSPost2010PropOp29
 70
     1
102
RTVSPost2010Prop30
280
     1
102
RTVSPost2010PropOp30
 70
     1
102
RTVSPost2010Prop31
280
     0
102
RTVSPost2010PropOp31
 70
     1
102
RTVSPost2010Prop32
280
     0
102
RTVSPost2010PropOp32
 70
     1
102
RTVSPost2010Prop33
280
     0
102
RTVSPost2010PropOp33
 70
     1
102
RTVSPost2010Prop34
280
     0
102
RTVSPost2010PropOp34
 70
     1
102
RTVSPost2010Prop35
280
     0
102
RTVSPost2010PropOp35
 70
     1
102
RTVSPost2010Prop36
280
     0
102
RTVSPost2010PropOp36
 70
     1
102
RTVSPost2010Prop37
 90
       50
102
RTVSPost2010PropOp37
 70
     1
102
RTVSPost2010Prop38
140
0.0
102
RTVSPost2010PropOp38
 70
     1
102
RTVSPost2010Prop39
140
1.0
102
RTVSPost2010PropOp39
 70
     1
102
RTVSPost2010Prop40
 90
        0
102
RTVSPost2010PropOp40
 70
     1
102
RTVSPost2010Prop41ColorIndex
 90
       18
102
RTVSPost2010Prop41ColorRGB
 90
        0
102
RTVSPost2010PropOp41
 70
     1
102
RTVSPost2010Prop42
 90
       50
102
RTVSPost2010PropOp42
 70
     1
102
RTVSPost2010Prop43
 90
        3
102
RTVSPost2010PropOp43
 70
     1
102
RTVSPost2010Prop44ColorIndex
 90
        5
102
RTVSPost2010Prop44ColorRGB
 90
      255
102
RTVSPost2010PropOp44
 70
     1
102
RTVSPost2010Prop45
280
     0
102
RTVSPost2010PropOp45
 70
     1
102
RTVSPost2010Prop46
 90
       50
102
RTVSPost2010PropOp46
 70
     1
102
RTVSPost2010Prop47
 90
       50
102
RTVSPost2010PropOp47
 70
     1
102
RTVSPost2010Prop48
 90
       50
102
RTVSPost2010PropOp48
 70
     1
102
RTVSPost2010Prop49
280
     0
102
RTVSPost2010PropOp49
 70
     1
102
RTVSPost2010Prop50
 90
       50
102
RTVSPost2010PropOp50
 70
     1
102
RTVSPost2010Prop51ColorIndex
 90
      256
102
RTVSPost2010Prop51ColorRGB
 90
-16777216
102
RTVSPost2010PropOp51
 70
     0
102
RTVSPost2010Prop52
140
1.0
102
RTVSPost2010PropOp52
 70
     0
102
RTVSPost2010Prop53
 90
        2
102
RTVSPost2010PropOp53
 70
     1
102
RTVSPost2010Prop54
  1
strokes_ogs.tif
102
RTVSPost2010PropOp54
 70
     1
102
RTVSPost2010Prop55
280
     0
102
RTVSPost2010PropOp55
 70
     1
102
RTVSPost2010Prop56
140
1.0
102
RTVSPost2010PropOp56
 70
     1
102
RTVSPost2010Prop57
140
1.0
102
RTVSPost2010PropOp57
 70
     1
102
RTVSPropertyOp0
 70
     1
102
RTVSPropertyOp1
 70
     1
102
RTVSPropertyOp2
 70
     1
102
RTVSPropertyOp3
 70
     1
102
RTVSPropertyOp4
 70
     1
102
RTVSPropertyOp5
 70
     1
102
RTVSPropertyOp6
 70
     1
102
RTVSPropertyOp7
 70
     1
102
RTVSPropertyOp8
 70
     1
102
RTVSPropertyOp9
 70
     1
102
RTVSPropertyOp10
 70
     1
102
RTVSPropertyOp11
 70
     1
102
RTVSPropertyOp12
 70
     1
102
RTVSPropertyOp13
 70
     1
102
RTVSPropertyOp14
 70
     1
102
RTVSPropertyOp15
 70
     1
102
RTVSPropertyOp16
 70
     1
102
RTVSPropertyOp17
 70
     1
102
RTVSPropertyOp18
 70
     1
102
RTVSPropertyOp19
 70
     1
102
RTVSPropertyOp20
 70
     1
102
RTVSPropertyOp21
 70
     1
102
RTVSPropertyOp22
 70
     1
102
RTVSPropertyOp23
 70
     1
102
RTVSPropertyOp24
 70
     1
102
RTVSPropertyOp25
 70
     1
102
RTVSPropertyOp26
 70
     1
102
RTVSPropertyOp27
 70
     1
102
RTVSPropertyOp28
 70
     1
102
RTVSPropertyOp29
 70
     1
102
RTVSPropertyOp30
 70
     1
102
RTVSPropertyOp31
 70
     1
102
RTVSPropertyOp32
 70
     1
102
RTVSPropertyOp33
 70
     1
102
RTVSPropertyOp34
 70
     1
102
RTVSPropertyOp35
 70
     1
102
RTVSPropertyOp36
 70
     1
102
RTVSPropertyOp37
 70
     1
102
RTVSPropertyOp38
 70
     1
102
RTVSPropertyOp39
 70
     1
102
RTVSPropertyOp40
 70
     1
102
RTVSPropertyOp41
 70
     1
102
RTVSPropertyOp42
 70
     1
102
RTVSPropertyOp43
 70
     1
102
RTVSPropertyOp44
 70
     1
102
RTVSPropertyOp45
 70
     1
102
RTVSPropertyOp46
 70
     1
102
RTVSPropertyOp47
 70
     1
102
RTVSPropertyOp48
 70
     1
102
RTVSPropertyOp49
 70
     1
102
RTVSPropertyOp50
 70
     1
102
RTVSPropertyOp51
 70
     0
102
RTVSPropertyOp52
 70
     0
102
RTVSPropertyOp53
 70
     1
102
RTVSPropertyOp54
 70
     1
102
RTVSPropertyOp55
 70
     1
102
RTVSPropertyOp56
 70
     1
102
RTVSPropertyOp57
 70
     1
102
RTVSPropertyOp58
 70
     1
102
RTVSPropertyOp59
 70
     1
102
RTVSPropertyOp60
 70
     1
102
RTVSPropertyOp61
 70
     1
102
RTVSPropertyOp62
 70
     1
  0
XRECORD
  5
279
102
{ACAD_REACTORS
330
278
102
}
330
278
100
AcDbXrecord
280
     1
102
RTVSPost2010Prop28
280
     0
102
RTVSPost2010PropOp28
 70
     1
102
RTVSPost2010Prop29
280
     1
102
RTVSPost2010PropOp29
 70
     1
102
RTVSPost2010Prop30
280
     1
102
RTVSPost2010PropOp30
 70
     1
102
RTVSPost2010Prop31
280
     0
102
RTVSPost2010PropOp31
 70
     1
102
RTVSPost2010Prop32
280
     0
102
RTVSPost2010PropOp32
 70
     1
102
RTVSPost2010Prop33
280
     0
102
RTVSPost2010PropOp33
 70
     1
102
RTVSPost2010Prop34
280
     0
102
RTVSPost2010PropOp34
 70
     1
102
RTVSPost2010Prop35
280
     0
102
RTVSPost2010PropOp35
 70
     1
102
RTVSPost2010Prop36
280
     0
102
RTVSPost2010PropOp36
 70
     1
102
RTVSPost2010Prop37
 90
       50
102
RTVSPost2010PropOp37
 70
     1
102
RTVSPost2010Prop38
140
0.0
102
RTVSPost2010PropOp38
 70
     1
102
RTVSPost2010Prop39
140
1.0
102
RTVSPost2010PropOp39
 70
     1
102
RTVSPost2010Prop40
 90
        0
102
RTVSPost2010PropOp40
 70
     1
102
RTVSPost2010Prop41ColorIndex
 90
       18
102
RTVSPost2010Prop41ColorRGB
 90
        0
102
RTVSPost2010PropOp41
 70
     1
102
RTVSPost2010Prop42
 90
       50
102
RTVSPost2010PropOp42
 70
     1
102
RTVSPost2010Prop43
 90
        3
102
RTVSPost2010PropOp43
 70
     1
102
RTVSPost2010Prop44ColorIndex
 90
        5
102
RTVSPost2010Prop44ColorRGB
 90
      255
102
RTVSPost2010PropOp44
 70
     1
102
RTVSPost2010Prop45
280
     0
102
RTVSPost2010PropOp45
 70
     1
102
RTVSPost2010Prop46
 90
       50
102
RTVSPost2010PropOp46
 70
     1
102
RTVSPost2010Prop47
 90
       50
102
RTVSPost2010PropOp47
 70
     1
102
RTVSPost2010Prop48
 90
       50
102
RTVSPost2010PropOp48
 70
     1
102
RTVSPost2010Prop49
280
     0
102
RTVSPost2010PropOp49
 70
     1
102
RTVSPost2010Prop50
 90
       50
102
RTVSPost2010PropOp50
 70
     1
102
RTVSPost2010Prop51ColorIndex
 90
      256
102
RTVSPost2010Prop51ColorRGB
 90
-16777216
102
RTVSPost2010PropOp51
 70
     0
102
RTVSPost2010Prop52
140
1.0
102
RTVSPost2010PropOp52
 70
     0
102
RTVSPost2010Prop53
 90
        2
102
RTVSPost2010PropOp53
 70
     1
102
RTVSPost2010Prop54
  1
strokes_ogs.tif
102
RTVSPost2010PropOp54
 70
     1
102
RTVSPost2010Prop55
280
     0
102
RTVSPost2010PropOp55
 70
     1
102
RTVSPost2010Prop56
140
1.0
102
RTVSPost2010PropOp56
 70
     1
102
RTVSPost2010Prop57
140
1.0
102
RTVSPost2010PropOp57
 70
     1
102
RTVSPropertyOp0
 70
     1
102
RTVSPropertyOp1
 70
     1
102
RTVSPropertyOp2
 70
     1
102
RTVSPropertyOp3
 70
     1
102
RTVSPropertyOp4
 70
     1
102
RTVSPropertyOp5
 70
     1
102
RTVSPropertyOp6
 70
     1
102
RTVSPropertyOp7
 70
     1
102
RTVSPropertyOp8
 70
     1
102
RTVSPropertyOp9
 70
     1
102
RTVSPropertyOp10
 70
     1
102
RTVSPropertyOp11
 70
     1
102
RTVSPropertyOp12
 70
     1
102
RTVSPropertyOp13
 70
     1
102
RTVSPropertyOp14
 70
     1
102
RTVSPropertyOp15
 70
     1
102
RTVSPropertyOp16
 70
     1
102
RTVSPropertyOp17
 70
     1
102
RTVSPropertyOp18
 70
     1
102
RTVSPropertyOp19
 70
     1
102
RTVSPropertyOp20
 70
     1
102
RTVSPropertyOp21
 70
     1
102
RTVSPropertyOp22
 70
     1
102
RTVSPropertyOp23
 70
     1
102
RTVSPropertyOp24
 70
     1
102
RTVSPropertyOp25
 70
     1
102
RTVSPropertyOp26
 70
     1
102
RTVSPropertyOp27
 70
     1
102
RTVSPropertyOp28
 70
     1
102
RTVSPropertyOp29
 70
     1
102
RTVSPropertyOp30
 70
     1
102
RTVSPropertyOp31
 70
     1
102
RTVSPropertyOp32
 70
     1
102
RTVSPropertyOp33
 70
     1
102
RTVSPropertyOp34
 70
     1
102
RTVSPropertyOp35
 70
     1
102
RTVSPropertyOp36
 70
     1
102
RTVSPropertyOp37
 70
     1
102
RTVSPropertyOp38
 70
     1
102
RTVSPropertyOp39
 70
     1
102
RTVSPropertyOp40
 70
     1
102
RTVSPropertyOp41
 70
     1
102
RTVSPropertyOp42
 70
     1
102
RTVSPropertyOp43
 70
     1
102
RTVSPropertyOp44
 70
     1
102
RTVSPropertyOp45
 70
     1
102
RTVSPropertyOp46
 70
     1
102
RTVSPropertyOp47
 70
     1
102
RTVSPropertyOp48
 70
     1
102
RTVSPropertyOp49
 70
     1
102
RTVSPropertyOp50
 70
     1
102
RTVSPropertyOp51
 70
     0
102
RTVSPropertyOp52
 70
     0
102
RTVSPropertyOp53
 70
     1
102
RTVSPropertyOp54
 70
     1
102
RTVSPropertyOp55
 70
     1
102
RTVSPropertyOp56
 70
     1
102
RTVSPropertyOp57
 70
     1
102
RTVSPropertyOp58
 70
     1
102
RTVSPropertyOp59
 70
     1
102
RTVSPropertyOp60
 70
     1
102
RTVSPropertyOp61
 70
     1
102
RTVSPropertyOp62
 70
     1
  0
XRECORD
  5
27B
102
{ACAD_REACTORS
330
27A
102
}
330
27A
100
AcDbXrecord
280
     1
102
RTVSPost2010Prop28
280
     0
102
RTVSPost2010PropOp28
 70
     1
102
RTVSPost2010Prop29
280
     1
102
RTVSPost2010PropOp29
 70
     1
102
RTVSPost2010Prop30
280
     1
102
RTVSPost2010PropOp30
 70
     1
102
RTVSPost2010Prop31
280
     0
102
RTVSPost2010PropOp31
 70
     1
102
RTVSPost2010Prop32
280
     0
102
RTVSPost2010PropOp32
 70
     1
102
RTVSPost2010Prop33
280
     0
102
RTVSPost2010PropOp33
 70
     1
102
RTVSPost2010Prop34
280
     0
102
RTVSPost2010PropOp34
 70
     1
102
RTVSPost2010Prop35
280
     0
102
RTVSPost2010PropOp35
 70
     1
102
RTVSPost2010Prop36
280
     0
102
RTVSPost2010PropOp36
 70
     1
102
RTVSPost2010Prop37
 90
       50
102
RTVSPost2010PropOp37
 70
     1
102
RTVSPost2010Prop38
140
0.0
102
RTVSPost2010PropOp38
 70
     1
102
RTVSPost2010Prop39
140
1.0
102
RTVSPost2010PropOp39
 70
     1
102
RTVSPost2010Prop40
 90
        0
102
RTVSPost2010PropOp40
 70
     1
102
RTVSPost2010Prop41ColorIndex
 90
       18
102
RTVSPost2010Prop41ColorRGB
 90
        0
102
RTVSPost2010PropOp41
 70
     1
102
RTVSPost2010Prop42
 90
       50
102
RTVSPost2010PropOp42
 70
     1
102
RTVSPost2010Prop43
 90
        3
102
RTVSPost2010PropOp43
 70
     1
102
RTVSPost2010Prop44ColorIndex
 90
        5
102
RTVSPost2010Prop44ColorRGB
 90
      255
102
RTVSPost2010PropOp44
 70
     1
102
RTVSPost2010Prop45
280
     0
102
RTVSPost2010PropOp45
 70
     1
102
RTVSPost2010Prop46
 90
       50
102
RTVSPost2010PropOp46
 70
     1
102
RTVSPost2010Prop47
 90
       50
102
RTVSPost2010PropOp47
 70
     1
102
RTVSPost2010Prop48
 90
       50
102
RTVSPost2010PropOp48
 70
     1
102
RTVSPost2010Prop49
280
     0
102
RTVSPost2010PropOp49
 70
     1
102
RTVSPost2010Prop50
 90
       50
102
RTVSPost2010PropOp50
 70
     1
102
RTVSPost2010Prop51ColorIndex
 90
      256
102
RTVSPost2010Prop51ColorRGB
 90
-16777216
102
RTVSPost2010PropOp51
 70
     0
102
RTVSPost2010Prop52
140
1.0
102
RTVSPost2010PropOp52
 70
     0
102
RTVSPost2010Prop53
 90
        2
102
RTVSPost2010PropOp53
 70
     1
102
RTVSPost2010Prop54
  1
strokes_ogs.tif
102
RTVSPost2010PropOp54
 70
     1
102
RTVSPost2010Prop55
280
     0
102
RTVSPost2010PropOp55
 70
     1
102
RTVSPost2010Prop56
140
1.0
102
RTVSPost2010PropOp56
 70
     1
102
RTVSPost2010Prop57
140
1.0
102
RTVSPost2010PropOp57
 70
     1
102
RTVSPropertyOp0
 70
     1
102
RTVSPropertyOp1
 70
     1
102
RTVSPropertyOp2
 70
     1
102
RTVSPropertyOp3
 70
     1
102
RTVSPropertyOp4
 70
     1
102
RTVSPropertyOp5
 70
     1
102
RTVSPropertyOp6
 70
     1
102
RTVSPropertyOp7
 70
     1
102
RTVSPropertyOp8
 70
     1
102
RTVSPropertyOp9
 70
     1
102
RTVSPropertyOp10
 70
     1
102
RTVSPropertyOp11
 70
     1
102
RTVSPropertyOp12
 70
     1
102
RTVSPropertyOp13
 70
     1
102
RTVSPropertyOp14
 70
     1
102
RTVSPropertyOp15
 70
     1
102
RTVSPropertyOp16
 70
     1
102
RTVSPropertyOp17
 70
     1
102
RTVSPropertyOp18
 70
     1
102
RTVSPropertyOp19
 70
     1
102
RTVSPropertyOp20
 70
     1
102
RTVSPropertyOp21
 70
     1
102
RTVSPropertyOp22
 70
     1
102
RTVSPropertyOp23
 70
     1
102
RTVSPropertyOp24
 70
     1
102
RTVSPropertyOp25
 70
     1
102
RTVSPropertyOp26
 70
     1
102
RTVSPropertyOp27
 70
     1
102
RTVSPropertyOp28
 70
     1
102
RTVSPropertyOp29
 70
     1
102
RTVSPropertyOp30
 70
     1
102
RTVSPropertyOp31
 70
     1
102
RTVSPropertyOp32
 70
     1
102
RTVSPropertyOp33
 70
     1
102
RTVSPropertyOp34
 70
     1
102
RTVSPropertyOp35
 70
     1
102
RTVSPropertyOp36
 70
     1
102
RTVSPropertyOp37
 70
     1
102
RTVSPropertyOp38
 70
     1
102
RTVSPropertyOp39
 70
     1
102
RTVSPropertyOp40
 70
     1
102
RTVSPropertyOp41
 70
     1
102
RTVSPropertyOp42
 70
     1
102
RTVSPropertyOp43
 70
     1
102
RTVSPropertyOp44
 70
     1
102
RTVSPropertyOp45
 70
     1
102
RTVSPropertyOp46
 70
     1
102
RTVSPropertyOp47
 70
     1
102
RTVSPropertyOp48
 70
     1
102
RTVSPropertyOp49
 70
     1
102
RTVSPropertyOp50
 70
     1
102
RTVSPropertyOp51
 70
     0
102
RTVSPropertyOp52
 70
     0
102
RTVSPropertyOp53
 70
     1
102
RTVSPropertyOp54
 70
     1
102
RTVSPropertyOp55
 70
     1
102
RTVSPropertyOp56
 70
     1
102
RTVSPropertyOp57
 70
     1
102
RTVSPropertyOp58
 70
     1
102
RTVSPropertyOp59
 70
     1
102
RTVSPropertyOp60
 70
     1
102
RTVSPropertyOp61
 70
     1
102
RTVSPropertyOp62
 70
     1
  0
XRECORD
  5
27D
102
{ACAD_REACTORS
330
27C
102
}
330
27C
100
AcDbXrecord
280
     1
102
RTVSPost2010Prop28
280
     0
102
RTVSPost2010PropOp28
 70
     1
102
RTVSPost2010Prop29
280
     1
102
RTVSPost2010PropOp29
 70
     1
102
RTVSPost2010Prop30
280
     1
102
RTVSPost2010PropOp30
 70
     1
102
RTVSPost2010Prop31
280
     0
102
RTVSPost2010PropOp31
 70
     1
102
RTVSPost2010Prop32
280
     0
102
RTVSPost2010PropOp32
 70
     1
102
RTVSPost2010Prop33
280
     0
102
RTVSPost2010PropOp33
 70
     1
102
RTVSPost2010Prop34
280
     0
102
RTVSPost2010PropOp34
 70
     1
102
RTVSPost2010Prop35
280
     0
102
RTVSPost2010PropOp35
 70
     1
102
RTVSPost2010Prop36
280
     0
102
RTVSPost2010PropOp36
 70
     1
102
RTVSPost2010Prop37
 90
       50
102
RTVSPost2010PropOp37
 70
     1
102
RTVSPost2010Prop38
140
0.0
102
RTVSPost2010PropOp38
 70
     1
102
RTVSPost2010Prop39
140
1.0
102
RTVSPost2010PropOp39
 70
     1
102
RTVSPost2010Prop40
 90
        0
102
RTVSPost2010PropOp40
 70
     1
102
RTVSPost2010Prop41ColorIndex
 90
       18
102
RTVSPost2010Prop41ColorRGB
 90
        0
102
RTVSPost2010PropOp41
 70
     1
102
RTVSPost2010Prop42
 90
       50
102
RTVSPost2010PropOp42
 70
     1
102
RTVSPost2010Prop43
 90
        3
102
RTVSPost2010PropOp43
 70
     1
102
RTVSPost2010Prop44ColorIndex
 90
        5
102
RTVSPost2010Prop44ColorRGB
 90
      255
102
RTVSPost2010PropOp44
 70
     1
102
RTVSPost2010Prop45
280
     0
102
RTVSPost2010PropOp45
 70
     1
102
RTVSPost2010Prop46
 90
       50
102
RTVSPost2010PropOp46
 70
     1
102
RTVSPost2010Prop47
 90
       50
102
RTVSPost2010PropOp47
 70
     1
102
RTVSPost2010Prop48
 90
       50
102
RTVSPost2010PropOp48
 70
     1
102
RTVSPost2010Prop49
280
     0
102
RTVSPost2010PropOp49
 70
     1
102
RTVSPost2010Prop50
 90
       50
102
RTVSPost2010PropOp50
 70
     1
102
RTVSPost2010Prop51ColorIndex
 90
      256
102
RTVSPost2010Prop51ColorRGB
 90
-16777216
102
RTVSPost2010PropOp51
 70
     0
102
RTVSPost2010Prop52
140
1.0
102
RTVSPost2010PropOp52
 70
     0
102
RTVSPost2010Prop53
 90
        2
102
RTVSPost2010PropOp53
 70
     1
102
RTVSPost2010Prop54
  1
strokes_ogs.tif
102
RTVSPost2010PropOp54
 70
     1
102
RTVSPost2010Prop55
280
     0
102
RTVSPost2010PropOp55
 70
     1
102
RTVSPost2010Prop56
140
1.0
102
RTVSPost2010PropOp56
 70
     1
102
RTVSPost2010Prop57
140
1.0
102
RTVSPost2010PropOp57
 70
     1
102
RTVSPropertyOp0
 70
     1
102
RTVSPropertyOp1
 70
     1
102
RTVSPropertyOp2
 70
     1
102
RTVSPropertyOp3
 70
     1
102
RTVSPropertyOp4
 70
     1
102
RTVSPropertyOp5
 70
     1
102
RTVSPropertyOp6
 70
     1
102
RTVSPropertyOp7
 70
     1
102
RTVSPropertyOp8
 70
     1
102
RTVSPropertyOp9
 70
     1
102
RTVSPropertyOp10
 70
     1
102
RTVSPropertyOp11
 70
     1
102
RTVSPropertyOp12
 70
     1
102
RTVSPropertyOp13
 70
     1
102
RTVSPropertyOp14
 70
     1
102
RTVSPropertyOp15
 70
     1
102
RTVSPropertyOp16
 70
     1
102
RTVSPropertyOp17
 70
     1
102
RTVSPropertyOp18
 70
     1
102
RTVSPropertyOp19
 70
     1
102
RTVSPropertyOp20
 70
     1
102
RTVSPropertyOp21
 70
     1
102
RTVSPropertyOp22
 70
     1
102
RTVSPropertyOp23
 70
     1
102
RTVSPropertyOp24
 70
     1
102
RTVSPropertyOp25
 70
     1
102
RTVSPropertyOp26
 70
     1
102
RTVSPropertyOp27
 70
     1
102
RTVSPropertyOp28
 70
     1
102
RTVSPropertyOp29
 70
     1
102
RTVSPropertyOp30
 70
     1
102
RTVSPropertyOp31
 70
     1
102
RTVSPropertyOp32
 70
     1
102
RTVSPropertyOp33
 70
     1
102
RTVSPropertyOp34
 70
     1
102
RTVSPropertyOp35
 70
     1
102
RTVSPropertyOp36
 70
     1
102
RTVSPropertyOp37
 70
     1
102
RTVSPropertyOp38
 70
     1
102
RTVSPropertyOp39
 70
     1
102
RTVSPropertyOp40
 70
     1
102
RTVSPropertyOp41
 70
     1
102
RTVSPropertyOp42
 70
     1
102
RTVSPropertyOp43
 70
     1
102
RTVSPropertyOp44
 70
     1
102
RTVSPropertyOp45
 70
     1
102
RTVSPropertyOp46
 70
     1
102
RTVSPropertyOp47
 70
     1
102
RTVSPropertyOp48
 70
     1
102
RTVSPropertyOp49
 70
     1
102
RTVSPropertyOp50
 70
     1
102
RTVSPropertyOp51
 70
     0
102
RTVSPropertyOp52
 70
     0
102
RTVSPropertyOp53
 70
     1
102
RTVSPropertyOp54
 70
     1
102
RTVSPropertyOp55
 70
     1
102
RTVSPropertyOp56
 70
     1
102
RTVSPropertyOp57
 70
     1
102
RTVSPropertyOp58
 70
     1
102
RTVSPropertyOp59
 70
     1
102
RTVSPropertyOp60
 70
     1
102
RTVSPropertyOp61
 70
     1
102
RTVSPropertyOp62
 70
     1
  0
XRECORD
  5
27F
102
{ACAD_REACTORS
330
27E
102
}
330
27E
100
AcDbXrecord
280
     1
102
RTVSPost2010Prop28
280
     0
102
RTVSPost2010PropOp28
 70
     1
102
RTVSPost2010Prop29
280
     1
102
RTVSPost2010PropOp29
 70
     1
102
RTVSPost2010Prop30
280
     1
102
RTVSPost2010PropOp30
 70
     1
102
RTVSPost2010Prop31
280
     0
102
RTVSPost2010PropOp31
 70
     1
102
RTVSPost2010Prop32
280
     0
102
RTVSPost2010PropOp32
 70
     1
102
RTVSPost2010Prop33
280
     0
102
RTVSPost2010PropOp33
 70
     1
102
RTVSPost2010Prop34
280
     0
102
RTVSPost2010PropOp34
 70
     1
102
RTVSPost2010Prop35
280
     0
102
RTVSPost2010PropOp35
 70
     1
102
RTVSPost2010Prop36
280
     0
102
RTVSPost2010PropOp36
 70
     1
102
RTVSPost2010Prop37
 90
       50
102
RTVSPost2010PropOp37
 70
     1
102
RTVSPost2010Prop38
140
0.0
102
RTVSPost2010PropOp38
 70
     1
102
RTVSPost2010Prop39
140
1.0
102
RTVSPost2010PropOp39
 70
     1
102
RTVSPost2010Prop40
 90
        0
102
RTVSPost2010PropOp40
 70
     1
102
RTVSPost2010Prop41ColorIndex
 90
       18
102
RTVSPost2010Prop41ColorRGB
 90
        0
102
RTVSPost2010PropOp41
 70
     1
102
RTVSPost2010Prop42
 90
       50
102
RTVSPost2010PropOp42
 70
     1
102
RTVSPost2010Prop43
 90
        3
102
RTVSPost2010PropOp43
 70
     1
102
RTVSPost2010Prop44ColorIndex
 90
        5
102
RTVSPost2010Prop44ColorRGB
 90
      255
102
RTVSPost2010PropOp44
 70
     1
102
RTVSPost2010Prop45
280
     0
102
RTVSPost2010PropOp45
 70
     1
102
RTVSPost2010Prop46
 90
       50
102
RTVSPost2010PropOp46
 70
     1
102
RTVSPost2010Prop47
 90
       50
102
RTVSPost2010PropOp47
 70
     1
102
RTVSPost2010Prop48
 90
       50
102
RTVSPost2010PropOp48
 70
     1
102
RTVSPost2010Prop49
280
     0
102
RTVSPost2010PropOp49
 70
     1
102
RTVSPost2010Prop50
 90
       50
102
RTVSPost2010PropOp50
 70
     1
102
RTVSPost2010Prop51ColorIndex
 90
      256
102
RTVSPost2010Prop51ColorRGB
 90
-16777216
102
RTVSPost2010PropOp51
 70
     0
102
RTVSPost2010Prop52
140
1.0
102
RTVSPost2010PropOp52
 70
     0
102
RTVSPost2010Prop53
 90
        2
102
RTVSPost2010PropOp53
 70
     1
102
RTVSPost2010Prop54
  1
strokes_ogs.tif
102
RTVSPost2010PropOp54
 70
     1
102
RTVSPost2010Prop55
280
     0
102
RTVSPost2010PropOp55
 70
     1
102
RTVSPost2010Prop56
140
1.0
102
RTVSPost2010PropOp56
 70
     1
102
RTVSPost2010Prop57
140
1.0
102
RTVSPost2010PropOp57
 70
     1
102
RTVSPropertyOp0
 70
     1
102
RTVSPropertyOp1
 70
     1
102
RTVSPropertyOp2
 70
     1
102
RTVSPropertyOp3
 70
     1
102
RTVSPropertyOp4
 70
     1
102
RTVSPropertyOp5
 70
     1
102
RTVSPropertyOp6
 70
     1
102
RTVSPropertyOp7
 70
     1
102
RTVSPropertyOp8
 70
     1
102
RTVSPropertyOp9
 70
     1
102
RTVSPropertyOp10
 70
     1
102
RTVSPropertyOp11
 70
     1
102
RTVSPropertyOp12
 70
     1
102
RTVSPropertyOp13
 70
     1
102
RTVSPropertyOp14
 70
     1
102
RTVSPropertyOp15
 70
     1
102
RTVSPropertyOp16
 70
     1
102
RTVSPropertyOp17
 70
     1
102
RTVSPropertyOp18
 70
     1
102
RTVSPropertyOp19
 70
     1
102
RTVSPropertyOp20
 70
     1
102
RTVSPropertyOp21
 70
     1
102
RTVSPropertyOp22
 70
     1
102
RTVSPropertyOp23
 70
     1
102
RTVSPropertyOp24
 70
     1
102
RTVSPropertyOp25
 70
     1
102
RTVSPropertyOp26
 70
     1
102
RTVSPropertyOp27
 70
     1
102
RTVSPropertyOp28
 70
     1
102
RTVSPropertyOp29
 70
     1
102
RTVSPropertyOp30
 70
     1
102
RTVSPropertyOp31
 70
     1
102
RTVSPropertyOp32
 70
     1
102
RTVSPropertyOp33
 70
     1
102
RTVSPropertyOp34
 70
     1
102
RTVSPropertyOp35
 70
     1
102
RTVSPropertyOp36
 70
     1
102
RTVSPropertyOp37
 70
     1
102
RTVSPropertyOp38
 70
     1
102
RTVSPropertyOp39
 70
     1
102
RTVSPropertyOp40
 70
     1
102
RTVSPropertyOp41
 70
     1
102
RTVSPropertyOp42
 70
     1
102
RTVSPropertyOp43
 70
     1
102
RTVSPropertyOp44
 70
     1
102
RTVSPropertyOp45
 70
     1
102
RTVSPropertyOp46
 70
     1
102
RTVSPropertyOp47
 70
     1
102
RTVSPropertyOp48
 70
     1
102
RTVSPropertyOp49
 70
     1
102
RTVSPropertyOp50
 70
     1
102
RTVSPropertyOp51
 70
     0
102
RTVSPropertyOp52
 70
     0
102
RTVSPropertyOp53
 70
     1
102
RTVSPropertyOp54
 70
     1
102
RTVSPropertyOp55
 70
     1
102
RTVSPropertyOp56
 70
     1
102
RTVSPropertyOp57
 70
     1
102
RTVSPropertyOp58
 70
     1
102
RTVSPropertyOp59
 70
     1
102
RTVSPropertyOp60
 70
     1
102
RTVSPropertyOp61
 70
     1
102
RTVSPropertyOp62
 70
     1
  0
XRECORD
  5
285
102
{ACAD_REACTORS
330
284
102
}
330
284
100
AcDbXrecord
280
     1
102
RTVSPost2010Prop28
280
     0
102
RTVSPost2010PropOp28
 70
     1
102
RTVSPost2010Prop29
280
     1
102
RTVSPost2010PropOp29
 70
     1
102
RTVSPost2010Prop30
280
     1
102
RTVSPost2010PropOp30
 70
     1
102
RTVSPost2010Prop31
280
     0
102
RTVSPost2010PropOp31
 70
     1
102
RTVSPost2010Prop32
280
     0
102
RTVSPost2010PropOp32
 70
     1
102
RTVSPost2010Prop33
280
     0
102
RTVSPost2010PropOp33
 70
     1
102
RTVSPost2010Prop34
280
     0
102
RTVSPost2010PropOp34
 70
     1
102
RTVSPost2010Prop35
280
     0
102
RTVSPost2010PropOp35
 70
     1
102
RTVSPost2010Prop36
280
     0
102
RTVSPost2010PropOp36
 70
     1
102
RTVSPost2010Prop37
 90
       50
102
RTVSPost2010PropOp37
 70
     1
102
RTVSPost2010Prop38
140
0.0
102
RTVSPost2010PropOp38
 70
     1
102
RTVSPost2010Prop39
140
1.0
102
RTVSPost2010PropOp39
 70
     1
102
RTVSPost2010Prop40
 90
        0
102
RTVSPost2010PropOp40
 70
     1
102
RTVSPost2010Prop41ColorIndex
 90
       18
102
RTVSPost2010Prop41ColorRGB
 90
        0
102
RTVSPost2010PropOp41
 70
     1
102
RTVSPost2010Prop42
 90
       50
102
RTVSPost2010PropOp42
 70
     1
102
RTVSPost2010Prop43
 90
        3
102
RTVSPost2010PropOp43
 70
     1
102
RTVSPost2010Prop44ColorIndex
 90
        5
102
RTVSPost2010Prop44ColorRGB
 90
      255
102
RTVSPost2010PropOp44
 70
     1
102
RTVSPost2010Prop45
280
     0
102
RTVSPost2010PropOp45
 70
     1
102
RTVSPost2010Prop46
 90
       50
102
RTVSPost2010PropOp46
 70
     1
102
RTVSPost2010Prop47
 90
       50
102
RTVSPost2010PropOp47
 70
     1
102
RTVSPost2010Prop48
 90
       50
102
RTVSPost2010PropOp48
 70
     1
102
RTVSPost2010Prop49
280
     0
102
RTVSPost2010PropOp49
 70
     1
102
RTVSPost2010Prop50
 90
       50
102
RTVSPost2010PropOp50
 70
     1
102
RTVSPost2010Prop51ColorIndex
 90
      256
102
RTVSPost2010Prop51ColorRGB
 90
-16777216
102
RTVSPost2010PropOp51
 70
     0
102
RTVSPost2010Prop52
140
1.0
102
RTVSPost2010PropOp52
 70
     0
102
RTVSPost2010Prop53
 90
        2
102
RTVSPost2010PropOp53
 70
     1
102
RTVSPost2010Prop54
  1
strokes_ogs.tif
102
RTVSPost2010PropOp54
 70
     1
102
RTVSPost2010Prop55
280
     0
102
RTVSPost2010PropOp55
 70
     1
102
RTVSPost2010Prop56
140
1.0
102
RTVSPost2010PropOp56
 70
     1
102
RTVSPost2010Prop57
140
1.0
102
RTVSPost2010PropOp57
 70
     1
102
RTVSPropertyOp0
 70
     1
102
RTVSPropertyOp1
 70
     1
102
RTVSPropertyOp2
 70
     1
102
RTVSPropertyOp3
 70
     1
102
RTVSPropertyOp4
 70
     1
102
RTVSPropertyOp5
 70
     1
102
RTVSPropertyOp6
 70
     1
102
RTVSPropertyOp7
 70
     1
102
RTVSPropertyOp8
 70
     1
102
RTVSPropertyOp9
 70
     1
102
RTVSPropertyOp10
 70
     1
102
RTVSPropertyOp11
 70
     1
102
RTVSPropertyOp12
 70
     1
102
RTVSPropertyOp13
 70
     1
102
RTVSPropertyOp14
 70
     1
102
RTVSPropertyOp15
 70
     1
102
RTVSPropertyOp16
 70
     1
102
RTVSPropertyOp17
 70
     1
102
RTVSPropertyOp18
 70
     1
102
RTVSPropertyOp19
 70
     1
102
RTVSPropertyOp20
 70
     1
102
RTVSPropertyOp21
 70
     1
102
RTVSPropertyOp22
 70
     1
102
RTVSPropertyOp23
 70
     1
102
RTVSPropertyOp24
 70
     1
102
RTVSPropertyOp25
 70
     1
102
RTVSPropertyOp26
 70
     1
102
RTVSPropertyOp27
 70
     1
102
RTVSPropertyOp28
 70
     1
102
RTVSPropertyOp29
 70
     1
102
RTVSPropertyOp30
 70
     1
102
RTVSPropertyOp31
 70
     1
102
RTVSPropertyOp32
 70
     1
102
RTVSPropertyOp33
 70
     1
102
RTVSPropertyOp34
 70
     1
102
RTVSPropertyOp35
 70
     1
102
RTVSPropertyOp36
 70
     1
102
RTVSPropertyOp37
 70
     1
102
RTVSPropertyOp38
 70
     1
102
RTVSPropertyOp39
 70
     1
102
RTVSPropertyOp40
 70
     1
102
RTVSPropertyOp41
 70
     1
102
RTVSPropertyOp42
 70
     1
102
RTVSPropertyOp43
 70
     1
102
RTVSPropertyOp44
 70
     1
102
RTVSPropertyOp45
 70
     1
102
RTVSPropertyOp46
 70
     1
102
RTVSPropertyOp47
 70
     1
102
RTVSPropertyOp48
 70
     1
102
RTVSPropertyOp49
 70
     1
102
RTVSPropertyOp50
 70
     1
102
RTVSPropertyOp51
 70
     0
102
RTVSPropertyOp52
 70
     0
102
RTVSPropertyOp53
 70
     1
102
RTVSPropertyOp54
 70
     1
102
RTVSPropertyOp55
 70
     1
102
RTVSPropertyOp56
 70
     1
102
RTVSPropertyOp57
 70
     1
102
RTVSPropertyOp58
 70
     1
102
RTVSPropertyOp59
 70
     1
102
RTVSPropertyOp60
 70
     1
102
RTVSPropertyOp61
 70
     1
102
RTVSPropertyOp62
 70
     1
  0
XRECORD
  5
29F
102
{ACAD_REACTORS
330
29E
102
}
330
29E
100
AcDbXrecord
280
     1
102
RTVSPost2010Prop28
280
     0
102
RTVSPost2010PropOp28
 70
     0
102
RTVSPost2010Prop29
280
     1
102
RTVSPost2010PropOp29
 70
     0
102
RTVSPost2010Prop30
280
     1
102
RTVSPost2010PropOp30
 70
     0
102
RTVSPost2010Prop31
280
     0
102
RTVSPost2010PropOp31
 70
     0
102
RTVSPost2010Prop32
280
     0
102
RTVSPost2010PropOp32
 70
     0
102
RTVSPost2010Prop33
280
     0
102
RTVSPost2010PropOp33
 70
     0
102
RTVSPost2010Prop34
280
     0
102
RTVSPost2010PropOp34
 70
     0
102
RTVSPost2010Prop35
280
     0
102
RTVSPost2010PropOp35
 70
     0
102
RTVSPost2010Prop36
280
     0
102
RTVSPost2010PropOp36
 70
     0
102
RTVSPost2010Prop37
 90
       50
102
RTVSPost2010PropOp37
 70
     0
102
RTVSPost2010Prop38
140
0.0
102
RTVSPost2010PropOp38
 70
     0
102
RTVSPost2010Prop39
140
1.0
102
RTVSPost2010PropOp39
 70
     0
102
RTVSPost2010Prop40
 90
        0
102
RTVSPost2010PropOp40
 70
     0
102
RTVSPost2010Prop41ColorIndex
 90
       18
102
RTVSPost2010Prop41ColorRGB
 90
        0
102
RTVSPost2010PropOp41
 70
     0
102
RTVSPost2010Prop42
 90
       50
102
RTVSPost2010PropOp42
 70
     0
102
RTVSPost2010Prop43
 90
        3
102
RTVSPost2010PropOp43
 70
     0
102
RTVSPost2010Prop44ColorIndex
 90
        5
102
RTVSPost2010Prop44ColorRGB
 90
      255
102
RTVSPost2010PropOp44
 70
     0
102
RTVSPost2010Prop45
280
     0
102
RTVSPost2010PropOp45
 70
     0
102
RTVSPost2010Prop46
 90
       50
102
RTVSPost2010PropOp46
 70
     0
102
RTVSPost2010Prop47
 90
       50
102
RTVSPost2010PropOp47
 70
     0
102
RTVSPost2010Prop48
 90
       50
102
RTVSPost2010PropOp48
 70
     0
102
RTVSPost2010Prop49
280
     0
102
RTVSPost2010PropOp49
 70
     0
102
RTVSPost2010Prop50
 90
       50
102
RTVSPost2010PropOp50
 70
     0
102
RTVSPost2010Prop51ColorIndex
 90
      256
102
RTVSPost2010Prop51ColorRGB
 90
-16777216
102
RTVSPost2010PropOp51
 70
     0
102
RTVSPost2010Prop52
140
1.0
102
RTVSPost2010PropOp52
 70
     0
102
RTVSPost2010Prop53
 90
        2
102
RTVSPost2010PropOp53
 70
     0
102
RTVSPost2010Prop54
  1
strokes_ogs.tif
102
RTVSPost2010PropOp54
 70
     0
102
RTVSPost2010Prop55
280
     0
102
RTVSPost2010PropOp55
 70
     0
102
RTVSPost2010Prop56
140
1.0
102
RTVSPost2010PropOp56
 70
     0
102
RTVSPost2010Prop57
140
1.0
102
RTVSPost2010PropOp57
 70
     0
102
RTVSPropertyOp0
 70
     0
102
RTVSPropertyOp1
 70
     0
102
RTVSPropertyOp2
 70
     0
102
RTVSPropertyOp3
 70
     0
102
RTVSPropertyOp4
 70
     0
102
RTVSPropertyOp5
 70
     0
102
RTVSPropertyOp6
 70
     0
102
RTVSPropertyOp7
 70
     0
102
RTVSPropertyOp8
 70
     0
102
RTVSPropertyOp9
 70
     0
102
RTVSPropertyOp10
 70
     0
102
RTVSPropertyOp11
 70
     0
102
RTVSPropertyOp12
 70
     0
102
RTVSPropertyOp13
 70
     0
102
RTVSPropertyOp14
 70
     2
102
RTVSPropertyOp15
 70
     0
102
RTVSPropertyOp16
 70
     0
102
RTVSPropertyOp17
 70
     0
102
RTVSPropertyOp18
 70
     0
102
RTVSPropertyOp19
 70
     0
102
RTVSPropertyOp20
 70
     0
102
RTVSPropertyOp21
 70
     0
102
RTVSPropertyOp22
 70
     0
102
RTVSPropertyOp23
 70
     0
102
RTVSPropertyOp24
 70
     0
102
RTVSPropertyOp25
 70
     0
102
RTVSPropertyOp26
 70
     0
102
RTVSPropertyOp27
 70
     0
102
RTVSPropertyOp28
 70
     0
102
RTVSPropertyOp29
 70
     0
102
RTVSPropertyOp30
 70
     0
102
RTVSPropertyOp31
 70
     0
102
RTVSPropertyOp32
 70
     0
102
RTVSPropertyOp33
 70
     0
102
RTVSPropertyOp34
 70
     0
102
RTVSPropertyOp35
 70
     0
102
RTVSPropertyOp36
 70
     0
102
RTVSPropertyOp37
 70
     0
102
RTVSPropertyOp38
 70
     0
102
RTVSPropertyOp39
 70
     0
102
RTVSPropertyOp40
 70
     0
102
RTVSPropertyOp41
 70
     0
102
RTVSPropertyOp42
 70
     0
102
RTVSPropertyOp43
 70
     0
102
RTVSPropertyOp44
 70
     0
102
RTVSPropertyOp45
 70
     0
102
RTVSPropertyOp46
 70
     0
102
RTVSPropertyOp47
 70
     0
102
RTVSPropertyOp48
 70
     0
102
RTVSPropertyOp49
 70
     0
102
RTVSPropertyOp50
 70
     0
102
RTVSPropertyOp51
 70
     0
102
RTVSPropertyOp52
 70
     0
102
RTVSPropertyOp53
 70
     0
102
RTVSPropertyOp54
 70
     0
102
RTVSPropertyOp55
 70
     0
102
RTVSPropertyOp56
 70
     0
102
RTVSPropertyOp57
 70
     0
102
RTVSPropertyOp58
 70
     0
102
RTVSPropertyOp59
 70
     0
102
RTVSPropertyOp60
 70
     0
102
RTVSPropertyOp61
 70
     0
102
RTVSPropertyOp62
 70
     0
  0
XRECORD
  5
28F
102
{ACAD_REACTORS
330
28E
102
}
330
28E
100
AcDbXrecord
280
     1
102
RTVSPost2010Prop28
280
     0
102
RTVSPost2010PropOp28
 70
     1
102
RTVSPost2010Prop29
280
     1
102
RTVSPost2010PropOp29
 70
     1
102
RTVSPost2010Prop30
280
     1
102
RTVSPost2010PropOp30
 70
     1
102
RTVSPost2010Prop31
280
     0
102
RTVSPost2010PropOp31
 70
     1
102
RTVSPost2010Prop32
280
     0
102
RTVSPost2010PropOp32
 70
     1
102
RTVSPost2010Prop33
280
     0
102
RTVSPost2010PropOp33
 70
     1
102
RTVSPost2010Prop34
280
     0
102
RTVSPost2010PropOp34
 70
     1
102
RTVSPost2010Prop35
280
     0
102
RTVSPost2010PropOp35
 70
     1
102
RTVSPost2010Prop36
280
     0
102
RTVSPost2010PropOp36
 70
     1
102
RTVSPost2010Prop37
 90
       50
102
RTVSPost2010PropOp37
 70
     1
102
RTVSPost2010Prop38
140
0.0
102
RTVSPost2010PropOp38
 70
     1
102
RTVSPost2010Prop39
140
1.0
102
RTVSPost2010PropOp39
 70
     1
102
RTVSPost2010Prop40
 90
        0
102
RTVSPost2010PropOp40
 70
     1
102
RTVSPost2010Prop41ColorIndex
 90
       18
102
RTVSPost2010Prop41ColorRGB
 90
        0
102
RTVSPost2010PropOp41
 70
     1
102
RTVSPost2010Prop42
 90
       50
102
RTVSPost2010PropOp42
 70
     1
102
RTVSPost2010Prop43
 90
        3
102
RTVSPost2010PropOp43
 70
     1
102
RTVSPost2010Prop44ColorIndex
 90
        5
102
RTVSPost2010Prop44ColorRGB
 90
      255
102
RTVSPost2010PropOp44
 70
     1
102
RTVSPost2010Prop45
280
     0
102
RTVSPost2010PropOp45
 70
     1
102
RTVSPost2010Prop46
 90
       50
102
RTVSPost2010PropOp46
 70
     1
102
RTVSPost2010Prop47
 90
       50
102
RTVSPost2010PropOp47
 70
     1
102
RTVSPost2010Prop48
 90
       50
102
RTVSPost2010PropOp48
 70
     1
102
RTVSPost2010Prop49
280
     0
102
RTVSPost2010PropOp49
 70
     1
102
RTVSPost2010Prop50
 90
       50
102
RTVSPost2010PropOp50
 70
     1
102
RTVSPost2010Prop51ColorIndex
 90
      256
102
RTVSPost2010Prop51ColorRGB
 90
-16777216
102
RTVSPost2010PropOp51
 70
     0
102
RTVSPost2010Prop52
140
1.0
102
RTVSPost2010PropOp52
 70
     0
102
RTVSPost2010Prop53
 90
        2
102
RTVSPost2010PropOp53
 70
     1
102
RTVSPost2010Prop54
  1
strokes_ogs.tif
102
RTVSPost2010PropOp54
 70
     1
102
RTVSPost2010Prop55
280
     0
102
RTVSPost2010PropOp55
 70
     1
102
RTVSPost2010Prop56
140
1.0
102
RTVSPost2010PropOp56
 70
     1
102
RTVSPost2010Prop57
140
1.0
102
RTVSPost2010PropOp57
 70
     1
102
RTVSPropertyOp0
 70
     1
102
RTVSPropertyOp1
 70
     1
102
RTVSPropertyOp2
 70
     1
102
RTVSPropertyOp3
 70
     1
102
RTVSPropertyOp4
 70
     1
102
RTVSPropertyOp5
 70
     1
102
RTVSPropertyOp6
 70
     1
102
RTVSPropertyOp7
 70
     1
102
RTVSPropertyOp8
 70
     1
102
RTVSPropertyOp9
 70
     1
102
RTVSPropertyOp10
 70
     1
102
RTVSPropertyOp11
 70
     1
102
RTVSPropertyOp12
 70
     1
102
RTVSPropertyOp13
 70
     1
102
RTVSPropertyOp14
 70
     1
102
RTVSPropertyOp15
 70
     1
102
RTVSPropertyOp16
 70
     1
102
RTVSPropertyOp17
 70
     1
102
RTVSPropertyOp18
 70
     1
102
RTVSPropertyOp19
 70
     1
102
RTVSPropertyOp20
 70
     1
102
RTVSPropertyOp21
 70
     1
102
RTVSPropertyOp22
 70
     1
102
RTVSPropertyOp23
 70
     1
102
RTVSPropertyOp24
 70
     1
102
RTVSPropertyOp25
 70
     1
102
RTVSPropertyOp26
 70
     1
102
RTVSPropertyOp27
 70
     1
102
RTVSPropertyOp28
 70
     1
102
RTVSPropertyOp29
 70
     1
102
RTVSPropertyOp30
 70
     1
102
RTVSPropertyOp31
 70
     1
102
RTVSPropertyOp32
 70
     1
102
RTVSPropertyOp33
 70
     1
102
RTVSPropertyOp34
 70
     1
102
RTVSPropertyOp35
 70
     1
102
RTVSPropertyOp36
 70
     1
102
RTVSPropertyOp37
 70
     1
102
RTVSPropertyOp38
 70
     1
102
RTVSPropertyOp39
 70
     1
102
RTVSPropertyOp40
 70
     1
102
RTVSPropertyOp41
 70
     1
102
RTVSPropertyOp42
 70
     1
102
RTVSPropertyOp43
 70
     1
102
RTVSPropertyOp44
 70
     1
102
RTVSPropertyOp45
 70
     1
102
RTVSPropertyOp46
 70
     1
102
RTVSPropertyOp47
 70
     1
102
RTVSPropertyOp48
 70
     1
102
RTVSPropertyOp49
 70
     1
102
RTVSPropertyOp50
 70
     1
102
RTVSPropertyOp51
 70
     0
102
RTVSPropertyOp52
 70
     0
102
RTVSPropertyOp53
 70
     1
102
RTVSPropertyOp54
 70
     1
102
RTVSPropertyOp55
 70
     1
102
RTVSPropertyOp56
 70
     1
102
RTVSPropertyOp57
 70
     1
102
RTVSPropertyOp58
 70
     1
102
RTVSPropertyOp59
 70
     1
102
RTVSPropertyOp60
 70
     1
102
RTVSPropertyOp61
 70
     1
102
RTVSPropertyOp62
 70
     1
  0
XRECORD
  5
2A1
102
{ACAD_REACTORS
330
2A0
102
}
330
2A0
100
AcDbXrecord
280
     1
102
RTVSPost2010Prop28
280
     0
102
RTVSPost2010PropOp28
 70
     0
102
RTVSPost2010Prop29
280
     1
102
RTVSPost2010PropOp29
 70
     0
102
RTVSPost2010Prop30
280
     1
102
RTVSPost2010PropOp30
 70
     0
102
RTVSPost2010Prop31
280
     0
102
RTVSPost2010PropOp31
 70
     0
102
RTVSPost2010Prop32
280
     0
102
RTVSPost2010PropOp32
 70
     0
102
RTVSPost2010Prop33
280
     0
102
RTVSPost2010PropOp33
 70
     0
102
RTVSPost2010Prop34
280
     0
102
RTVSPost2010PropOp34
 70
     0
102
RTVSPost2010Prop35
280
     0
102
RTVSPost2010PropOp35
 70
     0
102
RTVSPost2010Prop36
280
     0
102
RTVSPost2010PropOp36
 70
     0
102
RTVSPost2010Prop37
 90
       50
102
RTVSPost2010PropOp37
 70
     0
102
RTVSPost2010Prop38
140
0.0
102
RTVSPost2010PropOp38
 70
     0
102
RTVSPost2010Prop39
140
1.0
102
RTVSPost2010PropOp39
 70
     0
102
RTVSPost2010Prop40
 90
        0
102
RTVSPost2010PropOp40
 70
     0
102
RTVSPost2010Prop41ColorIndex
 90
       18
102
RTVSPost2010Prop41ColorRGB
 90
        0
102
RTVSPost2010PropOp41
 70
     0
102
RTVSPost2010Prop42
 90
       50
102
RTVSPost2010PropOp42
 70
     0
102
RTVSPost2010Prop43
 90
        3
102
RTVSPost2010PropOp43
 70
     0
102
RTVSPost2010Prop44ColorIndex
 90
        5
102
RTVSPost2010Prop44ColorRGB
 90
      255
102
RTVSPost2010PropOp44
 70
     0
102
RTVSPost2010Prop45
280
     0
102
RTVSPost2010PropOp45
 70
     0
102
RTVSPost2010Prop46
 90
       50
102
RTVSPost2010PropOp46
 70
     0
102
RTVSPost2010Prop47
 90
       50
102
RTVSPost2010PropOp47
 70
     0
102
RTVSPost2010Prop48
 90
       50
102
RTVSPost2010PropOp48
 70
     0
102
RTVSPost2010Prop49
280
     0
102
RTVSPost2010PropOp49
 70
     0
102
RTVSPost2010Prop50
 90
       50
102
RTVSPost2010PropOp50
 70
     0
102
RTVSPost2010Prop51ColorIndex
 90
      256
102
RTVSPost2010Prop51ColorRGB
 90
-16777216
102
RTVSPost2010PropOp51
 70
     0
102
RTVSPost2010Prop52
140
1.0
102
RTVSPost2010PropOp52
 70
     0
102
RTVSPost2010Prop53
 90
        2
102
RTVSPost2010PropOp53
 70
     0
102
RTVSPost2010Prop54
  1
strokes_ogs.tif
102
RTVSPost2010PropOp54
 70
     0
102
RTVSPost2010Prop55
280
     0
102
RTVSPost2010PropOp55
 70
     0
102
RTVSPost2010Prop56
140
1.0
102
RTVSPost2010PropOp56
 70
     0
102
RTVSPost2010Prop57
140
1.0
102
RTVSPost2010PropOp57
 70
     0
102
RTVSPropertyOp0
 70
     0
102
RTVSPropertyOp1
 70
     0
102
RTVSPropertyOp2
 70
     0
102
RTVSPropertyOp3
 70
     0
102
RTVSPropertyOp4
 70
     0
102
RTVSPropertyOp5
 70
     0
102
RTVSPropertyOp6
 70
     0
102
RTVSPropertyOp7
 70
     0
102
RTVSPropertyOp8
 70
     0
102
RTVSPropertyOp9
 70
     0
102
RTVSPropertyOp10
 70
     0
102
RTVSPropertyOp11
 70
     0
102
RTVSPropertyOp12
 70
     0
102
RTVSPropertyOp13
 70
     0
102
RTVSPropertyOp14
 70
     2
102
RTVSPropertyOp15
 70
     0
102
RTVSPropertyOp16
 70
     0
102
RTVSPropertyOp17
 70
     0
102
RTVSPropertyOp18
 70
     0
102
RTVSPropertyOp19
 70
     0
102
RTVSPropertyOp20
 70
     0
102
RTVSPropertyOp21
 70
     0
102
RTVSPropertyOp22
 70
     0
102
RTVSPropertyOp23
 70
     0
102
RTVSPropertyOp24
 70
     0
102
RTVSPropertyOp25
 70
     0
102
RTVSPropertyOp26
 70
     0
102
RTVSPropertyOp27
 70
     0
102
RTVSPropertyOp28
 70
     0
102
RTVSPropertyOp29
 70
     0
102
RTVSPropertyOp30
 70
     0
102
RTVSPropertyOp31
 70
     0
102
RTVSPropertyOp32
 70
     0
102
RTVSPropertyOp33
 70
     0
102
RTVSPropertyOp34
 70
     0
102
RTVSPropertyOp35
 70
     0
102
RTVSPropertyOp36
 70
     0
102
RTVSPropertyOp37
 70
     0
102
RTVSPropertyOp38
 70
     0
102
RTVSPropertyOp39
 70
     0
102
RTVSPropertyOp40
 70
     0
102
RTVSPropertyOp41
 70
     0
102
RTVSPropertyOp42
 70
     0
102
RTVSPropertyOp43
 70
     0
102
RTVSPropertyOp44
 70
     0
102
RTVSPropertyOp45
 70
     0
102
RTVSPropertyOp46
 70
     0
102
RTVSPropertyOp47
 70
     0
102
RTVSPropertyOp48
 70
     0
102
RTVSPropertyOp49
 70
     0
102
RTVSPropertyOp50
 70
     0
102
RTVSPropertyOp51
 70
     0
102
RTVSPropertyOp52
 70
     0
102
RTVSPropertyOp53
 70
     0
102
RTVSPropertyOp54
 70
     0
102
RTVSPropertyOp55
 70
     0
102
RTVSPropertyOp56
 70
     0
102
RTVSPropertyOp57
 70
     0
102
RTVSPropertyOp58
 70
     0
102
RTVSPropertyOp59
 70
     0
102
RTVSPropertyOp60
 70
     0
102
RTVSPropertyOp61
 70
     0
102
RTVSPropertyOp62
 70
     0
  0
XRECORD
  5
272
102
{ACAD_REACTORS
330
271
102
}
330
271
100
AcDbXrecord
280
     1
102
RTVSPost2010Prop28
280
     0
102
RTVSPost2010PropOp28
 70
     1
102
RTVSPost2010Prop29
280
     1
102
RTVSPost2010PropOp29
 70
     1
102
RTVSPost2010Prop30
280
     1
102
RTVSPost2010PropOp30
 70
     1
102
RTVSPost2010Prop31
280
     0
102
RTVSPost2010PropOp31
 70
     1
102
RTVSPost2010Prop32
280
     0
102
RTVSPost2010PropOp32
 70
     1
102
RTVSPost2010Prop33
280
     0
102
RTVSPost2010PropOp33
 70
     1
102
RTVSPost2010Prop34
280
     0
102
RTVSPost2010PropOp34
 70
     1
102
RTVSPost2010Prop35
280
     0
102
RTVSPost2010PropOp35
 70
     1
102
RTVSPost2010Prop36
280
     0
102
RTVSPost2010PropOp36
 70
     1
102
RTVSPost2010Prop37
 90
       50
102
RTVSPost2010PropOp37
 70
     1
102
RTVSPost2010Prop38
140
0.0
102
RTVSPost2010PropOp38
 70
     1
102
RTVSPost2010Prop39
140
1.0
102
RTVSPost2010PropOp39
 70
     1
102
RTVSPost2010Prop40
 90
        0
102
RTVSPost2010PropOp40
 70
     1
102
RTVSPost2010Prop41ColorIndex
 90
       18
102
RTVSPost2010Prop41ColorRGB
 90
-16777216
102
RTVSPost2010PropOp41
 70
     1
102
RTVSPost2010Prop42
 90
       50
102
RTVSPost2010PropOp42
 70
     1
102
RTVSPost2010Prop43
 90
        3
102
RTVSPost2010PropOp43
 70
     1
102
RTVSPost2010Prop44ColorIndex
 90
        5
102
RTVSPost2010Prop44ColorRGB
 90
      255
102
RTVSPost2010PropOp44
 70
     1
102
RTVSPost2010Prop45
280
     0
102
RTVSPost2010PropOp45
 70
     1
102
RTVSPost2010Prop46
 90
       50
102
RTVSPost2010PropOp46
 70
     1
102
RTVSPost2010Prop47
 90
       50
102
RTVSPost2010PropOp47
 70
     1
102
RTVSPost2010Prop48
 90
       50
102
RTVSPost2010PropOp48
 70
     1
102
RTVSPost2010Prop49
280
     0
102
RTVSPost2010PropOp49
 70
     1
102
RTVSPost2010Prop50
 90
       50
102
RTVSPost2010PropOp50
 70
     1
102
RTVSPost2010Prop51ColorIndex
 90
      256
102
RTVSPost2010Prop51ColorRGB
 90
-16777216
102
RTVSPost2010PropOp51
 70
     0
102
RTVSPost2010Prop52
140
1.0
102
RTVSPost2010PropOp52
 70
     0
102
RTVSPost2010Prop53
 90
        2
102
RTVSPost2010PropOp53
 70
     1
102
RTVSPost2010Prop54
  1
strokes_ogs.tif
102
RTVSPost2010PropOp54
 70
     1
102
RTVSPost2010Prop55
280
     0
102
RTVSPost2010PropOp55
 70
     1
102
RTVSPost2010Prop56
140
1.0
102
RTVSPost2010PropOp56
 70
     1
102
RTVSPost2010Prop57
140
1.0
102
RTVSPost2010PropOp57
 70
     1
102
RTVSPropertyOp0
 70
     1
102
RTVSPropertyOp1
 70
     1
102
RTVSPropertyOp2
 70
     1
102
RTVSPropertyOp3
 70
     1
102
RTVSPropertyOp4
 70
     1
102
RTVSPropertyOp5
 70
     1
102
RTVSPropertyOp6
 70
     1
102
RTVSPropertyOp7
 70
     1
102
RTVSPropertyOp8
 70
     1
102
RTVSPropertyOp9
 70
     1
102
RTVSPropertyOp10
 70
     1
102
RTVSPropertyOp11
 70
     1
102
RTVSPropertyOp12
 70
     1
102
RTVSPropertyOp13
 70
     1
102
RTVSPropertyOp14
 70
     1
102
RTVSPropertyOp15
 70
     1
102
RTVSPropertyOp16
 70
     1
102
RTVSPropertyOp17
 70
     1
102
RTVSPropertyOp18
 70
     1
102
RTVSPropertyOp19
 70
     1
102
RTVSPropertyOp20
 70
     1
102
RTVSPropertyOp21
 70
     1
102
RTVSPropertyOp22
 70
     1
102
RTVSPropertyOp23
 70
     1
102
RTVSPropertyOp24
 70
     1
102
RTVSPropertyOp25
 70
     1
102
RTVSPropertyOp26
 70
     1
102
RTVSPropertyOp27
 70
     1
102
RTVSPropertyOp28
 70
     1
102
RTVSPropertyOp29
 70
     1
102
RTVSPropertyOp30
 70
     1
102
RTVSPropertyOp31
 70
     1
102
RTVSPropertyOp32
 70
     1
102
RTVSPropertyOp33
 70
     1
102
RTVSPropertyOp34
 70
     1
102
RTVSPropertyOp35
 70
     1
102
RTVSPropertyOp36
 70
     1
102
RTVSPropertyOp37
 70
     1
102
RTVSPropertyOp38
 70
     1
102
RTVSPropertyOp39
 70
     1
102
RTVSPropertyOp40
 70
     1
102
RTVSPropertyOp41
 70
     1
102
RTVSPropertyOp42
 70
     1
102
RTVSPropertyOp43
 70
     1
102
RTVSPropertyOp44
 70
     1
102
RTVSPropertyOp45
 70
     1
102
RTVSPropertyOp46
 70
     1
102
RTVSPropertyOp47
 70
     1
102
RTVSPropertyOp48
 70
     1
102
RTVSPropertyOp49
 70
     1
102
RTVSPropertyOp50
 70
     1
102
RTVSPropertyOp51
 70
     0
102
RTVSPropertyOp52
 70
     0
102
RTVSPropertyOp53
 70
     1
102
RTVSPropertyOp54
 70
     1
102
RTVSPropertyOp55
 70
     1
102
RTVSPropertyOp56
 70
     1
102
RTVSPropertyOp57
 70
     1
102
RTVSPropertyOp58
 70
     1
102
RTVSPropertyOp59
 70
     1
102
RTVSPropertyOp60
 70
     1
102
RTVSPropertyOp61
 70
     1
102
RTVSPropertyOp62
 70
     1
  0
XRECORD
  5
29D
102
{ACAD_REACTORS
330
29C
102
}
330
29C
100
AcDbXrecord
280
     1
102
RTVSPost2010Prop28
280
     0
102
RTVSPost2010PropOp28
 70
     1
102
RTVSPost2010Prop29
280
     1
102
RTVSPost2010PropOp29
 70
     1
102
RTVSPost2010Prop30
280
     1
102
RTVSPost2010PropOp30
 70
     1
102
RTVSPost2010Prop31
280
     0
102
RTVSPost2010PropOp31
 70
     1
102
RTVSPost2010Prop32
280
     0
102
RTVSPost2010PropOp32
 70
     1
102
RTVSPost2010Prop33
280
     0
102
RTVSPost2010PropOp33
 70
     1
102
RTVSPost2010Prop34
280
     0
102
RTVSPost2010PropOp34
 70
     1
102
RTVSPost2010Prop35
280
     0
102
RTVSPost2010PropOp35
 70
     1
102
RTVSPost2010Prop36
280
     0
102
RTVSPost2010PropOp36
 70
     1
102
RTVSPost2010Prop37
 90
       50
102
RTVSPost2010PropOp37
 70
     1
102
RTVSPost2010Prop38
140
0.0
102
RTVSPost2010PropOp38
 70
     1
102
RTVSPost2010Prop39
140
1.0
102
RTVSPost2010PropOp39
 70
     1
102
RTVSPost2010Prop40
 90
        0
102
RTVSPost2010PropOp40
 70
     1
102
RTVSPost2010Prop41ColorIndex
 90
       18
102
RTVSPost2010Prop41ColorRGB
 90
        0
102
RTVSPost2010PropOp41
 70
     1
102
RTVSPost2010Prop42
 90
       50
102
RTVSPost2010PropOp42
 70
     1
102
RTVSPost2010Prop43
 90
        3
102
RTVSPost2010PropOp43
 70
     1
102
RTVSPost2010Prop44ColorIndex
 90
        5
102
RTVSPost2010Prop44ColorRGB
 90
      255
102
RTVSPost2010PropOp44
 70
     1
102
RTVSPost2010Prop45
280
     0
102
RTVSPost2010PropOp45
 70
     1
102
RTVSPost2010Prop46
 90
       50
102
RTVSPost2010PropOp46
 70
     1
102
RTVSPost2010Prop47
 90
       50
102
RTVSPost2010PropOp47
 70
     1
102
RTVSPost2010Prop48
 90
       50
102
RTVSPost2010PropOp48
 70
     1
102
RTVSPost2010Prop49
280
     0
102
RTVSPost2010PropOp49
 70
     1
102
RTVSPost2010Prop50
 90
       50
102
RTVSPost2010PropOp50
 70
     1
102
RTVSPost2010Prop51ColorIndex
 90
      256
102
RTVSPost2010Prop51ColorRGB
 90
-16777216
102
RTVSPost2010PropOp51
 70
     0
102
RTVSPost2010Prop52
140
1.0
102
RTVSPost2010PropOp52
 70
     0
102
RTVSPost2010Prop53
 90
        2
102
RTVSPost2010PropOp53
 70
     1
102
RTVSPost2010Prop54
  1
strokes_ogs.tif
102
RTVSPost2010PropOp54
 70
     1
102
RTVSPost2010Prop55
280
     0
102
RTVSPost2010PropOp55
 70
     1
102
RTVSPost2010Prop56
140
1.0
102
RTVSPost2010PropOp56
 70
     1
102
RTVSPost2010Prop57
140
1.0
102
RTVSPost2010PropOp57
 70
     1
102
RTVSPropertyOp0
 70
     1
102
RTVSPropertyOp1
 70
     1
102
RTVSPropertyOp2
 70
     1
102
RTVSPropertyOp3
 70
     1
102
RTVSPropertyOp4
 70
     1
102
RTVSPropertyOp5
 70
     1
102
RTVSPropertyOp6
 70
     1
102
RTVSPropertyOp7
 70
     1
102
RTVSPropertyOp8
 70
     1
102
RTVSPropertyOp9
 70
     1
102
RTVSPropertyOp10
 70
     1
102
RTVSPropertyOp11
 70
     1
102
RTVSPropertyOp12
 70
     1
102
RTVSPropertyOp13
 70
     1
102
RTVSPropertyOp14
 70
     1
102
RTVSPropertyOp15
 70
     1
102
RTVSPropertyOp16
 70
     1
102
RTVSPropertyOp17
 70
     1
102
RTVSPropertyOp18
 70
     1
102
RTVSPropertyOp19
 70
     1
102
RTVSPropertyOp20
 70
     1
102
RTVSPropertyOp21
 70
     1
102
RTVSPropertyOp22
 70
     1
102
RTVSPropertyOp23
 70
     1
102
RTVSPropertyOp24
 70
     1
102
RTVSPropertyOp25
 70
     1
102
RTVSPropertyOp26
 70
     1
102
RTVSPropertyOp27
 70
     1
102
RTVSPropertyOp28
 70
     1
102
RTVSPropertyOp29
 70
     1
102
RTVSPropertyOp30
 70
     1
102
RTVSPropertyOp31
 70
     1
102
RTVSPropertyOp32
 70
     1
102
RTVSPropertyOp33
 70
     1
102
RTVSPropertyOp34
 70
     1
102
RTVSPropertyOp35
 70
     1
102
RTVSPropertyOp36
 70
     1
102
RTVSPropertyOp37
 70
     1
102
RTVSPropertyOp38
 70
     1
102
RTVSPropertyOp39
 70
     1
102
RTVSPropertyOp40
 70
     1
102
RTVSPropertyOp41
 70
     1
102
RTVSPropertyOp42
 70
     1
102
RTVSPropertyOp43
 70
     1
102
RTVSPropertyOp44
 70
     1
102
RTVSPropertyOp45
 70
     1
102
RTVSPropertyOp46
 70
     1
102
RTVSPropertyOp47
 70
     1
102
RTVSPropertyOp48
 70
     1
102
RTVSPropertyOp49
 70
     1
102
RTVSPropertyOp50
 70
     1
102
RTVSPropertyOp51
 70
     0
102
RTVSPropertyOp52
 70
     0
102
RTVSPropertyOp53
 70
     1
102
RTVSPropertyOp54
 70
     1
102
RTVSPropertyOp55
 70
     1
102
RTVSPropertyOp56
 70
     1
102
RTVSPropertyOp57
 70
     1
102
RTVSPropertyOp58
 70
     1
102
RTVSPropertyOp59
 70
     1
102
RTVSPropertyOp60
 70
     1
102
RTVSPropertyOp61
 70
     1
102
RTVSPropertyOp62
 70
     1
  0
XRECORD
  5
29B
102
{ACAD_REACTORS
330
29A
102
}
330
29A
100
AcDbXrecord
280
     1
102
RTVSPost2010Prop28
280
     0
102
RTVSPost2010PropOp28
 70
     1
102
RTVSPost2010Prop29
280
     1
102
RTVSPost2010PropOp29
 70
     1
102
RTVSPost2010Prop30
280
     1
102
RTVSPost2010PropOp30
 70
     1
102
RTVSPost2010Prop31
280
     0
102
RTVSPost2010PropOp31
 70
     1
102
RTVSPost2010Prop32
280
     0
102
RTVSPost2010PropOp32
 70
     1
102
RTVSPost2010Prop33
280
     0
102
RTVSPost2010PropOp33
 70
     1
102
RTVSPost2010Prop34
280
     0
102
RTVSPost2010PropOp34
 70
     1
102
RTVSPost2010Prop35
280
     0
102
RTVSPost2010PropOp35
 70
     1
102
RTVSPost2010Prop36
280
     0
102
RTVSPost2010PropOp36
 70
     1
102
RTVSPost2010Prop37
 90
       50
102
RTVSPost2010PropOp37
 70
     1
102
RTVSPost2010Prop38
140
0.0
102
RTVSPost2010PropOp38
 70
     1
102
RTVSPost2010Prop39
140
1.0
102
RTVSPost2010PropOp39
 70
     1
102
RTVSPost2010Prop40
 90
        0
102
RTVSPost2010PropOp40
 70
     1
102
RTVSPost2010Prop41ColorIndex
 90
       18
102
RTVSPost2010Prop41ColorRGB
 90
        0
102
RTVSPost2010PropOp41
 70
     1
102
RTVSPost2010Prop42
 90
       50
102
RTVSPost2010PropOp42
 70
     1
102
RTVSPost2010Prop43
 90
        3
102
RTVSPost2010PropOp43
 70
     1
102
RTVSPost2010Prop44ColorIndex
 90
        5
102
RTVSPost2010Prop44ColorRGB
 90
      255
102
RTVSPost2010PropOp44
 70
     1
102
RTVSPost2010Prop45
280
     0
102
RTVSPost2010PropOp45
 70
     1
102
RTVSPost2010Prop46
 90
       50
102
RTVSPost2010PropOp46
 70
     1
102
RTVSPost2010Prop47
 90
       50
102
RTVSPost2010PropOp47
 70
     1
102
RTVSPost2010Prop48
 90
       50
102
RTVSPost2010PropOp48
 70
     1
102
RTVSPost2010Prop49
280
     0
102
RTVSPost2010PropOp49
 70
     1
102
RTVSPost2010Prop50
 90
       50
102
RTVSPost2010PropOp50
 70
     1
102
RTVSPost2010Prop51ColorIndex
 90
      256
102
RTVSPost2010Prop51ColorRGB
 90
-16777216
102
RTVSPost2010PropOp51
 70
     0
102
RTVSPost2010Prop52
140
1.0
102
RTVSPost2010PropOp52
 70
     0
102
RTVSPost2010Prop53
 90
        2
102
RTVSPost2010PropOp53
 70
     1
102
RTVSPost2010Prop54
  1
strokes_ogs.tif
102
RTVSPost2010PropOp54
 70
     1
102
RTVSPost2010Prop55
280
     0
102
RTVSPost2010PropOp55
 70
     1
102
RTVSPost2010Prop56
140
1.0
102
RTVSPost2010PropOp56
 70
     1
102
RTVSPost2010Prop57
140
1.0
102
RTVSPost2010PropOp57
 70
     1
102
RTVSPropertyOp0
 70
     1
102
RTVSPropertyOp1
 70
     1
102
RTVSPropertyOp2
 70
     1
102
RTVSPropertyOp3
 70
     1
102
RTVSPropertyOp4
 70
     1
102
RTVSPropertyOp5
 70
     1
102
RTVSPropertyOp6
 70
     1
102
RTVSPropertyOp7
 70
     1
102
RTVSPropertyOp8
 70
     1
102
RTVSPropertyOp9
 70
     1
102
RTVSPropertyOp10
 70
     1
102
RTVSPropertyOp11
 70
     1
102
RTVSPropertyOp12
 70
     1
102
RTVSPropertyOp13
 70
     1
102
RTVSPropertyOp14
 70
     1
102
RTVSPropertyOp15
 70
     1
102
RTVSPropertyOp16
 70
     1
102
RTVSPropertyOp17
 70
     1
102
RTVSPropertyOp18
 70
     1
102
RTVSPropertyOp19
 70
     1
102
RTVSPropertyOp20
 70
     1
102
RTVSPropertyOp21
 70
     1
102
RTVSPropertyOp22
 70
     1
102
RTVSPropertyOp23
 70
     1
102
RTVSPropertyOp24
 70
     1
102
RTVSPropertyOp25
 70
     1
102
RTVSPropertyOp26
 70
     1
102
RTVSPropertyOp27
 70
     1
102
RTVSPropertyOp28
 70
     1
102
RTVSPropertyOp29
 70
     1
102
RTVSPropertyOp30
 70
     1
102
RTVSPropertyOp31
 70
     1
102
RTVSPropertyOp32
 70
     1
102
RTVSPropertyOp33
 70
     1
102
RTVSPropertyOp34
 70
     1
102
RTVSPropertyOp35
 70
     1
102
RTVSPropertyOp36
 70
     1
102
RTVSPropertyOp37
 70
     1
102
RTVSPropertyOp38
 70
     1
102
RTVSPropertyOp39
 70
     1
102
RTVSPropertyOp40
 70
     1
102
RTVSPropertyOp41
 70
     1
102
RTVSPropertyOp42
 70
     1
102
RTVSPropertyOp43
 70
     1
102
RTVSPropertyOp44
 70
     1
102
RTVSPropertyOp45
 70
     1
102
RTVSPropertyOp46
 70
     1
102
RTVSPropertyOp47
 70
     1
102
RTVSPropertyOp48
 70
     1
102
RTVSPropertyOp49
 70
     1
102
RTVSPropertyOp50
 70
     1
102
RTVSPropertyOp51
 70
     0
102
RTVSPropertyOp52
 70
     0
102
RTVSPropertyOp53
 70
     1
102
RTVSPropertyOp54
 70
     1
102
RTVSPropertyOp55
 70
     1
102
RTVSPropertyOp56
 70
     1
102
RTVSPropertyOp57
 70
     1
102
RTVSPropertyOp58
 70
     1
102
RTVSPropertyOp59
 70
     1
102
RTVSPropertyOp60
 70
     1
102
RTVSPropertyOp61
 70
     1
102
RTVSPropertyOp62
 70
     1
  0
XRECORD
  5
295
102
{ACAD_REACTORS
330
294
102
}
330
294
100
AcDbXrecord
280
     1
102
RTVSPost2010Prop28
280
     0
102
RTVSPost2010PropOp28
 70
     1
102
RTVSPost2010Prop29
280
     1
102
RTVSPost2010PropOp29
 70
     1
102
RTVSPost2010Prop30
280
     1
102
RTVSPost2010PropOp30
 70
     1
102
RTVSPost2010Prop31
280
     0
102
RTVSPost2010PropOp31
 70
     1
102
RTVSPost2010Prop32
280
     0
102
RTVSPost2010PropOp32
 70
     1
102
RTVSPost2010Prop33
280
     0
102
RTVSPost2010PropOp33
 70
     1
102
RTVSPost2010Prop34
280
     0
102
RTVSPost2010PropOp34
 70
     1
102
RTVSPost2010Prop35
280
     0
102
RTVSPost2010PropOp35
 70
     1
102
RTVSPost2010Prop36
280
     0
102
RTVSPost2010PropOp36
 70
     1
102
RTVSPost2010Prop37
 90
       50
102
RTVSPost2010PropOp37
 70
     1
102
RTVSPost2010Prop38
140
0.0
102
RTVSPost2010PropOp38
 70
     1
102
RTVSPost2010Prop39
140
1.0
102
RTVSPost2010PropOp39
 70
     1
102
RTVSPost2010Prop40
 90
        0
102
RTVSPost2010PropOp40
 70
     1
102
RTVSPost2010Prop41ColorIndex
 90
       18
102
RTVSPost2010Prop41ColorRGB
 90
        0
102
RTVSPost2010PropOp41
 70
     1
102
RTVSPost2010Prop42
 90
       50
102
RTVSPost2010PropOp42
 70
     1
102
RTVSPost2010Prop43
 90
        3
102
RTVSPost2010PropOp43
 70
     1
102
RTVSPost2010Prop44ColorIndex
 90
        5
102
RTVSPost2010Prop44ColorRGB
 90
      255
102
RTVSPost2010PropOp44
 70
     1
102
RTVSPost2010Prop45
280
     0
102
RTVSPost2010PropOp45
 70
     1
102
RTVSPost2010Prop46
 90
       50
102
RTVSPost2010PropOp46
 70
     1
102
RTVSPost2010Prop47
 90
       50
102
RTVSPost2010PropOp47
 70
     1
102
RTVSPost2010Prop48
 90
       50
102
RTVSPost2010PropOp48
 70
     1
102
RTVSPost2010Prop49
280
     0
102
RTVSPost2010PropOp49
 70
     1
102
RTVSPost2010Prop50
 90
       50
102
RTVSPost2010PropOp50
 70
     1
102
RTVSPost2010Prop51ColorIndex
 90
      256
102
RTVSPost2010Prop51ColorRGB
 90
-16777216
102
RTVSPost2010PropOp51
 70
     0
102
RTVSPost2010Prop52
140
1.0
102
RTVSPost2010PropOp52
 70
     0
102
RTVSPost2010Prop53
 90
        2
102
RTVSPost2010PropOp53
 70
     1
102
RTVSPost2010Prop54
  1
strokes_ogs.tif
102
RTVSPost2010PropOp54
 70
     1
102
RTVSPost2010Prop55
280
     0
102
RTVSPost2010PropOp55
 70
     1
102
RTVSPost2010Prop56
140
1.0
102
RTVSPost2010PropOp56
 70
     1
102
RTVSPost2010Prop57
140
1.0
102
RTVSPost2010PropOp57
 70
     1
102
RTVSPropertyOp0
 70
     1
102
RTVSPropertyOp1
 70
     1
102
RTVSPropertyOp2
 70
     1
102
RTVSPropertyOp3
 70
     1
102
RTVSPropertyOp4
 70
     1
102
RTVSPropertyOp5
 70
     1
102
RTVSPropertyOp6
 70
     1
102
RTVSPropertyOp7
 70
     1
102
RTVSPropertyOp8
 70
     1
102
RTVSPropertyOp9
 70
     1
102
RTVSPropertyOp10
 70
     1
102
RTVSPropertyOp11
 70
     1
102
RTVSPropertyOp12
 70
     1
102
RTVSPropertyOp13
 70
     1
102
RTVSPropertyOp14
 70
     1
102
RTVSPropertyOp15
 70
     1
102
RTVSPropertyOp16
 70
     1
102
RTVSPropertyOp17
 70
     1
102
RTVSPropertyOp18
 70
     1
102
RTVSPropertyOp19
 70
     1
102
RTVSPropertyOp20
 70
     1
102
RTVSPropertyOp21
 70
     1
102
RTVSPropertyOp22
 70
     1
102
RTVSPropertyOp23
 70
     1
102
RTVSPropertyOp24
 70
     1
102
RTVSPropertyOp25
 70
     1
102
RTVSPropertyOp26
 70
     1
102
RTVSPropertyOp27
 70
     1
102
RTVSPropertyOp28
 70
     1
102
RTVSPropertyOp29
 70
     1
102
RTVSPropertyOp30
 70
     1
102
RTVSPropertyOp31
 70
     1
102
RTVSPropertyOp32
 70
     1
102
RTVSPropertyOp33
 70
     1
102
RTVSPropertyOp34
 70
     1
102
RTVSPropertyOp35
 70
     1
102
RTVSPropertyOp36
 70
     1
102
RTVSPropertyOp37
 70
     1
102
RTVSPropertyOp38
 70
     1
102
RTVSPropertyOp39
 70
     1
102
RTVSPropertyOp40
 70
     1
102
RTVSPropertyOp41
 70
     1
102
RTVSPropertyOp42
 70
     1
102
RTVSPropertyOp43
 70
     1
102
RTVSPropertyOp44
 70
     1
102
RTVSPropertyOp45
 70
     1
102
RTVSPropertyOp46
 70
     1
102
RTVSPropertyOp47
 70
     1
102
RTVSPropertyOp48
 70
     1
102
RTVSPropertyOp49
 70
     1
102
RTVSPropertyOp50
 70
     1
102
RTVSPropertyOp51
 70
     0
102
RTVSPropertyOp52
 70
     0
102
RTVSPropertyOp53
 70
     1
102
RTVSPropertyOp54
 70
     1
102
RTVSPropertyOp55
 70
     1
102
RTVSPropertyOp56
 70
     1
102
RTVSPropertyOp57
 70
     1
102
RTVSPropertyOp58
 70
     1
102
RTVSPropertyOp59
 70
     1
102
RTVSPropertyOp60
 70
     1
102
RTVSPropertyOp61
 70
     1
102
RTVSPropertyOp62
 70
     1
  0
XRECORD
  5
297
102
{ACAD_REACTORS
330
296
102
}
330
296
100
AcDbXrecord
280
     1
102
RTVSPost2010Prop28
280
     0
102
RTVSPost2010PropOp28
 70
     1
102
RTVSPost2010Prop29
280
     1
102
RTVSPost2010PropOp29
 70
     1
102
RTVSPost2010Prop30
280
     1
102
RTVSPost2010PropOp30
 70
     1
102
RTVSPost2010Prop31
280
     0
102
RTVSPost2010PropOp31
 70
     1
102
RTVSPost2010Prop32
280
     0
102
RTVSPost2010PropOp32
 70
     1
102
RTVSPost2010Prop33
280
     0
102
RTVSPost2010PropOp33
 70
     1
102
RTVSPost2010Prop34
280
     0
102
RTVSPost2010PropOp34
 70
     1
102
RTVSPost2010Prop35
280
     0
102
RTVSPost2010PropOp35
 70
     1
102
RTVSPost2010Prop36
280
     0
102
RTVSPost2010PropOp36
 70
     1
102
RTVSPost2010Prop37
 90
       50
102
RTVSPost2010PropOp37
 70
     1
102
RTVSPost2010Prop38
140
0.0
102
RTVSPost2010PropOp38
 70
     1
102
RTVSPost2010Prop39
140
1.0
102
RTVSPost2010PropOp39
 70
     1
102
RTVSPost2010Prop40
 90
        0
102
RTVSPost2010PropOp40
 70
     1
102
RTVSPost2010Prop41ColorIndex
 90
       18
102
RTVSPost2010Prop41ColorRGB
 90
        0
102
RTVSPost2010PropOp41
 70
     1
102
RTVSPost2010Prop42
 90
       50
102
RTVSPost2010PropOp42
 70
     1
102
RTVSPost2010Prop43
 90
        3
102
RTVSPost2010PropOp43
 70
     1
102
RTVSPost2010Prop44ColorIndex
 90
        5
102
RTVSPost2010Prop44ColorRGB
 90
      255
102
RTVSPost2010PropOp44
 70
     1
102
RTVSPost2010Prop45
280
     0
102
RTVSPost2010PropOp45
 70
     1
102
RTVSPost2010Prop46
 90
       50
102
RTVSPost2010PropOp46
 70
     1
102
RTVSPost2010Prop47
 90
       50
102
RTVSPost2010PropOp47
 70
     1
102
RTVSPost2010Prop48
 90
       50
102
RTVSPost2010PropOp48
 70
     1
102
RTVSPost2010Prop49
280
     0
102
RTVSPost2010PropOp49
 70
     1
102
RTVSPost2010Prop50
 90
       50
102
RTVSPost2010PropOp50
 70
     1
102
RTVSPost2010Prop51ColorIndex
 90
      256
102
RTVSPost2010Prop51ColorRGB
 90
-16777216
102
RTVSPost2010PropOp51
 70
     0
102
RTVSPost2010Prop52
140
1.0
102
RTVSPost2010PropOp52
 70
     0
102
RTVSPost2010Prop53
 90
        2
102
RTVSPost2010PropOp53
 70
     1
102
RTVSPost2010Prop54
  1
strokes_ogs.tif
102
RTVSPost2010PropOp54
 70
     1
102
RTVSPost2010Prop55
280
     0
102
RTVSPost2010PropOp55
 70
     1
102
RTVSPost2010Prop56
140
1.0
102
RTVSPost2010PropOp56
 70
     1
102
RTVSPost2010Prop57
140
1.0
102
RTVSPost2010PropOp57
 70
     1
102
RTVSPropertyOp0
 70
     1
102
RTVSPropertyOp1
 70
     1
102
RTVSPropertyOp2
 70
     1
102
RTVSPropertyOp3
 70
     1
102
RTVSPropertyOp4
 70
     1
102
RTVSPropertyOp5
 70
     1
102
RTVSPropertyOp6
 70
     1
102
RTVSPropertyOp7
 70
     1
102
RTVSPropertyOp8
 70
     1
102
RTVSPropertyOp9
 70
     1
102
RTVSPropertyOp10
 70
     1
102
RTVSPropertyOp11
 70
     1
102
RTVSPropertyOp12
 70
     1
102
RTVSPropertyOp13
 70
     1
102
RTVSPropertyOp14
 70
     1
102
RTVSPropertyOp15
 70
     1
102
RTVSPropertyOp16
 70
     1
102
RTVSPropertyOp17
 70
     1
102
RTVSPropertyOp18
 70
     1
102
RTVSPropertyOp19
 70
     1
102
RTVSPropertyOp20
 70
     1
102
RTVSPropertyOp21
 70
     1
102
RTVSPropertyOp22
 70
     1
102
RTVSPropertyOp23
 70
     1
102
RTVSPropertyOp24
 70
     1
102
RTVSPropertyOp25
 70
     1
102
RTVSPropertyOp26
 70
     1
102
RTVSPropertyOp27
 70
     1
102
RTVSPropertyOp28
 70
     1
102
RTVSPropertyOp29
 70
     1
102
RTVSPropertyOp30
 70
     1
102
RTVSPropertyOp31
 70
     1
102
RTVSPropertyOp32
 70
     1
102
RTVSPropertyOp33
 70
     1
102
RTVSPropertyOp34
 70
     1
102
RTVSPropertyOp35
 70
     1
102
RTVSPropertyOp36
 70
     1
102
RTVSPropertyOp37
 70
     1
102
RTVSPropertyOp38
 70
     1
102
RTVSPropertyOp39
 70
     1
102
RTVSPropertyOp40
 70
     1
102
RTVSPropertyOp41
 70
     1
102
RTVSPropertyOp42
 70
     1
102
RTVSPropertyOp43
 70
     1
102
RTVSPropertyOp44
 70
     1
102
RTVSPropertyOp45
 70
     1
102
RTVSPropertyOp46
 70
     1
102
RTVSPropertyOp47
 70
     1
102
RTVSPropertyOp48
 70
     1
102
RTVSPropertyOp49
 70
     1
102
RTVSPropertyOp50
 70
     1
102
RTVSPropertyOp51
 70
     0
102
RTVSPropertyOp52
 70
     0
102
RTVSPropertyOp53
 70
     1
102
RTVSPropertyOp54
 70
     1
102
RTVSPropertyOp55
 70
     1
102
RTVSPropertyOp56
 70
     1
102
RTVSPropertyOp57
 70
     1
102
RTVSPropertyOp58
 70
     1
102
RTVSPropertyOp59
 70
     1
102
RTVSPropertyOp60
 70
     1
102
RTVSPropertyOp61
 70
     1
102
RTVSPropertyOp62
 70
     1
  0
XRECORD
  5
28D
102
{ACAD_REACTORS
330
28C
102
}
330
28C
100
AcDbXrecord
280
     1
102
RTVSPost2010Prop28
280
     0
102
RTVSPost2010PropOp28
 70
     1
102
RTVSPost2010Prop29
280
     1
102
RTVSPost2010PropOp29
 70
     1
102
RTVSPost2010Prop30
280
     1
102
RTVSPost2010PropOp30
 70
     1
102
RTVSPost2010Prop31
280
     0
102
RTVSPost2010PropOp31
 70
     1
102
RTVSPost2010Prop32
280
     0
102
RTVSPost2010PropOp32
 70
     1
102
RTVSPost2010Prop33
280
     0
102
RTVSPost2010PropOp33
 70
     1
102
RTVSPost2010Prop34
280
     0
102
RTVSPost2010PropOp34
 70
     1
102
RTVSPost2010Prop35
280
     0
102
RTVSPost2010PropOp35
 70
     1
102
RTVSPost2010Prop36
280
     0
102
RTVSPost2010PropOp36
 70
     1
102
RTVSPost2010Prop37
 90
       50
102
RTVSPost2010PropOp37
 70
     1
102
RTVSPost2010Prop38
140
0.0
102
RTVSPost2010PropOp38
 70
     1
102
RTVSPost2010Prop39
140
1.0
102
RTVSPost2010PropOp39
 70
     1
102
RTVSPost2010Prop40
 90
        0
102
RTVSPost2010PropOp40
 70
     1
102
RTVSPost2010Prop41ColorIndex
 90
       18
102
RTVSPost2010Prop41ColorRGB
 90
        0
102
RTVSPost2010PropOp41
 70
     1
102
RTVSPost2010Prop42
 90
       50
102
RTVSPost2010PropOp42
 70
     1
102
RTVSPost2010Prop43
 90
        3
102
RTVSPost2010PropOp43
 70
     1
102
RTVSPost2010Prop44ColorIndex
 90
        5
102
RTVSPost2010Prop44ColorRGB
 90
      255
102
RTVSPost2010PropOp44
 70
     1
102
RTVSPost2010Prop45
280
     0
102
RTVSPost2010PropOp45
 70
     1
102
RTVSPost2010Prop46
 90
       50
102
RTVSPost2010PropOp46
 70
     1
102
RTVSPost2010Prop47
 90
       50
102
RTVSPost2010PropOp47
 70
     1
102
RTVSPost2010Prop48
 90
       50
102
RTVSPost2010PropOp48
 70
     1
102
RTVSPost2010Prop49
280
     0
102
RTVSPost2010PropOp49
 70
     1
102
RTVSPost2010Prop50
 90
       50
102
RTVSPost2010PropOp50
 70
     1
102
RTVSPost2010Prop51ColorIndex
 90
      256
102
RTVSPost2010Prop51ColorRGB
 90
-16777216
102
RTVSPost2010PropOp51
 70
     0
102
RTVSPost2010Prop52
140
1.0
102
RTVSPost2010PropOp52
 70
     0
102
RTVSPost2010Prop53
 90
        2
102
RTVSPost2010PropOp53
 70
     1
102
RTVSPost2010Prop54
  1
strokes_ogs.tif
102
RTVSPost2010PropOp54
 70
     1
102
RTVSPost2010Prop55
280
     0
102
RTVSPost2010PropOp55
 70
     1
102
RTVSPost2010Prop56
140
1.0
102
RTVSPost2010PropOp56
 70
     1
102
RTVSPost2010Prop57
140
1.0
102
RTVSPost2010PropOp57
 70
     1
102
RTVSPropertyOp0
 70
     1
102
RTVSPropertyOp1
 70
     1
102
RTVSPropertyOp2
 70
     1
102
RTVSPropertyOp3
 70
     1
102
RTVSPropertyOp4
 70
     1
102
RTVSPropertyOp5
 70
     1
102
RTVSPropertyOp6
 70
     1
102
RTVSPropertyOp7
 70
     1
102
RTVSPropertyOp8
 70
     1
102
RTVSPropertyOp9
 70
     1
102
RTVSPropertyOp10
 70
     1
102
RTVSPropertyOp11
 70
     1
102
RTVSPropertyOp12
 70
     1
102
RTVSPropertyOp13
 70
     1
102
RTVSPropertyOp14
 70
     1
102
RTVSPropertyOp15
 70
     1
102
RTVSPropertyOp16
 70
     1
102
RTVSPropertyOp17
 70
     1
102
RTVSPropertyOp18
 70
     1
102
RTVSPropertyOp19
 70
     1
102
RTVSPropertyOp20
 70
     1
102
RTVSPropertyOp21
 70
     1
102
RTVSPropertyOp22
 70
     1
102
RTVSPropertyOp23
 70
     1
102
RTVSPropertyOp24
 70
     1
102
RTVSPropertyOp25
 70
     1
102
RTVSPropertyOp26
 70
     1
102
RTVSPropertyOp27
 70
     1
102
RTVSPropertyOp28
 70
     1
102
RTVSPropertyOp29
 70
     1
102
RTVSPropertyOp30
 70
     1
102
RTVSPropertyOp31
 70
     1
102
RTVSPropertyOp32
 70
     1
102
RTVSPropertyOp33
 70
     1
102
RTVSPropertyOp34
 70
     1
102
RTVSPropertyOp35
 70
     1
102
RTVSPropertyOp36
 70
     1
102
RTVSPropertyOp37
 70
     1
102
RTVSPropertyOp38
 70
     1
102
RTVSPropertyOp39
 70
     1
102
RTVSPropertyOp40
 70
     1
102
RTVSPropertyOp41
 70
     1
102
RTVSPropertyOp42
 70
     1
102
RTVSPropertyOp43
 70
     1
102
RTVSPropertyOp44
 70
     1
102
RTVSPropertyOp45
 70
     1
102
RTVSPropertyOp46
 70
     1
102
RTVSPropertyOp47
 70
     1
102
RTVSPropertyOp48
 70
     1
102
RTVSPropertyOp49
 70
     1
102
RTVSPropertyOp50
 70
     1
102
RTVSPropertyOp51
 70
     0
102
RTVSPropertyOp52
 70
     0
102
RTVSPropertyOp53
 70
     1
102
RTVSPropertyOp54
 70
     1
102
RTVSPropertyOp55
 70
     1
102
RTVSPropertyOp56
 70
     1
102
RTVSPropertyOp57
 70
     1
102
RTVSPropertyOp58
 70
     1
102
RTVSPropertyOp59
 70
     1
102
RTVSPropertyOp60
 70
     1
102
RTVSPropertyOp61
 70
     1
102
RTVSPropertyOp62
 70
     1
  0
XRECORD
  5
283
102
{ACAD_REACTORS
330
282
102
}
330
282
100
AcDbXrecord
280
     1
102
RTVSPost2010Prop28
280
     0
102
RTVSPost2010PropOp28
 70
     1
102
RTVSPost2010Prop29
280
     1
102
RTVSPost2010PropOp29
 70
     1
102
RTVSPost2010Prop30
280
     1
102
RTVSPost2010PropOp30
 70
     1
102
RTVSPost2010Prop31
280
     0
102
RTVSPost2010PropOp31
 70
     1
102
RTVSPost2010Prop32
280
     0
102
RTVSPost2010PropOp32
 70
     1
102
RTVSPost2010Prop33
280
     0
102
RTVSPost2010PropOp33
 70
     1
102
RTVSPost2010Prop34
280
     0
102
RTVSPost2010PropOp34
 70
     1
102
RTVSPost2010Prop35
280
     0
102
RTVSPost2010PropOp35
 70
     1
102
RTVSPost2010Prop36
280
     0
102
RTVSPost2010PropOp36
 70
     1
102
RTVSPost2010Prop37
 90
       50
102
RTVSPost2010PropOp37
 70
     1
102
RTVSPost2010Prop38
140
0.0
102
RTVSPost2010PropOp38
 70
     1
102
RTVSPost2010Prop39
140
1.0
102
RTVSPost2010PropOp39
 70
     1
102
RTVSPost2010Prop40
 90
        0
102
RTVSPost2010PropOp40
 70
     1
102
RTVSPost2010Prop41ColorIndex
 90
       18
102
RTVSPost2010Prop41ColorRGB
 90
        0
102
RTVSPost2010PropOp41
 70
     1
102
RTVSPost2010Prop42
 90
       50
102
RTVSPost2010PropOp42
 70
     1
102
RTVSPost2010Prop43
 90
        3
102
RTVSPost2010PropOp43
 70
     1
102
RTVSPost2010Prop44ColorIndex
 90
        5
102
RTVSPost2010Prop44ColorRGB
 90
      255
102
RTVSPost2010PropOp44
 70
     1
102
RTVSPost2010Prop45
280
     0
102
RTVSPost2010PropOp45
 70
     1
102
RTVSPost2010Prop46
 90
       50
102
RTVSPost2010PropOp46
 70
     1
102
RTVSPost2010Prop47
 90
       50
102
RTVSPost2010PropOp47
 70
     1
102
RTVSPost2010Prop48
 90
       50
102
RTVSPost2010PropOp48
 70
     1
102
RTVSPost2010Prop49
280
     0
102
RTVSPost2010PropOp49
 70
     1
102
RTVSPost2010Prop50
 90
       50
102
RTVSPost2010PropOp50
 70
     1
102
RTVSPost2010Prop51ColorIndex
 90
      256
102
RTVSPost2010Prop51ColorRGB
 90
-16777216
102
RTVSPost2010PropOp51
 70
     0
102
RTVSPost2010Prop52
140
1.0
102
RTVSPost2010PropOp52
 70
     0
102
RTVSPost2010Prop53
 90
        2
102
RTVSPost2010PropOp53
 70
     1
102
RTVSPost2010Prop54
  1
strokes_ogs.tif
102
RTVSPost2010PropOp54
 70
     1
102
RTVSPost2010Prop55
280
     0
102
RTVSPost2010PropOp55
 70
     1
102
RTVSPost2010Prop56
140
1.0
102
RTVSPost2010PropOp56
 70
     1
102
RTVSPost2010Prop57
140
1.0
102
RTVSPost2010PropOp57
 70
     1
102
RTVSPropertyOp0
 70
     1
102
RTVSPropertyOp1
 70
     1
102
RTVSPropertyOp2
 70
     1
102
RTVSPropertyOp3
 70
     1
102
RTVSPropertyOp4
 70
     1
102
RTVSPropertyOp5
 70
     1
102
RTVSPropertyOp6
 70
     1
102
RTVSPropertyOp7
 70
     1
102
RTVSPropertyOp8
 70
     1
102
RTVSPropertyOp9
 70
     1
102
RTVSPropertyOp10
 70
     1
102
RTVSPropertyOp11
 70
     1
102
RTVSPropertyOp12
 70
     1
102
RTVSPropertyOp13
 70
     1
102
RTVSPropertyOp14
 70
     1
102
RTVSPropertyOp15
 70
     1
102
RTVSPropertyOp16
 70
     1
102
RTVSPropertyOp17
 70
     1
102
RTVSPropertyOp18
 70
     1
102
RTVSPropertyOp19
 70
     1
102
RTVSPropertyOp20
 70
     1
102
RTVSPropertyOp21
 70
     1
102
RTVSPropertyOp22
 70
     1
102
RTVSPropertyOp23
 70
     1
102
RTVSPropertyOp24
 70
     1
102
RTVSPropertyOp25
 70
     1
102
RTVSPropertyOp26
 70
     1
102
RTVSPropertyOp27
 70
     1
102
RTVSPropertyOp28
 70
     1
102
RTVSPropertyOp29
 70
     1
102
RTVSPropertyOp30
 70
     1
102
RTVSPropertyOp31
 70
     1
102
RTVSPropertyOp32
 70
     1
102
RTVSPropertyOp33
 70
     1
102
RTVSPropertyOp34
 70
     1
102
RTVSPropertyOp35
 70
     1
102
RTVSPropertyOp36
 70
     1
102
RTVSPropertyOp37
 70
     1
102
RTVSPropertyOp38
 70
     1
102
RTVSPropertyOp39
 70
     1
102
RTVSPropertyOp40
 70
     1
102
RTVSPropertyOp41
 70
     1
102
RTVSPropertyOp42
 70
     1
102
RTVSPropertyOp43
 70
     1
102
RTVSPropertyOp44
 70
     1
102
RTVSPropertyOp45
 70
     1
102
RTVSPropertyOp46
 70
     1
102
RTVSPropertyOp47
 70
     1
102
RTVSPropertyOp48
 70
     1
102
RTVSPropertyOp49
 70
     1
102
RTVSPropertyOp50
 70
     1
102
RTVSPropertyOp51
 70
     0
102
RTVSPropertyOp52
 70
     0
102
RTVSPropertyOp53
 70
     1
102
RTVSPropertyOp54
 70
     1
102
RTVSPropertyOp55
 70
     1
102
RTVSPropertyOp56
 70
     1
102
RTVSPropertyOp57
 70
     1
102
RTVSPropertyOp58
 70
     1
102
RTVSPropertyOp59
 70
     1
102
RTVSPropertyOp60
 70
     1
102
RTVSPropertyOp61
 70
     1
102
RTVSPropertyOp62
 70
     1
  0
XRECORD
  5
299
102
{ACAD_REACTORS
330
298
102
}
330
298
100
AcDbXrecord
280
     1
102
RTVSPost2010Prop28
280
     0
102
RTVSPost2010PropOp28
 70
     1
102
RTVSPost2010Prop29
280
     1
102
RTVSPost2010PropOp29
 70
     1
102
RTVSPost2010Prop30
280
     1
102
RTVSPost2010PropOp30
 70
     1
102
RTVSPost2010Prop31
280
     0
102
RTVSPost2010PropOp31
 70
     1
102
RTVSPost2010Prop32
280
     0
102
RTVSPost2010PropOp32
 70
     1
102
RTVSPost2010Prop33
280
     0
102
RTVSPost2010PropOp33
 70
     1
102
RTVSPost2010Prop34
280
     0
102
RTVSPost2010PropOp34
 70
     1
102
RTVSPost2010Prop35
280
     0
102
RTVSPost2010PropOp35
 70
     1
102
RTVSPost2010Prop36
280
     0
102
RTVSPost2010PropOp36
 70
     1
102
RTVSPost2010Prop37
 90
       50
102
RTVSPost2010PropOp37
 70
     1
102
RTVSPost2010Prop38
140
0.0
102
RTVSPost2010PropOp38
 70
     1
102
RTVSPost2010Prop39
140
1.0
102
RTVSPost2010PropOp39
 70
     1
102
RTVSPost2010Prop40
 90
        0
102
RTVSPost2010PropOp40
 70
     1
102
RTVSPost2010Prop41ColorIndex
 90
       18
102
RTVSPost2010Prop41ColorRGB
 90
        0
102
RTVSPost2010PropOp41
 70
     1
102
RTVSPost2010Prop42
 90
       50
102
RTVSPost2010PropOp42
 70
     1
102
RTVSPost2010Prop43
 90
        3
102
RTVSPost2010PropOp43
 70
     1
102
RTVSPost2010Prop44ColorIndex
 90
        5
102
RTVSPost2010Prop44ColorRGB
 90
      255
102
RTVSPost2010PropOp44
 70
     1
102
RTVSPost2010Prop45
280
     0
102
RTVSPost2010PropOp45
 70
     1
102
RTVSPost2010Prop46
 90
       50
102
RTVSPost2010PropOp46
 70
     1
102
RTVSPost2010Prop47
 90
       50
102
RTVSPost2010PropOp47
 70
     1
102
RTVSPost2010Prop48
 90
       50
102
RTVSPost2010PropOp48
 70
     1
102
RTVSPost2010Prop49
280
     0
102
RTVSPost2010PropOp49
 70
     1
102
RTVSPost2010Prop50
 90
       50
102
RTVSPost2010PropOp50
 70
     1
102
RTVSPost2010Prop51ColorIndex
 90
      256
102
RTVSPost2010Prop51ColorRGB
 90
-16777216
102
RTVSPost2010PropOp51
 70
     0
102
RTVSPost2010Prop52
140
1.0
102
RTVSPost2010PropOp52
 70
     0
102
RTVSPost2010Prop53
 90
        2
102
RTVSPost2010PropOp53
 70
     1
102
RTVSPost2010Prop54
  1
strokes_ogs.tif
102
RTVSPost2010PropOp54
 70
     1
102
RTVSPost2010Prop55
280
     0
102
RTVSPost2010PropOp55
 70
     1
102
RTVSPost2010Prop56
140
1.0
102
RTVSPost2010PropOp56
 70
     1
102
RTVSPost2010Prop57
140
1.0
102
RTVSPost2010PropOp57
 70
     1
102
RTVSPropertyOp0
 70
     1
102
RTVSPropertyOp1
 70
     1
102
RTVSPropertyOp2
 70
     1
102
RTVSPropertyOp3
 70
     1
102
RTVSPropertyOp4
 70
     1
102
RTVSPropertyOp5
 70
     1
102
RTVSPropertyOp6
 70
     1
102
RTVSPropertyOp7
 70
     1
102
RTVSPropertyOp8
 70
     1
102
RTVSPropertyOp9
 70
     1
102
RTVSPropertyOp10
 70
     1
102
RTVSPropertyOp11
 70
     1
102
RTVSPropertyOp12
 70
     1
102
RTVSPropertyOp13
 70
     1
102
RTVSPropertyOp14
 70
     1
102
RTVSPropertyOp15
 70
     1
102
RTVSPropertyOp16
 70
     1
102
RTVSPropertyOp17
 70
     1
102
RTVSPropertyOp18
 70
     1
102
RTVSPropertyOp19
 70
     1
102
RTVSPropertyOp20
 70
     1
102
RTVSPropertyOp21
 70
     1
102
RTVSPropertyOp22
 70
     1
102
RTVSPropertyOp23
 70
     1
102
RTVSPropertyOp24
 70
     1
102
RTVSPropertyOp25
 70
     1
102
RTVSPropertyOp26
 70
     1
102
RTVSPropertyOp27
 70
     1
102
RTVSPropertyOp28
 70
     1
102
RTVSPropertyOp29
 70
     1
102
RTVSPropertyOp30
 70
     1
102
RTVSPropertyOp31
 70
     1
102
RTVSPropertyOp32
 70
     1
102
RTVSPropertyOp33
 70
     1
102
RTVSPropertyOp34
 70
     1
102
RTVSPropertyOp35
 70
     1
102
RTVSPropertyOp36
 70
     1
102
RTVSPropertyOp37
 70
     1
102
RTVSPropertyOp38
 70
     1
102
RTVSPropertyOp39
 70
     1
102
RTVSPropertyOp40
 70
     1
102
RTVSPropertyOp41
 70
     1
102
RTVSPropertyOp42
 70
     1
102
RTVSPropertyOp43
 70
     1
102
RTVSPropertyOp44
 70
     1
102
RTVSPropertyOp45
 70
     1
102
RTVSPropertyOp46
 70
     1
102
RTVSPropertyOp47
 70
     1
102
RTVSPropertyOp48
 70
     1
102
RTVSPropertyOp49
 70
     1
102
RTVSPropertyOp50
 70
     1
102
RTVSPropertyOp51
 70
     0
102
RTVSPropertyOp52
 70
     0
102
RTVSPropertyOp53
 70
     1
102
RTVSPropertyOp54
 70
     1
102
RTVSPropertyOp55
 70
     1
102
RTVSPropertyOp56
 70
     1
102
RTVSPropertyOp57
 70
     1
102
RTVSPropertyOp58
 70
     1
102
RTVSPropertyOp59
 70
     1
102
RTVSPropertyOp60
 70
     1
102
RTVSPropertyOp61
 70
     1
102
RTVSPropertyOp62
 70
     1
  0
ENDSEC
  0
EOF
