  0
SECTION
  2
HEADER
  9
$ACADVER
  1
AC1015
  9
$ACADMAINTVER
 70
    20
  9
$DWGCODEPAGE
  3
ANSI_1252
  9
$INSBASE
 10
0.0
 20
0.0
 30
0.0
  9
$EXTMIN
 10
0.099972316247897
 20
-9.743753660441576
 30
0.0
  9
$EXTMAX
 10
49.12270611296126
 20
8.400596125385876
 30
0.0
  9
$LIMMIN
 10
0.2359522602697649
 20
3.101955288426339
  9
$LIMMAX
 10
10.77946715011551
 20
3.247206699522455
  9
$ORTHOMODE
 70
     0
  9
$REGENMODE
 70
     1
  9
$FILLMODE
 70
     1
  9
$QTEXTMODE
 70
     0
  9
$MIRRTEXT
 70
     1
  9
$LTSCALE
 40
1.0
  9
$ATTMODE
 70
     1
  9
$TEXTSIZE
 40
0.2
  9
$TRACEWID
 40
0.05
  9
$TEXTSTYLE
  7
TECHNIC
  9
$CLAYER
  8
0
  9
$CELTYPE
  6
ByLayer
  9
$CECOLOR
 62
   256
  9
$CELTSCALE
 40
1.0
  9
$DISPSILH
 70
     0
  9
$DIMSCALE
 40
1.0
  9
$DIMASZ
 40
0.18
  9
$DIMEXO
 40
0.0625
  9
$DIMDLI
 40
0.38
  9
$DIMRND
 40
0.0
  9
$DIMDLE
 40
0.0
  9
$DIMEXE
 40
0.18
  9
$DIMTP
 40
0.0
  9
$DIMTM
 40
0.0
  9
$DIMTXT
 40
0.18
  9
$DIMCEN
 40
0.09
  9
$DIMTSZ
 40
0.0
  9
$DIMTOL
 70
     0
  9
$DIMLIM
 70
     0
  9
$DIMTIH
 70
     1
  9
$DIMTOH
 70
     1
  9
$DIMSE1
 70
     0
  9
$DIMSE2
 70
     0
  9
$DIMTAD
 70
     0
  9
$DIMZIN
 70
     0
  9
$DIMBLK
  1

  9
$DIMASO
 70
     1
  9
$DIMSHO
 70
     0
  9
$DIMPOST
  1

  9
$DIMAPOST
  1

  9
$DIMALT
 70
     0
  9
$DIMALTD
 70
     2
  9
$DIMALTF
 40
25.4
  9
$DIMLFAC
 40
1.0
  9
$DIMTOFL
 70
     0
  9
$DIMTVP
 40
0.0
  9
$DIMTIX
 70
     0
  9
$DIMSOXD
 70
     0
  9
$DIMSAH
 70
     0
  9
$DIMBLK1
  1

  9
$DIMBLK2
  1

  9
$DIMSTYLE
  2
Standard
  9
$DIMCLRD
 70
     0
  9
$DIMCLRE
 70
     0
  9
$DIMCLRT
 70
     0
  9
$DIMTFAC
 40
1.0
  9
$DIMGAP
 40
0.09
  9
$DIMJUST
 70
     0
  9
$DIMSD1
 70
     0
  9
$DIMSD2
 70
     0
  9
$DIMTOLJ
 70
     1
  9
$DIMTZIN
 70
     0
  9
$DIMALTZ
 70
     0
  9
$DIMALTTZ
 70
     0
  9
$DIMUPT
 70
     0
  9
$DIMDEC
 70
     3
  9
$DIMTDEC
 70
     3
  9
$DIMALTU
 70
     2
  9
$DIMALTTD
 70
     2
  9
$DIMTXSTY
  7
TECHNIC
  9
$DIMAUNIT
 70
     0
  9
$DIMADEC
 70
     0
  9
$DIMALTRND
 40
0.0
  9
$DIMAZIN
 70
     0
  9
$DIMDSEP
 70
    46
  9
$DIMATFIT
 70
     3
  9
$DIMFRAC
 70
     0
  9
$DIMLDRBLK
  1

  9
$DIMLUNIT
 70
     2
  9
$DIMLWD
 70
    -2
  9
$DIMLWE
 70
    -2
  9
$DIMTMOVE
 70
     0
  9
$LUNITS
 70
     2
  9
$LUPREC
 70
     3
  9
$SKETCHINC
 40
0.1
  9
$FILLETRAD
 40
0.0
  9
$AUNITS
 70
     0
  9
$AUPREC
 70
     0
  9
$MENU
  1
acad
  9
$ELEVATION
 40
0.0
  9
$PELEVATION
 40
0.0
  9
$THICKNESS
 40
0.0
  9
$LIMCHECK
 70
     0
  9
$CHAMFERA
 40
0.0
  9
$CHAMFERB
 40
0.0
  9
$CHAMFERC
 40
0.0
  9
$CHAMFERD
 40
0.0
  9
$SKPOLY
 70
     0
  9
$TDCREATE
 40
2458080.687511574
  9
$TDUCREATE
 40
2458080.895847211
  9
$TDUPDATE
 40
2459936.415682871
  9
$TDUUPDATE
 40
2459936.624016204
  9
$TDINDWG
 40
1.0022087963
  9
$TDUSRTIMER
 40
1.0022087616
  9
$USRTIMER
 70
     1
  9
$ANGBASE
 50
0.0
  9
$ANGDIR
 70
     0
  9
$PDMODE
 70
     0
  9
$PDSIZE
 40
0.0
  9
$PLINEWID
 40
0.0
  9
$SPLFRAME
 70
     0
  9
$SPLINETYPE
 70
     6
  9
$SPLINESEGS
 70
     8
  9
$HANDSEED
  5
2251D
  9
$SURFTAB1
 70
     6
  9
$SURFTAB2
 70
     6
  9
$SURFTYPE
 70
     6
  9
$SURFU
 70
     6
  9
$SURFV
 70
     6
  9
$UCSBASE
  2

  9
$UCSNAME
  2

  9
$UCSORG
 10
0.0
 20
0.0
 30
0.0
  9
$UCSXDIR
 10
1.0
 20
0.0
 30
0.0
  9
$UCSYDIR
 10
0.0
 20
1.0
 30
0.0
  9
$UCSORTHOREF
  2

  9
$UCSORTHOVIEW
 70
     0
  9
$UCSORGTOP
 10
0.0
 20
0.0
 30
0.0
  9
$UCSORGBOTTOM
 10
0.0
 20
0.0
 30
0.0
  9
$UCSORGLEFT
 10
0.0
 20
0.0
 30
0.0
  9
$UCSORGRIGHT
 10
0.0
 20
0.0
 30
0.0
  9
$UCSORGFRONT
 10
0.0
 20
0.0
 30
0.0
  9
$UCSORGBACK
 10
0.0
 20
0.0
 30
0.0
  9
$PUCSBASE
  2

  9
$PUCSNAME
  2

  9
$PUCSORG
 10
0.0
 20
0.0
 30
0.0
  9
$PUCSXDIR
 10
1.0
 20
0.0
 30
0.0
  9
$PUCSYDIR
 10
0.0
 20
1.0
 30
0.0
  9
$PUCSORTHOREF
  2

  9
$PUCSORTHOVIEW
 70
     0
  9
$PUCSORGTOP
 10
0.0
 20
0.0
 30
0.0
  9
$PUCSORGBOTTOM
 10
0.0
 20
0.0
 30
0.0
  9
$PUCSORGLEFT
 10
0.0
 20
0.0
 30
0.0
  9
$PUCSORGRIGHT
 10
0.0
 20
0.0
 30
0.0
  9
$PUCSORGFRONT
 10
0.0
 20
0.0
 30
0.0
  9
$PUCSORGBACK
 10
0.0
 20
0.0
 30
0.0
  9
$USERI1
 70
     0
  9
$USERI2
 70
     0
  9
$USERI3
 70
     0
  9
$USERI4
 70
     0
  9
$USERI5
 70
     0
  9
$USERR1
 40
0.0
  9
$USERR2
 40
0.0
  9
$USERR3
 40
0.0
  9
$USERR4
 40
0.0
  9
$USERR5
 40
0.0
  9
$WORLDVIEW
 70
     1
  9
$SHADEDGE
 70
     3
  9
$SHADEDIF
 70
    70
  9
$TILEMODE
 70
     1
  9
$MAXACTVP
 70
    16
  9
$PINSBASE
 10
0.0
 20
0.0
 30
0.0
  9
$PLIMCHECK
 70
     0
  9
$PEXTMIN
 10
1.000000000000000E+20
 20
1.000000000000000E+20
 30
1.000000000000000E+20
  9
$PEXTMAX
 10
-1.000000000000000E+20
 20
-1.000000000000000E+20
 30
-1.000000000000000E+20
  9
$PLIMMIN
 10
0.0
 20
0.0
  9
$PLIMMAX
 10
12.0
 20
9.0
  9
$UNITMODE
 70
     0
  9
$VISRETAIN
 70
     0
  9
$PLINEGEN
 70
     0
  9
$PSLTSCALE
 70
     0
  9
$TREEDEPTH
 70
  3020
  9
$CMLSTYLE
  2
Standard
  9
$CMLJUST
 70
     0
  9
$CMLSCALE
 40
1.0
  9
$PROXYGRAPHICS
 70
     1
  9
$MEASUREMENT
 70
     0
  9
$CELWEIGHT
370
    -1
  9
$ENDCAPS
280
     0
  9
$JOINSTYLE
280
     0
  9
$LWDISPLAY
290
     0
  9
$INSUNITS
 70
     0
  9
$HYPERLINKBASE
  1

  9
$STYLESHEET
  1
MONOCHROME.CTB
  9
$XEDIT
290
     1
  9
$CEPSNTYPE
380
     0
  9
$PSTYLEMODE
290
     1
  9
$FINGERPRINTGUID
  2
{3384B52F-A731-45C6-8F7F-C11610DDD456}
  9
$VERSIONGUID
  2
{0FB51690-99A3-814B-8F96-CB7D46CA7DB1}
  9
$EXTNAMES
290
     1
  9
$PSVPSCALE
 40
0.0
  9
$OLESTARTUP
290
     0
  0
ENDSEC
  0
SECTION
  2
CLASSES
  0
CLASS
  1
ACDBDICTIONARYWDFLT
  2
AcDbDictionaryWithDefault
  3
ObjectDBX Classes
 90
        0
280
     0
281
     0
  0
CLASS
  1
ACDBPLACEHOLDER
  2
AcDbPlaceHolder
  3
ObjectDBX Classes
 90
        0
280
     0
281
     0
  0
CLASS
  1
LAYOUT
  2
AcDbLayout
  3
ObjectDBX Classes
 90
        0
280
     0
281
     0
  0
CLASS
  1
MATERIAL
  2
AcDbMaterial
  3
ObjectDBX Classes
 90
     1153
280
     0
281
     0
  0
CLASS
  1
VISUALSTYLE
  2
AcDbVisualStyle
  3
ObjectDBX Classes
 90
     4095
280
     0
281
     0
  0
CLASS
  1
TABLESTYLE
  2
AcDbTableStyle
  3
ObjectDBX Classes
 90
     4095
280
     0
281
     0
  0
CLASS
  1
SCALE
  2
AcDbScale
  3
ObjectDBX Classes
 90
     1153
280
     0
281
     0
  0
CLASS
  1
MLEADERSTYLE
  2
AcDbMLeaderStyle
  3
ACDB_MLEADERSTYLE_CLASS
 90
     4095
280
     0
281
     0
  0
CLASS
  1
CELLSTYLEMAP
  2
AcDbCellStyleMap
  3
ObjectDBX Classes
 90
     1152
280
     0
281
     0
  0
CLASS
  1
DICTIONARYVAR
  2
AcDbDictionaryVar
  3
ObjectDBX Classes
 90
        0
280
     0
281
     0
  0
CLASS
  1
AEC_REFEDIT_STATUS_TRACKER
  2
AecDbRefEditStatusTracker
  3
AecArchBase70|Product Desc: Autodesk Architectural Desktop 2007 |Company: Autodesk,Inc. |WEB Address: www.autodesk.com
 90
    32897
280
     0
281
     0
  0
CLASS
  1
NPOCOLLECTION
  2
AcDbImpNonPersistentObjectsCollection
  3
ObjectDBX Classes
 90
    33921
280
     0
281
     0
  0
CLASS
  1
DIMASSOC
  2
AcDbDimAssoc
  3
"AcDbDimAssoc|Product Desc:     AcDim ARX App For Dimension|Company:          Autodesk, Inc.|WEB Address:      www.autodesk.com"
 90
    32768
280
     0
281
     0
  0
CLASS
  1
SORTENTSTABLE
  2
AcDbSortentsTable
  3
ObjectDBX Classes
 90
        0
280
     0
281
     0
  0
CLASS
  1
ACDBSECTIONVIEWSTYLE
  2
AcDbSectionViewStyle
  3
ObjectDBX Classes
 90
     1025
280
     0
281
     0
  0
CLASS
  1
ACDBDETAILVIEWSTYLE
  2
AcDbDetailViewStyle
  3
ObjectDBX Classes
 90
     1025
280
     0
281
     0
  0
CLASS
  1
PLOTSETTINGS
  2
AcDbPlotSettings
  3
ObjectDBX Classes
 90
        0
280
     0
281
     0
  0
CLASS
  1
ACARRAYJIGENTITY
  2
AcArrayJigEntity
  3
ACAD_ARRAY
 90
    32897
280
     0
281
     1
  0
CLASS
  1
ACDBASSOCNETWORK
  2
AcDbAssocNetwork
  3
ObjectDBX Classes
 90
    33793
280
     0
281
     0
  0
CLASS
  1
ACDBASSOCACTION
  2
AcDbAssocAction
  3
ObjectDBX Classes
 90
    33793
280
     0
281
     0
  0
CLASS
  1
ACDBASSOCARRAYACTIONBODY
  2
AcDbAssocArrayActionBody
  3
ObjectDBX Classes
 90
    33793
280
     0
281
     0
  0
CLASS
  1
ACDBASSOCVERTEXACTIONPARAM
  2
AcDbAssocVertexActionParam
  3
ObjectDBX Classes
 90
    33793
280
     0
281
     0
  0
CLASS
  1
ACDBASSOCDEPENDENCY
  2
AcDbAssocDependency
  3
ObjectDBX Classes
 90
    33793
280
     0
281
     0
  0
CLASS
  1
ACDBASSOCARRAYRECTANGULARPARAMETERS
  2
AcDbAssocArrayRectangularParameters
  3
ObjectDBX Classes
 90
    33793
280
     0
281
     0
  0
CLASS
  1
ACDBASSOCENTITYCLONEACTIONBODY
  2
AcDbAssocEntityCloneActionBody
  3
ObjectDBX Classes
 90
    33793
280
     0
281
     0
  0
CLASS
  1
SOLID_BACKGROUND
  2
AcDbSolidBackground
  3
SCENEOE
 90
    36863
280
     0
281
     0
  0
ENDSEC
  0
SECTION
  2
TABLES
  0
TABLE
  2
VPORT
  5
15BE7
102
{ACAD_XDICTIONARY
360
1741E
102
}
330
0
100
AcDbSymbolTable
 70
     1
  0
VPORT
  5
15CCE
330
15BE7
100
AcDbSymbolTableRecord
100
AcDbViewportTableRecord
  2
*Active
 70
     0
 10
0.0
 20
0.0
 11
1.0
 21
1.0
 12
-5.911412936002193
 22
13.22552638736859
 13
0.0
 23
0.0
 14
1.0
 24
1.0
 15
0.0
 25
0.0
 16
0.0
 26
0.0
 36
46.895216572412
 17
37.80114223800326
 27
-17.93661466528358
 37
0.0
 40
12.33019099483782
 41
2.091463414634146
 42
50.0
 43
0.0
 44
0.0
 50
0.0
 51
0.0
 71
     0
 72
   100
 73
     1
 74
     0
 75
     0
 76
     0
 77
     0
 78
     0
281
     0
 65
     1
110
0.0
120
0.0
130
0.0
111
1.0
121
0.0
131
0.0
112
0.0
122
1.0
132
0.0
 79
     0
146
0.0
1001
ACAD_NAV_VCDISPLAY
1070
     3
  0
ENDTAB
  0
TABLE
  2
LTYPE
  5
15BE4
330
0
100
AcDbSymbolTable
 70
     4
  0
LTYPE
  5
15BF2
330
15BE4
100
AcDbSymbolTableRecord
100
AcDbLinetypeTableRecord
  2
ByBlock
 70
     0
  3

 72
    65
 73
     0
 40
0.0
  0
LTYPE
  5
15BF3
330
15BE4
100
AcDbSymbolTableRecord
100
AcDbLinetypeTableRecord
  2
ByLayer
 70
     0
  3

 72
    65
 73
     0
 40
0.0
  0
LTYPE
  5
15BF4
330
15BE4
100
AcDbSymbolTableRecord
100
AcDbLinetypeTableRecord
  2
CONTINUOUS
 70
     0
  3
Solid line
 72
    65
 73
     0
 40
0.0
  0
LTYPE
  5
15C35
330
15BE4
100
AcDbSymbolTableRecord
100
AcDbLinetypeTableRecord
  2
HIDDEN
 70
     0
  3
_ _ _ _ _ _ _ _ _ _ _ _ _ _ _ _ _ _ _ _ _ _ _
 72
    65
 73
     2
 40
0.375
 49
0.25
 74
     0
 49
-0.125
 74
     0
  0
LTYPE
  5
15C36
330
15BE4
100
AcDbSymbolTableRecord
100
AcDbLinetypeTableRecord
  2
CENTER
 70
     0
  3
____ _ ____ _ ____ _ ____ _ ____ _ ____ _ ____
 72
    65
 73
     4
 40
2.0
 49
1.25
 74
     0
 49
-0.25
 74
     0
 49
0.25
 74
     0
 49
-0.25
 74
     0
  0
LTYPE
  5
15C37
330
15BE4
100
AcDbSymbolTableRecord
100
AcDbLinetypeTableRecord
  2
PHANTOM
 70
     0
  3
_____ _ _ _____ _ _ _____ _ _ _____ _ _ ____
 72
    65
 73
     6
 40
2.5
 49
1.25
 74
     0
 49
-0.25
 74
     0
 49
0.25
 74
     0
 49
-0.25
 74
     0
 49
0.25
 74
     0
 49
-0.25
 74
     0
  0
ENDTAB
  0
TABLE
  2
LAYER
  5
15BE1
102
{ACAD_XDICTIONARY
360
15FAB
102
}
330
0
100
AcDbSymbolTable
 70
     8
  0
LAYER
  5
15BEF
102
{ACAD_XDICTIONARY
360
15D2F
102
}
330
15BE1
100
AcDbSymbolTableRecord
100
AcDbLayerTableRecord
  2
0
 70
     0
 62
     7
  6
CONTINUOUS
370
    -3
390
15BEE
  0
LAYER
  5
15C3E
102
{ACAD_XDICTIONARY
360
15D35
102
}
330
15BE1
100
AcDbSymbolTableRecord
100
AcDbLayerTableRecord
  2
BLU
 70
     0
 62
     5
  6
CONTINUOUS
370
    -3
390
15BEE
  0
LAYER
  5
15C43
330
15BE1
100
AcDbSymbolTableRecord
100
AcDbLayerTableRecord
  2
DEFPOINTS
 70
     0
 62
     7
  6
CONTINUOUS
290
     0
370
    -3
390
15BEE
  0
LAYER
  5
15C45
102
{ACAD_XDICTIONARY
360
15D41
102
}
330
15BE1
100
AcDbSymbolTableRecord
100
AcDbLayerTableRecord
  2
ASHADE
 70
     0
 62
     7
  6
CONTINUOUS
370
    -3
390
15BEE
  0
LAYER
  5
15C46
102
{ACAD_XDICTIONARY
360
15D43
102
}
330
15BE1
100
AcDbSymbolTableRecord
100
AcDbLayerTableRecord
  2
AME_FRZ
 70
     0
 62
     7
  6
CONTINUOUS
370
    -3
390
15BEE
  0
LAYER
  5
1752D
102
{ACAD_XDICTIONARY
360
17561
102
}
330
15BE1
100
AcDbSymbolTableRecord
100
AcDbLayerTableRecord
  2
TEXT
 70
     0
 62
     7
  6
CONTINUOUS
370
    -3
390
15BEE
1001
AcAecLayerStandard
1000

1000

1001
AcCmTransparency
1071
        0
  0
LAYER
  5
1CA55
330
15BE1
100
AcDbSymbolTableRecord
100
AcDbLayerTableRecord
  2
DIMENSIONS
 70
     0
 62
     1
  6
CONTINUOUS
370
    -3
390
15BEE
  0
LAYER
  5
1E8FF
330
15BE1
100
AcDbSymbolTableRecord
100
AcDbLayerTableRecord
  2
ADSK_ASSOC_ENTITY_BACKUPS
 70
     5
 62
    -7
  6
CONTINUOUS
370
    -3
390
15BEE
  0
ENDTAB
  0
TABLE
  2
STYLE
  5
15BE2
330
0
100
AcDbSymbolTable
 70
     2
  0
STYLE
  5
15BF0
330
15BE2
100
AcDbSymbolTableRecord
100
AcDbTextStyleTableRecord
  2
STANDARD
 70
     0
 40
0.0
 41
1.0
 50
0.0
 71
     0
 42
0.2
  3
txt
  4

  0
STYLE
  5
15C34
330
15BE2
100
AcDbSymbolTableRecord
100
AcDbTextStyleTableRecord
  2
TECHNIC
 70
     0
 40
0.0
 41
1.0
 50
0.0
 71
     0
 42
0.2
  3
swissck.ttf
  4

1001
ACAD
1000
Swis721 BlkCn BT
1071
       34
  0
ENDTAB
  0
TABLE
  2
VIEW
  5
15BE5
330
0
100
AcDbSymbolTable
 70
     0
  0
ENDTAB
  0
TABLE
  2
UCS
  5
15BE6
330
0
100
AcDbSymbolTable
 70
     0
  0
ENDTAB
  0
TABLE
  2
APPID
  5
15BE8
330
0
100
AcDbSymbolTable
 70
    16
  0
APPID
  5
15BF1
330
15BE8
100
AcDbSymbolTableRecord
100
AcDbRegAppTableRecord
  2
ACAD
 70
     0
  0
APPID
  5
15C3A
330
15BE8
100
AcDbSymbolTableRecord
100
AcDbRegAppTableRecord
  2
AVE_RENDER
 70
     0
  0
APPID
  5
15C3B
330
15BE8
100
AcDbSymbolTableRecord
100
AcDbRegAppTableRecord
  2
AME_SOL
 70
     0
  0
APPID
  5
15D21
330
15BE8
100
AcDbSymbolTableRecord
100
AcDbRegAppTableRecord
  2
ACAD_MLEADERVER
 70
     0
  0
APPID
  5
15D52
330
15BE8
100
AcDbSymbolTableRecord
100
AcDbRegAppTableRecord
  2
ACAD_DSTYLE_DIMJAG
 70
     0
  0
APPID
  5
15D53
330
15BE8
100
AcDbSymbolTableRecord
100
AcDbRegAppTableRecord
  2
ACAD_DSTYLE_DIMTALN
 70
     0
  0
APPID
  5
15E42
330
15BE8
100
AcDbSymbolTableRecord
100
AcDbRegAppTableRecord
  2
ACAD_DSTYLE_DIMRADIAL_EXTENSION
 70
     0
  0
APPID
  5
15EAE
330
15BE8
100
AcDbSymbolTableRecord
100
AcDbRegAppTableRecord
  2
ACAD_EXEMPT_FROM_CAD_STANDARDS
 70
     0
  0
APPID
  5
16059
330
15BE8
100
AcDbSymbolTableRecord
100
AcDbRegAppTableRecord
  2
ACAD_PSEXT
 70
     0
  0
APPID
  5
16E1F
330
15BE8
100
AcDbSymbolTableRecord
100
AcDbRegAppTableRecord
  2
AcadAnnoPO
 70
     0
  0
APPID
  5
16E20
330
15BE8
100
AcDbSymbolTableRecord
100
AcDbRegAppTableRecord
  2
AcadAnnotative
 70
     0
  0
APPID
  5
174D9
330
15BE8
100
AcDbSymbolTableRecord
100
AcDbRegAppTableRecord
  2
ACAD_NAV_VCDISPLAY
 70
     0
  0
APPID
  5
17529
330
15BE8
100
AcDbSymbolTableRecord
100
AcDbRegAppTableRecord
  2
AcLayerTools
 70
     0
  0
APPID
  5
1752F
330
15BE8
100
AcDbSymbolTableRecord
100
AcDbRegAppTableRecord
  2
ACAD_DSTYLE_DIMBREAK
 70
     0
  0
APPID
  5
17530
330
15BE8
100
AcDbSymbolTableRecord
100
AcDbRegAppTableRecord
  2
AcAecLayerStandard
 70
     0
  0
APPID
  5
17531
330
15BE8
100
AcDbSymbolTableRecord
100
AcDbRegAppTableRecord
  2
AcCmTransparency
 70
     0
  0
ENDTAB
  0
TABLE
  2
DIMSTYLE
  5
15BE9
330
0
100
AcDbSymbolTable
 70
     1
100
AcDbDimStyleTable
 71
     1
340
15C53
  0
DIMSTYLE
105
15C53
102
{ACAD_REACTORS
330
21D87
330
21D88
330
21D89
330
21D8A
102
}
330
15BE9
100
AcDbSymbolTableRecord
100
AcDbDimStyleTableRecord
  2
Standard
 70
     0
271
     3
272
     3
340
15C34
1001
ACAD_DSTYLE_DIMJAG
1070
   388
1040
1.5
1001
ACAD_DSTYLE_DIMTALN
1070
   392
1070
     0
  0
ENDTAB
  0
TABLE
  2
BLOCK_RECORD
  5
15BE0
330
0
100
AcDbSymbolTable
 70
    35
  0
BLOCK_RECORD
  5
15BFD
102
{ACAD_XDICTIONARY
360
16FD3
102
}
330
15BE0
100
AcDbSymbolTableRecord
100
AcDbBlockTableRecord
  2
*Model_Space
340
15C00
  0
BLOCK_RECORD
  5
15BF9
330
15BE0
100
AcDbSymbolTableRecord
100
AcDbBlockTableRecord
  2
*Paper_Space
340
15BFC
  0
BLOCK_RECORD
  5
15C05
330
15BE0
100
AcDbSymbolTableRecord
100
AcDbBlockTableRecord
  2
AVE_RENDER
340
0
102
{BLKREFS
331
D3
331
D4
331
D5
331
12EF9
331
12EFA
331
12EFB
331
13C17
331
13C18
331
13C19
331
14F05
331
14F06
331
14F07
331
158DA
331
158DB
331
158DC
102
}
  0
BLOCK_RECORD
  5
15C07
330
15BE0
100
AcDbSymbolTableRecord
100
AcDbBlockTableRecord
  2
AME_NIL
340
0
102
{BLKREFS
331
12E78
102
}
  0
BLOCK_RECORD
  5
15C08
330
15BE0
100
AcDbSymbolTableRecord
100
AcDbBlockTableRecord
  2
AME_SOL
340
0
102
{BLKREFS
331
12E79
102
}
  0
BLOCK_RECORD
  5
219B2
330
15BE0
100
AcDbSymbolTableRecord
100
AcDbBlockTableRecord
  2
*D3
340
0
  0
BLOCK_RECORD
  5
219C0
330
15BE0
100
AcDbSymbolTableRecord
100
AcDbBlockTableRecord
  2
*D4
340
0
  0
BLOCK_RECORD
  5
219CF
330
15BE0
100
AcDbSymbolTableRecord
100
AcDbBlockTableRecord
  2
*D5
340
0
  0
BLOCK_RECORD
  5
219DE
330
15BE0
100
AcDbSymbolTableRecord
100
AcDbBlockTableRecord
  2
*D6
340
0
  0
BLOCK_RECORD
  5
21BFB
330
15BE0
100
AcDbSymbolTableRecord
100
AcDbBlockTableRecord
  2
*D7
340
0
  0
BLOCK_RECORD
  5
21C08
330
15BE0
100
AcDbSymbolTableRecord
100
AcDbBlockTableRecord
  2
*D8
340
0
  0
BLOCK_RECORD
  5
21C16
330
15BE0
100
AcDbSymbolTableRecord
100
AcDbBlockTableRecord
  2
*D9
340
0
  0
BLOCK_RECORD
  5
21C24
330
15BE0
100
AcDbSymbolTableRecord
100
AcDbBlockTableRecord
  2
*D10
340
0
  0
BLOCK_RECORD
  5
21C5F
330
15BE0
100
AcDbSymbolTableRecord
100
AcDbBlockTableRecord
  2
*D11
340
0
  0
BLOCK_RECORD
  5
21C6C
330
15BE0
100
AcDbSymbolTableRecord
100
AcDbBlockTableRecord
  2
*D12
340
0
  0
BLOCK_RECORD
  5
21C7A
330
15BE0
100
AcDbSymbolTableRecord
100
AcDbBlockTableRecord
  2
*D13
340
0
  0
BLOCK_RECORD
  5
21C88
330
15BE0
100
AcDbSymbolTableRecord
100
AcDbBlockTableRecord
  2
*D14
340
0
  0
BLOCK_RECORD
  5
21CC3
330
15BE0
100
AcDbSymbolTableRecord
100
AcDbBlockTableRecord
  2
*D15
340
0
  0
BLOCK_RECORD
  5
21CD0
330
15BE0
100
AcDbSymbolTableRecord
100
AcDbBlockTableRecord
  2
*D16
340
0
  0
BLOCK_RECORD
  5
21CDE
330
15BE0
100
AcDbSymbolTableRecord
100
AcDbBlockTableRecord
  2
*D17
340
0
  0
BLOCK_RECORD
  5
21CEC
330
15BE0
100
AcDbSymbolTableRecord
100
AcDbBlockTableRecord
  2
*D18
340
0
  0
BLOCK_RECORD
  5
21D27
330
15BE0
100
AcDbSymbolTableRecord
100
AcDbBlockTableRecord
  2
*D19
340
0
  0
BLOCK_RECORD
  5
21D34
330
15BE0
100
AcDbSymbolTableRecord
100
AcDbBlockTableRecord
  2
*D20
340
0
  0
BLOCK_RECORD
  5
21D42
330
15BE0
100
AcDbSymbolTableRecord
100
AcDbBlockTableRecord
  2
*D21
340
0
  0
BLOCK_RECORD
  5
21D50
330
15BE0
100
AcDbSymbolTableRecord
100
AcDbBlockTableRecord
  2
*D22
340
0
  0
BLOCK_RECORD
  5
21D8B
330
15BE0
100
AcDbSymbolTableRecord
100
AcDbBlockTableRecord
  2
*D23
340
0
  0
BLOCK_RECORD
  5
21D98
330
15BE0
100
AcDbSymbolTableRecord
100
AcDbBlockTableRecord
  2
*D24
340
0
  0
BLOCK_RECORD
  5
21DA6
330
15BE0
100
AcDbSymbolTableRecord
100
AcDbBlockTableRecord
  2
*D25
340
0
  0
BLOCK_RECORD
  5
21DB4
330
15BE0
100
AcDbSymbolTableRecord
100
AcDbBlockTableRecord
  2
*D26
340
0
  0
BLOCK_RECORD
  5
21DEF
330
15BE0
100
AcDbSymbolTableRecord
100
AcDbBlockTableRecord
  2
*D27
340
0
  0
BLOCK_RECORD
  5
21DFC
330
15BE0
100
AcDbSymbolTableRecord
100
AcDbBlockTableRecord
  2
*D28
340
0
  0
BLOCK_RECORD
  5
21E0A
330
15BE0
100
AcDbSymbolTableRecord
100
AcDbBlockTableRecord
  2
*D29
340
0
  0
BLOCK_RECORD
  5
21E18
330
15BE0
100
AcDbSymbolTableRecord
100
AcDbBlockTableRecord
  2
*D30
340
0
  0
BLOCK_RECORD
  5
21E53
330
15BE0
100
AcDbSymbolTableRecord
100
AcDbBlockTableRecord
  2
*D31
340
0
  0
BLOCK_RECORD
  5
21E60
330
15BE0
100
AcDbSymbolTableRecord
100
AcDbBlockTableRecord
  2
*D32
340
0
  0
BLOCK_RECORD
  5
21E6E
330
15BE0
100
AcDbSymbolTableRecord
100
AcDbBlockTableRecord
  2
*D33
340
0
  0
BLOCK_RECORD
  5
21E7C
330
15BE0
100
AcDbSymbolTableRecord
100
AcDbBlockTableRecord
  2
*D34
340
0
  0
ENDTAB
  0
ENDSEC
  0
SECTION
  2
BLOCKS
  0
BLOCK
  5
15C49
330
15BFD
100
AcDbEntity
  8
0
 62
     5
100
AcDbBlockBegin
  2
*Model_Space
 70
     0
 10
0.0
 20
0.0
 30
0.0
  3
*Model_Space
  1

  0
ENDBLK
  5
15C4A
330
15BFD
100
AcDbEntity
  8
0
 62
     5
100
AcDbBlockEnd
  0
BLOCK
  5
15C47
330
15BF9
100
AcDbEntity
 67
     1
  8
0
 62
     5
100
AcDbBlockBegin
  2
*Paper_Space
 70
     0
 10
0.0
 20
0.0
 30
0.0
  3
*Paper_Space
  1

  0
ENDBLK
  5
15C48
330
15BF9
100
AcDbEntity
 67
     1
  8
0
 62
     5
100
AcDbBlockEnd
  0
BLOCK
  5
D1
330
15C05
100
AcDbEntity
  8
0
 62
     5
100
AcDbBlockBegin
  2
AVE_RENDER
 70
     0
 10
0.0
 20
0.0
 30
0.0
  3
AVE_RENDER
  1
AVE_RENDER
  0
ENDBLK
  5
D2
330
15C05
100
AcDbEntity
  8
0
100
AcDbBlockEnd
  0
BLOCK
  5
343B
330
15C07
100
AcDbEntity
  8
0
100
AcDbBlockBegin
  2
AME_NIL
 70
     0
 10
0.0
 20
0.0
 30
0.0
  3
AME_NIL
  1
AME_NIL
  0
ENDBLK
  5
343C
330
15C07
100
AcDbEntity
  8
0
100
AcDbBlockEnd
  0
BLOCK
  5
343E
330
15C08
100
AcDbEntity
  8
0
100
AcDbBlockBegin
  2
AME_SOL
 70
     0
 10
0.0
 20
0.0
 30
0.0
  3
AME_SOL
  1
AME_SOL
  0
ENDBLK
  5
343F
330
15C08
100
AcDbEntity
  8
0
100
AcDbBlockEnd
  0
BLOCK
  5
219B3
330
219B2
100
AcDbEntity
  8
0
100
AcDbBlockBegin
  2
*D3
 70
     1
 10
0.0
 20
0.0
 30
0.0
  3
*D3
  1

  0
LINE
  5
21BDB
330
219B2
100
AcDbEntity
  8
0
 62
     0
370
    -2
100
AcDbLine
 10
3.882740296980723
 20
6.206933208485645
 30
0.0
 11
3.882740296980723
 21
7.158879643594813
 31
0.0
  0
LINE
  5
21BDC
330
219B2
100
AcDbEntity
  8
0
 62
     0
370
    -2
100
AcDbLine
 10
3.835740296980724
 20
6.206933208485645
 30
0.0
 11
3.835740296980724
 21
7.158879643594813
 31
0.0
  0
LINE
  5
21BDD
330
219B2
100
AcDbEntity
  8
0
 62
     0
370
    -2
100
AcDbLine
 10
4.062740296980725
 20
6.978879643594813
 30
0.0
 11
4.242740296980723
 21
6.978879643594813
 31
0.0
  0
LINE
  5
21BDE
330
219B2
100
AcDbEntity
  8
0
 62
     0
370
    -2
100
AcDbLine
 10
3.655740296980725
 20
6.978879643594813
 30
0.0
 11
3.475740296980723
 21
6.978879643594813
 31
0.0
  0
SOLID
  5
21BDF
330
219B2
100
AcDbEntity
  8
0
 62
     0
100
AcDbTrace
 10
4.062740296980725
 20
7.008879643594815
 30
0.0
 11
4.062740296980725
 21
6.948879643594813
 31
0.0
 12
3.882740296980723
 22
6.978879643594813
 32
0.0
 13
3.882740296980723
 23
6.978879643594813
 33
0.0
  0
SOLID
  5
21BE0
330
219B2
100
AcDbEntity
  8
0
 62
     0
100
AcDbTrace
 10
3.655740296980725
 20
7.008879643594815
 30
0.0
 11
3.655740296980725
 21
6.948879643594813
 31
0.0
 12
3.835740296980724
 22
6.978879643594813
 32
0.0
 13
3.835740296980724
 23
6.978879643594813
 33
0.0
  0
MTEXT
  5
21BE1
330
219B2
100
AcDbEntity
  8
0
 62
     0
100
AcDbMText
 10
3.107792245032673
 20
6.978879643594813
 30
0.0
 40
0.18
 41
0.0
 71
     5
 72
     1
  1
\A1;0.047
  7
TECHNIC
 73
     1
 44
1.0
1001
ACAD
1000
MTEXTBEGIN
1070
    73
1070
     1
1070
    44
1040
1.0
1070
    74
1070
     0
1000
MTEXTEND
  0
POINT
  5
21BE2
330
219B2
100
AcDbEntity
  8
DEFPOINTS
 62
     0
100
AcDbPoint
 10
3.882740296980723
 20
6.144433208485645
 30
0.0
  0
POINT
  5
21BE3
330
219B2
100
AcDbEntity
  8
DEFPOINTS
 62
     0
100
AcDbPoint
 10
3.835740296980724
 20
6.144433208485645
 30
0.0
  0
POINT
  5
21BE4
330
219B2
100
AcDbEntity
  8
DEFPOINTS
 62
     0
100
AcDbPoint
 10
3.835740296980724
 20
6.978879643594813
 30
0.0
  0
ENDBLK
  5
219B4
330
219B2
100
AcDbEntity
  8
0
100
AcDbBlockEnd
  0
BLOCK
  5
219C1
330
219C0
100
AcDbEntity
  8
0
100
AcDbBlockBegin
  2
*D4
 70
     1
 10
0.0
 20
0.0
 30
0.0
  3
*D4
  1

  0
LINE
  5
21BE5
330
219C0
100
AcDbEntity
  8
0
 62
     0
370
    -2
100
AcDbLine
 10
3.796740296980726
 20
6.167933208485647
 30
0.0
 11
2.905286703132127
 21
6.167933208485647
 31
0.0
  0
LINE
  5
21BE6
330
219C0
100
AcDbEntity
  8
0
 62
     0
370
    -2
100
AcDbLine
 10
3.796740296980727
 20
5.979933208485647
 30
0.0
 11
2.905286703132127
 21
5.979933208485647
 31
0.0
  0
LINE
  5
21BE7
330
219C0
100
AcDbEntity
  8
0
 62
     0
370
    -2
100
AcDbLine
 10
3.085286703132128
 20
6.347933208485647
 30
0.0
 11
3.085286703132128
 21
6.527933208485648
 31
0.0
  0
LINE
  5
21BE8
330
219C0
100
AcDbEntity
  8
0
 62
     0
370
    -2
100
AcDbLine
 10
3.085286703132128
 20
5.799933208485647
 30
0.0
 11
3.085286703132128
 21
5.619933208485646
 31
0.0
  0
LINE
  5
21BE9
330
219C0
100
AcDbEntity
  8
0
 62
     0
370
    -2
100
AcDbLine
 10
3.085286703132128
 20
5.619933208485646
 30
0.0
 11
2.905286703132127
 21
5.619933208485646
 31
0.0
  0
SOLID
  5
21BEA
330
219C0
100
AcDbEntity
  8
0
 62
     0
100
AcDbTrace
 10
3.055286703132128
 20
6.347933208485647
 30
0.0
 11
3.115286703132126
 21
6.347933208485647
 31
0.0
 12
3.085286703132128
 22
6.167933208485647
 32
0.0
 13
3.085286703132128
 23
6.167933208485647
 33
0.0
  0
SOLID
  5
21BEB
330
219C0
100
AcDbEntity
  8
0
 62
     0
100
AcDbTrace
 10
3.055286703132128
 20
5.799933208485647
 30
0.0
 11
3.115286703132126
 21
5.799933208485647
 31
0.0
 12
3.085286703132128
 22
5.979933208485647
 32
0.0
 13
3.085286703132128
 23
5.979933208485647
 33
0.0
  0
MTEXT
  5
21BEC
330
219C0
100
AcDbEntity
  8
0
 62
     0
100
AcDbMText
 10
2.536695794041219
 20
5.619933208485646
 30
0.0
 40
0.18
 41
0.0
 71
     5
 72
     1
  1
\A1;0.188
  7
TECHNIC
 73
     1
 44
1.0
1001
ACAD
1000
MTEXTBEGIN
1070
    73
1070
     1
1070
    44
1040
1.0
1070
    74
1070
     0
1000
MTEXTEND
  0
POINT
  5
21BED
330
219C0
100
AcDbEntity
  8
DEFPOINTS
 62
     0
100
AcDbPoint
 10
3.859240296980726
 20
6.167933208485647
 30
0.0
  0
POINT
  5
21BEE
330
219C0
100
AcDbEntity
  8
DEFPOINTS
 62
     0
100
AcDbPoint
 10
3.859240296980727
 20
5.979933208485647
 30
0.0
  0
POINT
  5
21BEF
330
219C0
100
AcDbEntity
  8
DEFPOINTS
 62
     0
100
AcDbPoint
 10
3.085286703132128
 20
5.979933208485647
 30
0.0
  0
ENDBLK
  5
219C2
330
219C0
100
AcDbEntity
  8
0
100
AcDbBlockEnd
  0
BLOCK
  5
219D0
330
219CF
100
AcDbEntity
  8
0
100
AcDbBlockBegin
  2
*D5
 70
     1
 10
0.0
 20
0.0
 30
0.0
  3
*D5
  1

  0
LINE
  5
21B52
330
219CF
100
AcDbEntity
  8
0
 62
     0
370
    -2
100
AcDbLine
 10
7.070240296980728
 20
3.951433208485646
 30
0.0
 11
7.768939893592241
 21
3.951433208485646
 31
0.0
  0
LINE
  5
21B53
330
219CF
100
AcDbEntity
  8
0
 62
     0
370
    -2
100
AcDbLine
 10
7.070240296980728
 20
4.234433208485644
 30
0.0
 11
7.768939893592241
 21
4.234433208485644
 31
0.0
  0
LINE
  5
21B54
330
219CF
100
AcDbEntity
  8
0
 62
     0
370
    -2
100
AcDbLine
 10
7.588939893592241
 20
3.771433208485646
 30
0.0
 11
7.588939893592241
 21
3.591433208485646
 31
0.0
  0
LINE
  5
21B55
330
219CF
100
AcDbEntity
  8
0
 62
     0
370
    -2
100
AcDbLine
 10
7.588939893592241
 20
4.414433208485644
 30
0.0
 11
7.588939893592241
 21
4.594433208485646
 31
0.0
  0
LINE
  5
21B56
330
219CF
100
AcDbEntity
  8
0
 62
     0
370
    -2
100
AcDbLine
 10
7.588939893592241
 20
4.594433208485646
 30
0.0
 11
7.768939893592241
 21
4.594433208485646
 31
0.0
  0
SOLID
  5
21B57
330
219CF
100
AcDbEntity
  8
0
 62
     0
100
AcDbTrace
 10
7.558939893592241
 20
3.771433208485646
 30
0.0
 11
7.618939893592242
 21
3.771433208485646
 31
0.0
 12
7.588939893592241
 22
3.951433208485646
 32
0.0
 13
7.588939893592241
 23
3.951433208485646
 33
0.0
  0
SOLID
  5
21B58
330
219CF
100
AcDbEntity
  8
0
 62
     0
100
AcDbTrace
 10
7.558939893592241
 20
4.414433208485644
 30
0.0
 11
7.618939893592242
 21
4.414433208485644
 31
0.0
 12
7.588939893592241
 22
4.234433208485644
 32
0.0
 13
7.588939893592241
 23
4.234433208485644
 33
0.0
  0
MTEXT
  5
21B59
330
219CF
100
AcDbEntity
  8
0
 62
     0
100
AcDbMText
 10
8.138348984501332
 20
4.594433208485641
 30
0.0
 40
0.18
 41
0.0
 71
     5
 72
     1
  1
\A1;0.283
  7
TECHNIC
 73
     1
 44
1.0
1001
ACAD
1000
MTEXTBEGIN
1070
    73
1070
     1
1070
    44
1040
1.0
1070
    74
1070
     0
1000
MTEXTEND
  0
POINT
  5
21B5A
330
219CF
100
AcDbEntity
  8
DEFPOINTS
 62
     0
100
AcDbPoint
 10
7.007740296980728
 20
3.951433208485646
 30
0.0
  0
POINT
  5
21B5B
330
219CF
100
AcDbEntity
  8
DEFPOINTS
 62
     0
100
AcDbPoint
 10
7.007740296980728
 20
4.234433208485644
 30
0.0
  0
POINT
  5
21B5C
330
219CF
100
AcDbEntity
  8
DEFPOINTS
 62
     0
100
AcDbPoint
 10
7.588939893592241
 20
4.234433208485644
 30
0.0
  0
ENDBLK
  5
219D1
330
219CF
100
AcDbEntity
  8
0
100
AcDbBlockEnd
  0
BLOCK
  5
219DF
330
219DE
100
AcDbEntity
  8
0
100
AcDbBlockBegin
  2
*D6
 70
     1
 10
0.0
 20
0.0
 30
0.0
  3
*D6
  1

  0
LINE
  5
21B5D
330
219DE
100
AcDbEntity
  8
0
 62
     0
370
    -2
100
AcDbLine
 10
6.859240296980723
 20
3.653433208485643
 30
0.0
 11
6.859240296980723
 21
2.931464394274533
 31
0.0
  0
LINE
  5
21B5E
330
219DE
100
AcDbEntity
  8
0
 62
     0
370
    -2
100
AcDbLine
 10
6.984240296980723
 20
3.794933208485643
 30
0.0
 11
6.984240296980723
 21
2.931464394274533
 31
0.0
  0
LINE
  5
21B5F
330
219DE
100
AcDbEntity
  8
0
 62
     0
370
    -2
100
AcDbLine
 10
6.679240296980722
 20
3.111464394274534
 30
0.0
 11
6.499240296980723
 21
3.111464394274534
 31
0.0
  0
LINE
  5
21B60
330
219DE
100
AcDbEntity
  8
0
 62
     0
370
    -2
100
AcDbLine
 10
7.164240296980723
 20
3.111464394274534
 30
0.0
 11
7.344240296980722
 21
3.111464394274534
 31
0.0
  0
SOLID
  5
21B61
330
219DE
100
AcDbEntity
  8
0
 62
     0
100
AcDbTrace
 10
6.679240296980722
 20
3.141464394274533
 30
0.0
 11
6.679240296980722
 21
3.081464394274533
 31
0.0
 12
6.859240296980723
 22
3.111464394274534
 32
0.0
 13
6.859240296980723
 23
3.111464394274534
 33
0.0
  0
SOLID
  5
21B62
330
219DE
100
AcDbEntity
  8
0
 62
     0
100
AcDbTrace
 10
7.164240296980723
 20
3.141464394274533
 30
0.0
 11
7.164240296980723
 21
3.081464394274533
 31
0.0
 12
6.984240296980723
 22
3.111464394274534
 32
0.0
 13
6.984240296980723
 23
3.111464394274534
 33
0.0
  0
MTEXT
  5
21B63
330
219DE
100
AcDbEntity
  8
0
 62
     0
100
AcDbMText
 10
7.712655881396307
 20
3.111464394274534
 30
0.0
 40
0.18
 41
0.0
 71
     5
 72
     1
  1
\A1;0.125
  7
TECHNIC
 73
     1
 44
1.0
1001
ACAD
1000
MTEXTBEGIN
1070
    73
1070
     1
1070
    44
1040
1.0
1070
    74
1070
     0
1000
MTEXTEND
  0
POINT
  5
21B64
330
219DE
100
AcDbEntity
  8
DEFPOINTS
 62
     0
100
AcDbPoint
 10
6.859240296980723
 20
3.715933208485643
 30
0.0
  0
POINT
  5
21B65
330
219DE
100
AcDbEntity
  8
DEFPOINTS
 62
     0
100
AcDbPoint
 10
6.984240296980723
 20
3.857433208485643
 30
0.0
  0
POINT
  5
21B66
330
219DE
100
AcDbEntity
  8
DEFPOINTS
 62
     0
100
AcDbPoint
 10
6.984240296980723
 20
3.111464394274534
 30
0.0
  0
ENDBLK
  5
219E0
330
219DE
100
AcDbEntity
  8
0
100
AcDbBlockEnd
  0
BLOCK
  5
21BFC
330
21BFB
100
AcDbEntity
  8
0
100
AcDbBlockBegin
  2
*D7
 70
     1
 10
0.0
 20
0.0
 30
0.0
  3
*D7
  1

  0
LINE
  5
2202F
330
21BFB
100
AcDbEntity
  8
0
 62
     0
370
    -2
100
AcDbLine
 10
3.552623670537981
 20
-3.134325483717178
 30
0.0
 11
3.552623670537981
 21
-2.15887904860801
 31
0.0
  0
LINE
  5
22030
330
21BFB
100
AcDbEntity
  8
0
 62
     0
370
    -2
100
AcDbLine
 10
3.458623670537981
 20
-3.134325483717178
 30
0.0
 11
3.458623670537981
 21
-2.15887904860801
 31
0.0
  0
LINE
  5
22031
330
21BFB
100
AcDbEntity
  8
0
 62
     0
370
    -2
100
AcDbLine
 10
3.732623670537981
 20
-2.338879048608009
 30
0.0
 11
3.912623670537981
 21
-2.338879048608009
 31
0.0
  0
LINE
  5
22032
330
21BFB
100
AcDbEntity
  8
0
 62
     0
370
    -2
100
AcDbLine
 10
3.278623670537981
 20
-2.338879048608009
 30
0.0
 11
3.098623670537981
 21
-2.338879048608009
 31
0.0
  0
SOLID
  5
22033
330
21BFB
100
AcDbEntity
  8
0
 62
     0
100
AcDbTrace
 10
3.732623670537981
 20
-2.308879048608009
 30
0.0
 11
3.732623670537981
 21
-2.368879048608009
 31
0.0
 12
3.552623670537981
 22
-2.338879048608009
 32
0.0
 13
3.552623670537981
 23
-2.338879048608009
 33
0.0
  0
SOLID
  5
22034
330
21BFB
100
AcDbEntity
  8
0
 62
     0
100
AcDbTrace
 10
3.278623670537981
 20
-2.308879048608009
 30
0.0
 11
3.278623670537981
 21
-2.368879048608009
 31
0.0
 12
3.458623670537981
 22
-2.338879048608009
 32
0.0
 13
3.458623670537981
 23
-2.338879048608009
 33
0.0
  0
MTEXT
  5
22035
330
21BFB
100
AcDbEntity
  8
0
 62
     0
100
AcDbMText
 10
2.728279514693825
 20
-2.338879048608009
 30
0.0
 40
0.18
 41
0.0
 71
     5
 72
     1
  1
\A1;0.094
  7
TECHNIC
 73
     1
 44
1.0
1001
ACAD
1000
MTEXTBEGIN
1070
    73
1070
     1
1070
    44
1040
1.0
1070
    74
1070
     0
1000
MTEXTEND
  0
POINT
  5
22036
330
21BFB
100
AcDbEntity
  8
DEFPOINTS
 62
     0
100
AcDbPoint
 10
3.552623670537981
 20
-3.196825483717178
 30
0.0
  0
POINT
  5
22037
330
21BFB
100
AcDbEntity
  8
DEFPOINTS
 62
     0
100
AcDbPoint
 10
3.458623670537981
 20
-3.196825483717178
 30
0.0
  0
POINT
  5
22038
330
21BFB
100
AcDbEntity
  8
DEFPOINTS
 62
     0
100
AcDbPoint
 10
3.458623670537981
 20
-2.338879048608009
 30
0.0
  0
ENDBLK
  5
21BFD
330
21BFB
100
AcDbEntity
  8
0
100
AcDbBlockEnd
  0
BLOCK
  5
21C09
330
21C08
100
AcDbEntity
  8
0
100
AcDbBlockBegin
  2
*D8
 70
     1
 10
0.0
 20
0.0
 30
0.0
  3
*D8
  1

  0
LINE
  5
2201B
330
21C08
100
AcDbEntity
  8
0
 62
     0
370
    -2
100
AcDbLine
 10
3.443123670537983
 20
-3.149825483717181
 30
0.0
 11
2.55167007668939
 21
-3.149825483717181
 31
0.0
  0
LINE
  5
2201C
330
21C08
100
AcDbEntity
  8
0
 62
     0
370
    -2
100
AcDbLine
 10
3.443123670537983
 20
-3.649825483717181
 30
0.0
 11
2.55167007668939
 21
-3.649825483717181
 31
0.0
  0
LINE
  5
2201D
330
21C08
100
AcDbEntity
  8
0
 62
     0
370
    -2
100
AcDbLine
 10
2.731670076689389
 20
-2.969825483717181
 30
0.0
 11
2.731670076689389
 21
-2.78982548371718
 31
0.0
  0
LINE
  5
2201E
330
21C08
100
AcDbEntity
  8
0
 62
     0
370
    -2
100
AcDbLine
 10
2.731670076689389
 20
-3.829825483717181
 30
0.0
 11
2.731670076689389
 21
-4.009825483717182
 31
0.0
  0
SOLID
  5
2201F
330
21C08
100
AcDbEntity
  8
0
 62
     0
100
AcDbTrace
 10
2.701670076689389
 20
-2.969825483717181
 30
0.0
 11
2.76167007668939
 21
-2.969825483717181
 31
0.0
 12
2.731670076689389
 22
-3.149825483717181
 32
0.0
 13
2.731670076689389
 23
-3.149825483717181
 33
0.0
  0
SOLID
  5
22020
330
21C08
100
AcDbEntity
  8
0
 62
     0
100
AcDbTrace
 10
2.701670076689389
 20
-3.829825483717181
 30
0.0
 11
2.76167007668939
 21
-3.829825483717181
 31
0.0
 12
2.731670076689389
 22
-3.649825483717181
 32
0.0
 13
2.731670076689389
 23
-3.649825483717181
 33
0.0
  0
MTEXT
  5
22021
330
21C08
100
AcDbEntity
  8
0
 62
     0
100
AcDbMText
 10
2.731670076689389
 20
-3.399825483717181
 30
0.0
 40
0.18
 41
0.0
 71
     5
 72
     1
  1
\A1;0.500
  7
TECHNIC
 73
     1
 44
1.0
1001
ACAD
1000
MTEXTBEGIN
1070
    73
1070
     1
1070
    44
1040
1.0
1070
    74
1070
     0
1000
MTEXTEND
  0
POINT
  5
22022
330
21C08
100
AcDbEntity
  8
DEFPOINTS
 62
     0
100
AcDbPoint
 10
3.505623670537983
 20
-3.149825483717181
 30
0.0
  0
POINT
  5
22023
330
21C08
100
AcDbEntity
  8
DEFPOINTS
 62
     0
100
AcDbPoint
 10
3.505623670537983
 20
-3.649825483717181
 30
0.0
  0
POINT
  5
22024
330
21C08
100
AcDbEntity
  8
DEFPOINTS
 62
     0
100
AcDbPoint
 10
2.731670076689389
 20
-3.649825483717181
 30
0.0
  0
ENDBLK
  5
21C0A
330
21C08
100
AcDbEntity
  8
0
100
AcDbBlockEnd
  0
BLOCK
  5
21C17
330
21C16
100
AcDbEntity
  8
0
100
AcDbBlockBegin
  2
*D9
 70
     1
 10
0.0
 20
0.0
 30
0.0
  3
*D9
  1

  0
LINE
  5
22064
330
21C16
100
AcDbEntity
  8
0
 62
     0
370
    -2
100
AcDbLine
 10
7.563123670537985
 20
-6.212325483717182
 30
0.0
 11
8.261823267149521
 21
-6.212325483717182
 31
0.0
  0
LINE
  5
22065
330
21C16
100
AcDbEntity
  8
0
 62
     0
370
    -2
100
AcDbLine
 10
7.563123670537985
 20
-5.587325483717181
 30
0.0
 11
8.261823267149521
 21
-5.587325483717181
 31
0.0
  0
LINE
  5
22066
330
21C16
100
AcDbEntity
  8
0
 62
     0
370
    -2
100
AcDbLine
 10
8.081823267149522
 20
-6.392325483717183
 30
0.0
 11
8.081823267149522
 21
-6.572325483717182
 31
0.0
  0
LINE
  5
22067
330
21C16
100
AcDbEntity
  8
0
 62
     0
370
    -2
100
AcDbLine
 10
8.081823267149522
 20
-5.407325483717182
 30
0.0
 11
8.081823267149522
 21
-5.227325483717181
 31
0.0
  0
SOLID
  5
22068
330
21C16
100
AcDbEntity
  8
0
 62
     0
100
AcDbTrace
 10
8.051823267149522
 20
-6.392325483717183
 30
0.0
 11
8.111823267149521
 21
-6.392325483717183
 31
0.0
 12
8.081823267149522
 22
-6.212325483717182
 32
0.0
 13
8.081823267149522
 23
-6.212325483717182
 33
0.0
  0
SOLID
  5
22069
330
21C16
100
AcDbEntity
  8
0
 62
     0
100
AcDbTrace
 10
8.051823267149522
 20
-5.407325483717182
 30
0.0
 11
8.111823267149521
 21
-5.407325483717182
 31
0.0
 12
8.081823267149522
 22
-5.587325483717181
 32
0.0
 13
8.081823267149522
 23
-5.587325483717181
 33
0.0
  0
MTEXT
  5
2206A
330
21C16
100
AcDbEntity
  8
0
 62
     0
100
AcDbMText
 10
8.081823267149516
 20
-5.899825483717182
 30
0.0
 40
0.18
 41
0.0
 71
     5
 72
     1
  1
\A1;0.625
  7
TECHNIC
 73
     1
 44
1.0
1001
ACAD
1000
MTEXTBEGIN
1070
    73
1070
     1
1070
    44
1040
1.0
1070
    74
1070
     0
1000
MTEXTEND
  0
POINT
  5
2206B
330
21C16
100
AcDbEntity
  8
DEFPOINTS
 62
     0
100
AcDbPoint
 10
7.500623670537985
 20
-6.212325483717182
 30
0.0
  0
POINT
  5
2206C
330
21C16
100
AcDbEntity
  8
DEFPOINTS
 62
     0
100
AcDbPoint
 10
7.500623670537985
 20
-5.587325483717181
 30
0.0
  0
POINT
  5
2206D
330
21C16
100
AcDbEntity
  8
DEFPOINTS
 62
     0
100
AcDbPoint
 10
8.081823267149522
 20
-5.587325483717181
 30
0.0
  0
ENDBLK
  5
21C18
330
21C16
100
AcDbEntity
  8
0
100
AcDbBlockEnd
  0
BLOCK
  5
21C25
330
21C24
100
AcDbEntity
  8
0
100
AcDbBlockBegin
  2
*D10
 70
     1
 10
0.0
 20
0.0
 30
0.0
  3
*D10
  1

  0
LINE
  5
22186
330
21C24
100
AcDbEntity
  8
0
 62
     0
370
    -2
100
AcDbLine
 10
7.265623670537982
 20
-6.837325483717179
 30
0.0
 11
7.265623670537982
 21
-7.358084308966567
 31
0.0
  0
LINE
  5
22187
330
21C24
100
AcDbEntity
  8
0
 62
     0
370
    -2
100
AcDbLine
 10
7.453623670537981
 20
-6.524825483717179
 30
0.0
 11
7.453623670537981
 21
-7.358084308966567
 31
0.0
  0
LINE
  5
22188
330
21C24
100
AcDbEntity
  8
0
 62
     0
370
    -2
100
AcDbLine
 10
7.085623670537981
 20
-7.178084308966567
 30
0.0
 11
6.90562367053798
 21
-7.178084308966567
 31
0.0
  0
LINE
  5
22189
330
21C24
100
AcDbEntity
  8
0
 62
     0
370
    -2
100
AcDbLine
 10
7.633623670537981
 20
-7.178084308966567
 30
0.0
 11
7.813623670537982
 21
-7.178084308966567
 31
0.0
  0
SOLID
  5
2218A
330
21C24
100
AcDbEntity
  8
0
 62
     0
100
AcDbTrace
 10
7.085623670537981
 20
-7.148084308966567
 30
0.0
 11
7.085623670537981
 21
-7.208084308966567
 31
0.0
 12
7.265623670537982
 22
-7.178084308966567
 32
0.0
 13
7.265623670537982
 23
-7.178084308966567
 33
0.0
  0
SOLID
  5
2218B
330
21C24
100
AcDbEntity
  8
0
 62
     0
100
AcDbTrace
 10
7.633623670537981
 20
-7.148084308966567
 30
0.0
 11
7.633623670537981
 21
-7.208084308966567
 31
0.0
 12
7.453623670537981
 22
-7.178084308966567
 32
0.0
 13
7.453623670537981
 23
-7.178084308966567
 33
0.0
  0
MTEXT
  5
2218C
330
21C24
100
AcDbEntity
  8
0
 62
     0
100
AcDbMText
 10
8.182214579628888
 20
-7.178084308966567
 30
0.0
 40
0.18
 41
0.0
 71
     5
 72
     1
  1
\A1;0.188
  7
TECHNIC
 73
     1
 44
1.0
1001
ACAD
1000
MTEXTBEGIN
1070
    73
1070
     1
1070
    44
1040
1.0
1070
    74
1070
     0
1000
MTEXTEND
  0
POINT
  5
2218D
330
21C24
100
AcDbEntity
  8
DEFPOINTS
 62
     0
100
AcDbPoint
 10
7.265623670537982
 20
-6.774825483717179
 30
0.0
  0
POINT
  5
2218E
330
21C24
100
AcDbEntity
  8
DEFPOINTS
 62
     0
100
AcDbPoint
 10
7.453623670537981
 20
-6.462325483717179
 30
0.0
  0
POINT
  5
2218F
330
21C24
100
AcDbEntity
  8
DEFPOINTS
 62
     0
100
AcDbPoint
 10
7.453623670537981
 20
-7.178084308966567
 30
0.0
  0
ENDBLK
  5
21C26
330
21C24
100
AcDbEntity
  8
0
100
AcDbBlockEnd
  0
BLOCK
  5
21C60
330
21C5F
100
AcDbEntity
  8
0
100
AcDbBlockBegin
  2
*D11
 70
     1
 10
0.0
 20
0.0
 30
0.0
  3
*D11
  1

  0
LINE
  5
21EDD
330
21C5F
100
AcDbEntity
  8
0
 62
     0
370
    -2
100
AcDbLine
 10
16.6730503196893
 20
6.285666598318065
 30
0.0
 11
16.6730503196893
 21
7.245113033427233
 31
0.0
  0
LINE
  5
21EDE
330
21C5F
100
AcDbEntity
  8
0
 62
     0
370
    -2
100
AcDbLine
 10
16.6110503196893
 20
6.285666598318065
 30
0.0
 11
16.6110503196893
 21
7.245113033427233
 31
0.0
  0
LINE
  5
21EDF
330
21C5F
100
AcDbEntity
  8
0
 62
     0
370
    -2
100
AcDbLine
 10
16.8530503196893
 20
7.065113033427233
 30
0.0
 11
17.0330503196893
 21
7.065113033427233
 31
0.0
  0
LINE
  5
21EE0
330
21C5F
100
AcDbEntity
  8
0
 62
     0
370
    -2
100
AcDbLine
 10
16.4310503196893
 20
7.065113033427233
 30
0.0
 11
16.2510503196893
 21
7.065113033427233
 31
0.0
  0
SOLID
  5
21EE1
330
21C5F
100
AcDbEntity
  8
0
 62
     0
100
AcDbTrace
 10
16.8530503196893
 20
7.095113033427233
 30
0.0
 11
16.8530503196893
 21
7.035113033427233
 31
0.0
 12
16.6730503196893
 22
7.065113033427233
 32
0.0
 13
16.6730503196893
 23
7.065113033427233
 33
0.0
  0
SOLID
  5
21EE2
330
21C5F
100
AcDbEntity
  8
0
 62
     0
100
AcDbTrace
 10
16.4310503196893
 20
7.095113033427233
 30
0.0
 11
16.4310503196893
 21
7.035113033427233
 31
0.0
 12
16.6110503196893
 22
7.065113033427233
 32
0.0
 13
16.6110503196893
 23
7.065113033427233
 33
0.0
  0
MTEXT
  5
21EE3
330
21C5F
100
AcDbEntity
  8
0
 62
     0
100
AcDbMText
 10
15.88298538462437
 20
7.065113033427233
 30
0.0
 40
0.18
 41
0.0
 71
     5
 72
     1
  1
\A1;0.062
  7
TECHNIC
 73
     1
 44
1.0
1001
ACAD
1000
MTEXTBEGIN
1070
    73
1070
     1
1070
    44
1040
1.0
1070
    74
1070
     0
1000
MTEXTEND
  0
POINT
  5
21EE4
330
21C5F
100
AcDbEntity
  8
DEFPOINTS
 62
     0
100
AcDbPoint
 10
16.6730503196893
 20
6.223166598318065
 30
0.0
  0
POINT
  5
21EE5
330
21C5F
100
AcDbEntity
  8
DEFPOINTS
 62
     0
100
AcDbPoint
 10
16.6110503196893
 20
6.223166598318065
 30
0.0
  0
POINT
  5
21EE6
330
21C5F
100
AcDbEntity
  8
DEFPOINTS
 62
     0
100
AcDbPoint
 10
16.6110503196893
 20
7.065113033427233
 30
0.0
  0
ENDBLK
  5
21C61
330
21C5F
100
AcDbEntity
  8
0
100
AcDbBlockEnd
  0
BLOCK
  5
21C6D
330
21C6C
100
AcDbEntity
  8
0
100
AcDbBlockBegin
  2
*D12
 70
     1
 10
0.0
 20
0.0
 30
0.0
  3
*D12
  1

  0
LINE
  5
21EC8
330
21C6C
100
AcDbEntity
  8
0
 62
     0
370
    -2
100
AcDbLine
 10
16.57955031968931
 20
6.254166598318067
 30
0.0
 11
15.68809672584074
 21
6.254166598318067
 31
0.0
  0
LINE
  5
21EC9
330
21C6C
100
AcDbEntity
  8
0
 62
     0
370
    -2
100
AcDbLine
 10
16.57955031968931
 20
6.004166598318067
 30
0.0
 11
15.68809672584074
 21
6.004166598318067
 31
0.0
  0
LINE
  5
21ECA
330
21C6C
100
AcDbEntity
  8
0
 62
     0
370
    -2
100
AcDbLine
 10
15.86809672584074
 20
6.434166598318067
 30
0.0
 11
15.86809672584074
 21
6.614166598318067
 31
0.0
  0
LINE
  5
21ECB
330
21C6C
100
AcDbEntity
  8
0
 62
     0
370
    -2
100
AcDbLine
 10
15.86809672584074
 20
5.824166598318067
 30
0.0
 11
15.86809672584074
 21
5.644166598318068
 31
0.0
  0
LINE
  5
21ECC
330
21C6C
100
AcDbEntity
  8
0
 62
     0
370
    -2
100
AcDbLine
 10
15.86809672584074
 20
5.644166598318068
 30
0.0
 11
15.68809672584074
 21
5.644166598318068
 31
0.0
  0
SOLID
  5
21ECD
330
21C6C
100
AcDbEntity
  8
0
 62
     0
100
AcDbTrace
 10
15.83809672584074
 20
6.434166598318067
 30
0.0
 11
15.89809672584074
 21
6.434166598318067
 31
0.0
 12
15.86809672584074
 22
6.254166598318067
 32
0.0
 13
15.86809672584074
 23
6.254166598318067
 33
0.0
  0
SOLID
  5
21ECE
330
21C6C
100
AcDbEntity
  8
0
 62
     0
100
AcDbTrace
 10
15.83809672584074
 20
5.824166598318067
 30
0.0
 11
15.89809672584074
 21
5.824166598318067
 31
0.0
 12
15.86809672584074
 22
6.004166598318067
 32
0.0
 13
15.86809672584074
 23
6.004166598318067
 33
0.0
  0
MTEXT
  5
21ECF
330
21C6C
100
AcDbEntity
  8
0
 62
     0
100
AcDbMText
 10
15.31880451804853
 20
5.644166598318062
 30
0.0
 40
0.18
 41
0.0
 71
     5
 72
     1
  1
\A1;0.250
  7
TECHNIC
 73
     1
 44
1.0
1001
ACAD
1000
MTEXTBEGIN
1070
    73
1070
     1
1070
    44
1040
1.0
1070
    74
1070
     0
1000
MTEXTEND
  0
POINT
  5
21ED0
330
21C6C
100
AcDbEntity
  8
DEFPOINTS
 62
     0
100
AcDbPoint
 10
16.64205031968932
 20
6.254166598318067
 30
0.0
  0
POINT
  5
21ED1
330
21C6C
100
AcDbEntity
  8
DEFPOINTS
 62
     0
100
AcDbPoint
 10
16.64205031968931
 20
6.004166598318067
 30
0.0
  0
POINT
  5
21ED2
330
21C6C
100
AcDbEntity
  8
DEFPOINTS
 62
     0
100
AcDbPoint
 10
15.86809672584074
 20
6.004166598318067
 30
0.0
  0
ENDBLK
  5
21C6E
330
21C6C
100
AcDbEntity
  8
0
100
AcDbBlockEnd
  0
BLOCK
  5
21C7B
330
21C7A
100
AcDbEntity
  8
0
100
AcDbBlockBegin
  2
*D13
 70
     1
 10
0.0
 20
0.0
 30
0.0
  3
*D13
  1

  0
LINE
  5
21F06
330
21C7A
100
AcDbEntity
  8
0
 62
     0
370
    -2
100
AcDbLine
 10
20.23555031968931
 20
4.066666598318066
 30
0.0
 11
20.91174991630086
 21
4.066666598318066
 31
0.0
  0
LINE
  5
21F07
330
21C7A
100
AcDbEntity
  8
0
 62
     0
370
    -2
100
AcDbLine
 10
20.23555031968931
 20
4.441666598318066
 30
0.0
 11
20.91174991630086
 21
4.441666598318066
 31
0.0
  0
LINE
  5
21F08
330
21C7A
100
AcDbEntity
  8
0
 62
     0
370
    -2
100
AcDbLine
 10
20.73174991630086
 20
3.886666598318066
 30
0.0
 11
20.73174991630086
 21
3.706666598318066
 31
0.0
  0
LINE
  5
21F09
330
21C7A
100
AcDbEntity
  8
0
 62
     0
370
    -2
100
AcDbLine
 10
20.73174991630086
 20
4.621666598318066
 30
0.0
 11
20.73174991630086
 21
4.801666598318066
 31
0.0
  0
SOLID
  5
21F0A
330
21C7A
100
AcDbEntity
  8
0
 62
     0
100
AcDbTrace
 10
20.70174991630086
 20
3.886666598318066
 30
0.0
 11
20.76174991630086
 21
3.886666598318066
 31
0.0
 12
20.73174991630086
 22
4.066666598318066
 32
0.0
 13
20.73174991630086
 23
4.066666598318066
 33
0.0
  0
SOLID
  5
21F0B
330
21C7A
100
AcDbEntity
  8
0
 62
     0
100
AcDbTrace
 10
20.70174991630086
 20
4.621666598318066
 30
0.0
 11
20.76174991630086
 21
4.621666598318066
 31
0.0
 12
20.73174991630086
 22
4.441666598318066
 32
0.0
 13
20.73174991630086
 23
4.441666598318066
 33
0.0
  0
MTEXT
  5
21F0C
330
21C7A
100
AcDbEntity
  8
0
 62
     0
100
AcDbMText
 10
20.73174991630085
 20
4.254166598318061
 30
0.0
 40
0.18
 41
0.0
 71
     5
 72
     1
  1
\A1;0.375
  7
TECHNIC
 73
     1
 44
1.0
1001
ACAD
1000
MTEXTBEGIN
1070
    73
1070
     1
1070
    44
1040
1.0
1070
    74
1070
     0
1000
MTEXTEND
  0
POINT
  5
21F0D
330
21C7A
100
AcDbEntity
  8
DEFPOINTS
 62
     0
100
AcDbPoint
 10
20.17305031968931
 20
4.066666598318066
 30
0.0
  0
POINT
  5
21F0E
330
21C7A
100
AcDbEntity
  8
DEFPOINTS
 62
     0
100
AcDbPoint
 10
20.17305031968931
 20
4.441666598318066
 30
0.0
  0
POINT
  5
21F0F
330
21C7A
100
AcDbEntity
  8
DEFPOINTS
 62
     0
100
AcDbPoint
 10
20.73174991630086
 20
4.441666598318066
 30
0.0
  0
ENDBLK
  5
21C7C
330
21C7A
100
AcDbEntity
  8
0
100
AcDbBlockEnd
  0
BLOCK
  5
21C89
330
21C88
100
AcDbEntity
  8
0
100
AcDbBlockBegin
  2
*D14
 70
     1
 10
0.0
 20
0.0
 30
0.0
  3
*D14
  1

  0
LINE
  5
21F10
330
21C88
100
AcDbEntity
  8
0
 62
     0
370
    -2
100
AcDbLine
 10
20.00205031968931
 20
3.691666598318064
 30
0.0
 11
20.00205031968931
 21
2.969697784106956
 31
0.0
  0
LINE
  5
21F11
330
21C88
100
AcDbEntity
  8
0
 62
     0
370
    -2
100
AcDbLine
 10
20.14205031968931
 20
3.879166598318064
 30
0.0
 11
20.14205031968931
 21
2.969697784106956
 31
0.0
  0
LINE
  5
21F12
330
21C88
100
AcDbEntity
  8
0
 62
     0
370
    -2
100
AcDbLine
 10
19.82205031968931
 20
3.149697784106956
 30
0.0
 11
19.64205031968931
 21
3.149697784106956
 31
0.0
  0
LINE
  5
21F13
330
21C88
100
AcDbEntity
  8
0
 62
     0
370
    -2
100
AcDbLine
 10
20.32205031968931
 20
3.149697784106956
 30
0.0
 11
20.50205031968931
 21
3.149697784106956
 31
0.0
  0
SOLID
  5
21F14
330
21C88
100
AcDbEntity
  8
0
 62
     0
100
AcDbTrace
 10
19.82205031968931
 20
3.179697784106954
 30
0.0
 11
19.82205031968931
 21
3.119697784106956
 31
0.0
 12
20.00205031968931
 22
3.149697784106956
 32
0.0
 13
20.00205031968931
 23
3.149697784106956
 33
0.0
  0
SOLID
  5
21F15
330
21C88
100
AcDbEntity
  8
0
 62
     0
100
AcDbTrace
 10
20.32205031968931
 20
3.179697784106954
 30
0.0
 11
20.32205031968931
 21
3.119697784106956
 31
0.0
 12
20.14205031968931
 22
3.149697784106956
 32
0.0
 13
20.14205031968931
 23
3.149697784106956
 33
0.0
  0
MTEXT
  5
21F16
330
21C88
100
AcDbEntity
  8
0
 62
     0
100
AcDbMText
 10
20.87134252748152
 20
3.149697784106956
 30
0.0
 40
0.18
 41
0.0
 71
     5
 72
     1
  1
\A1;0.140
  7
TECHNIC
 73
     1
 44
1.0
1001
ACAD
1000
MTEXTBEGIN
1070
    73
1070
     1
1070
    44
1040
1.0
1070
    74
1070
     0
1000
MTEXTEND
  0
POINT
  5
21F17
330
21C88
100
AcDbEntity
  8
DEFPOINTS
 62
     0
100
AcDbPoint
 10
20.00205031968931
 20
3.754166598318064
 30
0.0
  0
POINT
  5
21F18
330
21C88
100
AcDbEntity
  8
DEFPOINTS
 62
     0
100
AcDbPoint
 10
20.14205031968931
 20
3.941666598318064
 30
0.0
  0
POINT
  5
21F19
330
21C88
100
AcDbEntity
  8
DEFPOINTS
 62
     0
100
AcDbPoint
 10
20.14205031968931
 20
3.149697784106956
 30
0.0
  0
ENDBLK
  5
21C8A
330
21C88
100
AcDbEntity
  8
0
100
AcDbBlockEnd
  0
BLOCK
  5
21CC4
330
21CC3
100
AcDbEntity
  8
0
100
AcDbBlockBegin
  2
*D15
 70
     1
 10
0.0
 20
0.0
 30
0.0
  3
*D15
  1

  0
LINE
  5
22097
330
21CC3
100
AcDbEntity
  8
0
 62
     0
370
    -2
100
AcDbLine
 10
15.81061833614934
 20
-3.392644633704891
 30
0.0
 11
15.81061833614934
 21
-2.417198198595721
 31
0.0
  0
LINE
  5
22098
330
21CC3
100
AcDbEntity
  8
0
 62
     0
370
    -2
100
AcDbLine
 10
15.71661833614934
 20
-3.392644633704891
 30
0.0
 11
15.71661833614934
 21
-2.417198198595721
 31
0.0
  0
LINE
  5
22099
330
21CC3
100
AcDbEntity
  8
0
 62
     0
370
    -2
100
AcDbLine
 10
15.99061833614934
 20
-2.597198198595721
 30
0.0
 11
16.17061833614934
 21
-2.597198198595721
 31
0.0
  0
LINE
  5
2209A
330
21CC3
100
AcDbEntity
  8
0
 62
     0
370
    -2
100
AcDbLine
 10
15.53661833614934
 20
-2.597198198595721
 30
0.0
 11
15.35661833614934
 21
-2.597198198595721
 31
0.0
  0
SOLID
  5
2209B
330
21CC3
100
AcDbEntity
  8
0
 62
     0
100
AcDbTrace
 10
15.99061833614934
 20
-2.567198198595721
 30
0.0
 11
15.99061833614934
 21
-2.627198198595721
 31
0.0
 12
15.81061833614934
 22
-2.597198198595721
 32
0.0
 13
15.81061833614934
 23
-2.597198198595721
 33
0.0
  0
SOLID
  5
2209C
330
21CC3
100
AcDbEntity
  8
0
 62
     0
100
AcDbTrace
 10
15.53661833614934
 20
-2.567198198595721
 30
0.0
 11
15.53661833614934
 21
-2.627198198595721
 31
0.0
 12
15.71661833614934
 22
-2.597198198595721
 32
0.0
 13
15.71661833614934
 23
-2.597198198595721
 33
0.0
  0
MTEXT
  5
2209D
330
21CC3
100
AcDbEntity
  8
0
 62
     0
100
AcDbMText
 10
14.98627418030519
 20
-2.597198198595721
 30
0.0
 40
0.18
 41
0.0
 71
     5
 72
     1
  1
\A1;0.094
  7
TECHNIC
 73
     1
 44
1.0
1001
ACAD
1000
MTEXTBEGIN
1070
    73
1070
     1
1070
    44
1040
1.0
1070
    74
1070
     0
1000
MTEXTEND
  0
POINT
  5
2209E
330
21CC3
100
AcDbEntity
  8
DEFPOINTS
 62
     0
100
AcDbPoint
 10
15.81061833614934
 20
-3.455144633704891
 30
0.0
  0
POINT
  5
2209F
330
21CC3
100
AcDbEntity
  8
DEFPOINTS
 62
     0
100
AcDbPoint
 10
15.71661833614934
 20
-3.455144633704891
 30
0.0
  0
POINT
  5
220A0
330
21CC3
100
AcDbEntity
  8
DEFPOINTS
 62
     0
100
AcDbPoint
 10
15.71661833614934
 20
-2.597198198595721
 30
0.0
  0
ENDBLK
  5
21CC5
330
21CC3
100
AcDbEntity
  8
0
100
AcDbBlockEnd
  0
BLOCK
  5
21CD1
330
21CD0
100
AcDbEntity
  8
0
100
AcDbBlockBegin
  2
*D16
 70
     1
 10
0.0
 20
0.0
 30
0.0
  3
*D16
  1

  0
LINE
  5
220AC
330
21CD0
100
AcDbEntity
  8
0
 62
     0
370
    -2
100
AcDbLine
 10
15.70111833614935
 20
-3.408144633704893
 30
0.0
 11
14.80966474230078
 21
-3.408144633704893
 31
0.0
  0
LINE
  5
220AD
330
21CD0
100
AcDbEntity
  8
0
 62
     0
370
    -2
100
AcDbLine
 10
15.70111833614935
 20
-4.098144633704894
 30
0.0
 11
14.80966474230078
 21
-4.098144633704894
 31
0.0
  0
LINE
  5
220AE
330
21CD0
100
AcDbEntity
  8
0
 62
     0
370
    -2
100
AcDbLine
 10
14.98966474230077
 20
-3.228144633704893
 30
0.0
 11
14.98966474230077
 21
-3.048144633704893
 31
0.0
  0
LINE
  5
220AF
330
21CD0
100
AcDbEntity
  8
0
 62
     0
370
    -2
100
AcDbLine
 10
14.98966474230078
 20
-4.278144633704893
 30
0.0
 11
14.98966474230078
 21
-4.458144633704894
 31
0.0
  0
SOLID
  5
220B0
330
21CD0
100
AcDbEntity
  8
0
 62
     0
100
AcDbTrace
 10
14.95966474230078
 20
-3.228144633704893
 30
0.0
 11
15.01966474230077
 21
-3.228144633704892
 31
0.0
 12
14.98966474230077
 22
-3.408144633704893
 32
0.0
 13
14.98966474230077
 23
-3.408144633704893
 33
0.0
  0
SOLID
  5
220B1
330
21CD0
100
AcDbEntity
  8
0
 62
     0
100
AcDbTrace
 10
14.95966474230078
 20
-4.278144633704893
 30
0.0
 11
15.01966474230077
 21
-4.278144633704893
 31
0.0
 12
14.98966474230078
 22
-4.098144633704894
 32
0.0
 13
14.98966474230078
 23
-4.098144633704894
 33
0.0
  0
MTEXT
  5
220B2
330
21CD0
100
AcDbEntity
  8
0
 62
     0
100
AcDbMText
 10
14.98966474230077
 20
-3.753144633704894
 30
0.0
 40
0.18
 41
0.0
 71
     5
 72
     1
  1
\A1;0.690
  7
TECHNIC
 73
     1
 44
1.0
1001
ACAD
1000
MTEXTBEGIN
1070
    73
1070
     1
1070
    44
1040
1.0
1070
    74
1070
     0
1000
MTEXTEND
  0
POINT
  5
220B3
330
21CD0
100
AcDbEntity
  8
DEFPOINTS
 62
     0
100
AcDbPoint
 10
15.76361833614935
 20
-3.408144633704893
 30
0.0
  0
POINT
  5
220B4
330
21CD0
100
AcDbEntity
  8
DEFPOINTS
 62
     0
100
AcDbPoint
 10
15.76361833614935
 20
-4.098144633704894
 30
0.0
  0
POINT
  5
220B5
330
21CD0
100
AcDbEntity
  8
DEFPOINTS
 62
     0
100
AcDbPoint
 10
14.98966474230078
 20
-4.098144633704894
 30
0.0
  0
ENDBLK
  5
21CD2
330
21CD0
100
AcDbEntity
  8
0
100
AcDbBlockEnd
  0
BLOCK
  5
21CDF
330
21CDE
100
AcDbEntity
  8
0
100
AcDbBlockBegin
  2
*D17
 70
     1
 10
0.0
 20
0.0
 30
0.0
  3
*D17
  1

  0
LINE
  5
220E1
330
21CDE
100
AcDbEntity
  8
0
 62
     0
370
    -2
100
AcDbLine
 10
20.87111833614935
 20
-5.978144633704893
 30
0.0
 11
21.5698179327609
 21
-5.978144633704893
 31
0.0
  0
LINE
  5
220E2
330
21CDE
100
AcDbEntity
  8
0
 62
     0
370
    -2
100
AcDbLine
 10
20.87111833614935
 20
-5.088144633704893
 30
0.0
 11
21.5698179327609
 21
-5.088144633704893
 31
0.0
  0
LINE
  5
220E3
330
21CDE
100
AcDbEntity
  8
0
 62
     0
370
    -2
100
AcDbLine
 10
21.3898179327609
 20
-5.798144633704893
 30
0.0
 11
21.3898179327609
 21
-5.715540737600994
 31
0.0
  0
LINE
  5
220E4
330
21CDE
100
AcDbEntity
  8
0
 62
     0
370
    -2
100
AcDbLine
 10
21.3898179327609
 20
-5.268144633704893
 30
0.0
 11
21.3898179327609
 21
-5.350748529808785
 31
0.0
  0
SOLID
  5
220E5
330
21CDE
100
AcDbEntity
  8
0
 62
     0
100
AcDbTrace
 10
21.3598179327609
 20
-5.798144633704893
 30
0.0
 11
21.4198179327609
 21
-5.798144633704893
 31
0.0
 12
21.3898179327609
 22
-5.978144633704893
 32
0.0
 13
21.3898179327609
 23
-5.978144633704893
 33
0.0
  0
SOLID
  5
220E6
330
21CDE
100
AcDbEntity
  8
0
 62
     0
100
AcDbTrace
 10
21.3598179327609
 20
-5.268144633704893
 30
0.0
 11
21.4198179327609
 21
-5.268144633704893
 31
0.0
 12
21.3898179327609
 22
-5.088144633704893
 32
0.0
 13
21.3898179327609
 23
-5.088144633704893
 33
0.0
  0
MTEXT
  5
220E7
330
21CDE
100
AcDbEntity
  8
0
 62
     0
100
AcDbMText
 10
21.3898179327609
 20
-5.533144633704893
 30
0.0
 40
0.18
 41
0.0
 71
     5
 72
     1
  1
\A1;0.890
  7
TECHNIC
 73
     1
 44
1.0
1001
ACAD
1000
MTEXTBEGIN
1070
    73
1070
     1
1070
    44
1040
1.0
1070
    74
1070
     0
1000
MTEXTEND
  0
POINT
  5
220E8
330
21CDE
100
AcDbEntity
  8
DEFPOINTS
 62
     0
100
AcDbPoint
 10
20.80861833614935
 20
-5.978144633704893
 30
0.0
  0
POINT
  5
220E9
330
21CDE
100
AcDbEntity
  8
DEFPOINTS
 62
     0
100
AcDbPoint
 10
20.80861833614935
 20
-5.088144633704893
 30
0.0
  0
POINT
  5
220EA
330
21CDE
100
AcDbEntity
  8
DEFPOINTS
 62
     0
100
AcDbPoint
 10
21.3898179327609
 20
-5.088144633704893
 30
0.0
  0
ENDBLK
  5
21CE0
330
21CDE
100
AcDbEntity
  8
0
100
AcDbBlockEnd
  0
BLOCK
  5
21CED
330
21CEC
100
AcDbEntity
  8
0
100
AcDbBlockBegin
  2
*D18
 70
     1
 10
0.0
 20
0.0
 30
0.0
  3
*D18
  1

  0
LINE
  5
22190
330
21CEC
100
AcDbEntity
  8
0
 62
     0
370
    -2
100
AcDbLine
 10
20.46761833614934
 20
-6.830644633704891
 30
0.0
 11
20.46761833614934
 21
-7.227671081353405
 31
0.0
  0
LINE
  5
22191
330
21CEC
100
AcDbEntity
  8
0
 62
     0
370
    -2
100
AcDbLine
 10
20.76161833614935
 20
-6.385644633704893
 30
0.0
 11
20.76161833614935
 21
-7.227671081353405
 31
0.0
  0
LINE
  5
22192
330
21CEC
100
AcDbEntity
  8
0
 62
     0
370
    -2
100
AcDbLine
 10
20.28761833614934
 20
-7.047671081353406
 30
0.0
 11
20.10761833614934
 21
-7.047671081353406
 31
0.0
  0
LINE
  5
22193
330
21CEC
100
AcDbEntity
  8
0
 62
     0
370
    -2
100
AcDbLine
 10
20.94161833614935
 20
-7.047671081353406
 30
0.0
 11
21.12161833614935
 21
-7.047671081353406
 31
0.0
  0
SOLID
  5
22194
330
21CEC
100
AcDbEntity
  8
0
 62
     0
100
AcDbTrace
 10
20.28761833614934
 20
-7.017671081353405
 30
0.0
 11
20.28761833614934
 21
-7.077671081353405
 31
0.0
 12
20.46761833614934
 22
-7.047671081353406
 32
0.0
 13
20.46761833614934
 23
-7.047671081353406
 33
0.0
  0
SOLID
  5
22195
330
21CEC
100
AcDbEntity
  8
0
 62
     0
100
AcDbTrace
 10
20.94161833614935
 20
-7.017671081353405
 30
0.0
 11
20.94161833614935
 21
-7.077671081353405
 31
0.0
 12
20.76161833614935
 22
-7.047671081353406
 32
0.0
 13
20.76161833614935
 23
-7.047671081353406
 33
0.0
  0
MTEXT
  5
22196
330
21CEC
100
AcDbEntity
  8
0
 62
     0
100
AcDbMText
 10
21.4919624919935
 20
-7.047671081353406
 30
0.0
 40
0.18
 41
0.0
 71
     5
 72
     1
  1
\A1;0.294
  7
TECHNIC
 73
     1
 44
1.0
1001
ACAD
1000
MTEXTBEGIN
1070
    73
1070
     1
1070
    44
1040
1.0
1070
    74
1070
     0
1000
MTEXTEND
  0
POINT
  5
22197
330
21CEC
100
AcDbEntity
  8
DEFPOINTS
 62
     0
100
AcDbPoint
 10
20.46761833614934
 20
-6.768144633704891
 30
0.0
  0
POINT
  5
22198
330
21CEC
100
AcDbEntity
  8
DEFPOINTS
 62
     0
100
AcDbPoint
 10
20.76161833614935
 20
-6.323144633704893
 30
0.0
  0
POINT
  5
22199
330
21CEC
100
AcDbEntity
  8
DEFPOINTS
 62
     0
100
AcDbPoint
 10
20.76161833614935
 20
-7.047671081353406
 30
0.0
  0
ENDBLK
  5
21CEE
330
21CEC
100
AcDbEntity
  8
0
100
AcDbBlockEnd
  0
BLOCK
  5
21D28
330
21D27
100
AcDbEntity
  8
0
100
AcDbBlockBegin
  2
*D19
 70
     1
 10
0.0
 20
0.0
 30
0.0
  3
*D19
  1

  0
LINE
  5
21F43
330
21D27
100
AcDbEntity
  8
0
 62
     0
370
    -2
100
AcDbLine
 10
29.0132185291182
 20
6.478978049626842
 30
0.0
 11
29.0132185291182
 21
7.438424484736012
 31
0.0
  0
LINE
  5
21F44
330
21D27
100
AcDbEntity
  8
0
 62
     0
370
    -2
100
AcDbLine
 10
28.9512185291182
 20
6.478978049626842
 30
0.0
 11
28.9512185291182
 21
7.438424484736012
 31
0.0
  0
LINE
  5
21F45
330
21D27
100
AcDbEntity
  8
0
 62
     0
370
    -2
100
AcDbLine
 10
29.1932185291182
 20
7.258424484736011
 30
0.0
 11
29.3732185291182
 21
7.258424484736011
 31
0.0
  0
LINE
  5
21F46
330
21D27
100
AcDbEntity
  8
0
 62
     0
370
    -2
100
AcDbLine
 10
28.7712185291182
 20
7.258424484736011
 30
0.0
 11
28.5912185291182
 21
7.258424484736011
 31
0.0
  0
SOLID
  5
21F47
330
21D27
100
AcDbEntity
  8
0
 62
     0
100
AcDbTrace
 10
29.1932185291182
 20
7.288424484736012
 30
0.0
 11
29.1932185291182
 21
7.228424484736012
 31
0.0
 12
29.0132185291182
 22
7.258424484736011
 32
0.0
 13
29.0132185291182
 23
7.258424484736011
 33
0.0
  0
SOLID
  5
21F48
330
21D27
100
AcDbEntity
  8
0
 62
     0
100
AcDbTrace
 10
28.7712185291182
 20
7.288424484736012
 30
0.0
 11
28.7712185291182
 21
7.228424484736012
 31
0.0
 12
28.9512185291182
 22
7.258424484736011
 32
0.0
 13
28.9512185291182
 23
7.258424484736011
 33
0.0
  0
MTEXT
  5
21F49
330
21D27
100
AcDbEntity
  8
0
 62
     0
100
AcDbMText
 10
28.22315359405326
 20
7.258424484736011
 30
0.0
 40
0.18
 41
0.0
 71
     5
 72
     1
  1
\A1;0.062
  7
TECHNIC
 73
     1
 44
1.0
1001
ACAD
1000
MTEXTBEGIN
1070
    73
1070
     1
1070
    44
1040
1.0
1070
    74
1070
     0
1000
MTEXTEND
  0
POINT
  5
21F4A
330
21D27
100
AcDbEntity
  8
DEFPOINTS
 62
     0
100
AcDbPoint
 10
29.0132185291182
 20
6.416478049626842
 30
0.0
  0
POINT
  5
21F4B
330
21D27
100
AcDbEntity
  8
DEFPOINTS
 62
     0
100
AcDbPoint
 10
28.9512185291182
 20
6.416478049626842
 30
0.0
  0
POINT
  5
21F4C
330
21D27
100
AcDbEntity
  8
DEFPOINTS
 62
     0
100
AcDbPoint
 10
28.9512185291182
 20
7.258424484736011
 30
0.0
  0
ENDBLK
  5
21D29
330
21D27
100
AcDbEntity
  8
0
100
AcDbBlockEnd
  0
BLOCK
  5
21D35
330
21D34
100
AcDbEntity
  8
0
100
AcDbBlockBegin
  2
*D20
 70
     1
 10
0.0
 20
0.0
 30
0.0
  3
*D20
  1

  0
LINE
  5
21F2F
330
21D34
100
AcDbEntity
  8
0
 62
     0
370
    -2
100
AcDbLine
 10
28.91971852911822
 20
6.447478049626846
 30
0.0
 11
28.02826493526966
 21
6.447478049626846
 31
0.0
  0
LINE
  5
21F30
330
21D34
100
AcDbEntity
  8
0
 62
     0
370
    -2
100
AcDbLine
 10
28.91971852911822
 20
5.947478049626844
 30
0.0
 11
28.02826493526966
 21
5.947478049626844
 31
0.0
  0
LINE
  5
21F31
330
21D34
100
AcDbEntity
  8
0
 62
     0
370
    -2
100
AcDbLine
 10
28.20826493526965
 20
6.627478049626844
 30
0.0
 11
28.20826493526965
 21
6.807478049626846
 31
0.0
  0
LINE
  5
21F32
330
21D34
100
AcDbEntity
  8
0
 62
     0
370
    -2
100
AcDbLine
 10
28.20826493526965
 20
5.767478049626843
 30
0.0
 11
28.20826493526965
 21
5.587478049626843
 31
0.0
  0
SOLID
  5
21F33
330
21D34
100
AcDbEntity
  8
0
 62
     0
100
AcDbTrace
 10
28.17826493526965
 20
6.627478049626844
 30
0.0
 11
28.23826493526965
 21
6.627478049626844
 31
0.0
 12
28.20826493526965
 22
6.447478049626846
 32
0.0
 13
28.20826493526965
 23
6.447478049626846
 33
0.0
  0
SOLID
  5
21F34
330
21D34
100
AcDbEntity
  8
0
 62
     0
100
AcDbTrace
 10
28.17826493526965
 20
5.767478049626843
 30
0.0
 11
28.23826493526965
 21
5.767478049626843
 31
0.0
 12
28.20826493526965
 22
5.947478049626844
 32
0.0
 13
28.20826493526965
 23
5.947478049626844
 33
0.0
  0
MTEXT
  5
21F35
330
21D34
100
AcDbEntity
  8
0
 62
     0
100
AcDbMText
 10
28.20826493526965
 20
6.197478049626835
 30
0.0
 40
0.18
 41
0.0
 71
     5
 72
     1
  1
\A1;0.500
  7
TECHNIC
 73
     1
 44
1.0
1001
ACAD
1000
MTEXTBEGIN
1070
    73
1070
     1
1070
    44
1040
1.0
1070
    74
1070
     0
1000
MTEXTEND
  0
POINT
  5
21F36
330
21D34
100
AcDbEntity
  8
DEFPOINTS
 62
     0
100
AcDbPoint
 10
28.98221852911822
 20
6.447478049626846
 30
0.0
  0
POINT
  5
21F37
330
21D34
100
AcDbEntity
  8
DEFPOINTS
 62
     0
100
AcDbPoint
 10
28.98221852911822
 20
5.947478049626844
 30
0.0
  0
POINT
  5
21F38
330
21D34
100
AcDbEntity
  8
DEFPOINTS
 62
     0
100
AcDbPoint
 10
28.20826493526965
 20
5.947478049626844
 30
0.0
  0
ENDBLK
  5
21D36
330
21D34
100
AcDbEntity
  8
0
100
AcDbBlockEnd
  0
BLOCK
  5
21D43
330
21D42
100
AcDbEntity
  8
0
100
AcDbBlockBegin
  2
*D21
 70
     1
 10
0.0
 20
0.0
 30
0.0
  3
*D21
  1

  0
LINE
  5
21F81
330
21D42
100
AcDbEntity
  8
0
 62
     0
370
    -2
100
AcDbLine
 10
33.66271852911821
 20
3.901478049626843
 30
0.0
 11
34.33991812572979
 21
3.901478049626843
 31
0.0
  0
LINE
  5
21F82
330
21D42
100
AcDbEntity
  8
0
 62
     0
370
    -2
100
AcDbLine
 10
33.66271852911821
 20
4.557478049626843
 30
0.0
 11
34.33991812572979
 21
4.557478049626844
 31
0.0
  0
LINE
  5
21F83
330
21D42
100
AcDbEntity
  8
0
 62
     0
370
    -2
100
AcDbLine
 10
34.15991812572979
 20
3.721478049626843
 30
0.0
 11
34.15991812572979
 21
3.541478049626844
 31
0.0
  0
LINE
  5
21F84
330
21D42
100
AcDbEntity
  8
0
 62
     0
370
    -2
100
AcDbLine
 10
34.15991812572979
 20
4.737478049626844
 30
0.0
 11
34.15991812572979
 21
4.917478049626844
 31
0.0
  0
SOLID
  5
21F85
330
21D42
100
AcDbEntity
  8
0
 62
     0
100
AcDbTrace
 10
34.12991812572979
 20
3.721478049626843
 30
0.0
 11
34.18991812572979
 21
3.721478049626843
 31
0.0
 12
34.15991812572979
 22
3.901478049626843
 32
0.0
 13
34.15991812572979
 23
3.901478049626843
 33
0.0
  0
SOLID
  5
21F86
330
21D42
100
AcDbEntity
  8
0
 62
     0
100
AcDbTrace
 10
34.12991812572979
 20
4.737478049626844
 30
0.0
 11
34.18991812572979
 21
4.737478049626844
 31
0.0
 12
34.15991812572979
 22
4.557478049626844
 32
0.0
 13
34.15991812572979
 23
4.557478049626844
 33
0.0
  0
MTEXT
  5
21F87
330
21D42
100
AcDbEntity
  8
0
 62
     0
100
AcDbMText
 10
34.15991812572978
 20
4.229478049626845
 30
0.0
 40
0.18
 41
0.0
 71
     5
 72
     1
  1
\A1;0.656
  7
TECHNIC
 73
     1
 44
1.0
1001
ACAD
1000
MTEXTBEGIN
1070
    73
1070
     1
1070
    44
1040
1.0
1070
    74
1070
     0
1000
MTEXTEND
  0
POINT
  5
21F88
330
21D42
100
AcDbEntity
  8
DEFPOINTS
 62
     0
100
AcDbPoint
 10
33.60021852911821
 20
3.901478049626843
 30
0.0
  0
POINT
  5
21F89
330
21D42
100
AcDbEntity
  8
DEFPOINTS
 62
     0
100
AcDbPoint
 10
33.60021852911821
 20
4.557478049626843
 30
0.0
  0
POINT
  5
21F8A
330
21D42
100
AcDbEntity
  8
DEFPOINTS
 62
     0
100
AcDbPoint
 10
34.15991812572979
 20
4.557478049626844
 30
0.0
  0
ENDBLK
  5
21D44
330
21D42
100
AcDbEntity
  8
0
100
AcDbBlockEnd
  0
BLOCK
  5
21D51
330
21D50
100
AcDbEntity
  8
0
100
AcDbBlockBegin
  2
*D22
 70
     1
 10
0.0
 20
0.0
 30
0.0
  3
*D22
  1

  0
LINE
  5
21F77
330
21D50
100
AcDbEntity
  8
0
 62
     0
370
    -2
100
AcDbLine
 10
33.43021852911821
 20
3.260978049626839
 30
0.0
 11
33.43021852911821
 21
2.53900923541573
 31
0.0
  0
LINE
  5
21F78
330
21D50
100
AcDbEntity
  8
0
 62
     0
370
    -2
100
AcDbLine
 10
33.5692185291182
 20
3.588978049626839
 30
0.0
 11
33.5692185291182
 21
2.53900923541573
 31
0.0
  0
LINE
  5
21F79
330
21D50
100
AcDbEntity
  8
0
 62
     0
370
    -2
100
AcDbLine
 10
33.25021852911821
 20
2.719009235415729
 30
0.0
 11
33.07021852911821
 21
2.719009235415729
 31
0.0
  0
LINE
  5
21F7A
330
21D50
100
AcDbEntity
  8
0
 62
     0
370
    -2
100
AcDbLine
 10
33.7492185291182
 20
2.719009235415729
 30
0.0
 11
33.92921852911821
 21
2.719009235415729
 31
0.0
  0
SOLID
  5
21F7B
330
21D50
100
AcDbEntity
  8
0
 62
     0
100
AcDbTrace
 10
33.25021852911821
 20
2.74900923541573
 30
0.0
 11
33.25021852911821
 21
2.68900923541573
 31
0.0
 12
33.43021852911821
 22
2.719009235415729
 32
0.0
 13
33.43021852911821
 23
2.719009235415729
 33
0.0
  0
SOLID
  5
21F7C
330
21D50
100
AcDbEntity
  8
0
 62
     0
100
AcDbTrace
 10
33.7492185291182
 20
2.74900923541573
 30
0.0
 11
33.7492185291182
 21
2.68900923541573
 31
0.0
 12
33.5692185291182
 22
2.719009235415729
 32
0.0
 13
33.5692185291182
 23
2.719009235415729
 33
0.0
  0
MTEXT
  5
21F7D
330
21D50
100
AcDbEntity
  8
0
 62
     0
100
AcDbMText
 10
34.29763411353379
 20
2.719009235415729
 30
0.0
 40
0.18
 41
0.0
 71
     5
 72
     1
  1
\A1;0.139
  7
TECHNIC
 73
     1
 44
1.0
1001
ACAD
1000
MTEXTBEGIN
1070
    73
1070
     1
1070
    44
1040
1.0
1070
    74
1070
     0
1000
MTEXTEND
  0
POINT
  5
21F7E
330
21D50
100
AcDbEntity
  8
DEFPOINTS
 62
     0
100
AcDbPoint
 10
33.43021852911821
 20
3.323478049626839
 30
0.0
  0
POINT
  5
21F7F
330
21D50
100
AcDbEntity
  8
DEFPOINTS
 62
     0
100
AcDbPoint
 10
33.5692185291182
 20
3.651478049626839
 30
0.0
  0
POINT
  5
21F80
330
21D50
100
AcDbEntity
  8
DEFPOINTS
 62
     0
100
AcDbPoint
 10
33.5692185291182
 20
2.719009235415729
 30
0.0
  0
ENDBLK
  5
21D52
330
21D50
100
AcDbEntity
  8
0
100
AcDbBlockEnd
  0
BLOCK
  5
21D8C
330
21D8B
100
AcDbEntity
  8
0
100
AcDbBlockBegin
  2
*D23
 70
     1
 10
0.0
 20
0.0
 30
0.0
  3
*D23
  1

  0
LINE
  5
22133
330
21D8B
100
AcDbEntity
  8
0
 62
     0
370
    -2
100
AcDbLine
 10
28.6120251338748
 20
-3.381138715708416
 30
0.0
 11
28.6120251338748
 21
-2.390192280599247
 31
0.0
  0
LINE
  5
22134
330
21D8B
100
AcDbEntity
  8
0
 62
     0
370
    -2
100
AcDbLine
 10
28.4870251338748
 20
-3.381138715708416
 30
0.0
 11
28.4870251338748
 21
-2.390192280599247
 31
0.0
  0
LINE
  5
22135
330
21D8B
100
AcDbEntity
  8
0
 62
     0
370
    -2
100
AcDbLine
 10
28.7920251338748
 20
-2.570192280599247
 30
0.0
 11
28.9720251338748
 21
-2.570192280599247
 31
0.0
  0
LINE
  5
22136
330
21D8B
100
AcDbEntity
  8
0
 62
     0
370
    -2
100
AcDbLine
 10
28.3070251338748
 20
-2.570192280599247
 30
0.0
 11
28.1270251338748
 21
-2.570192280599247
 31
0.0
  0
SOLID
  5
22137
330
21D8B
100
AcDbEntity
  8
0
 62
     0
100
AcDbTrace
 10
28.7920251338748
 20
-2.540192280599247
 30
0.0
 11
28.7920251338748
 21
-2.600192280599247
 31
0.0
 12
28.6120251338748
 22
-2.570192280599247
 32
0.0
 13
28.6120251338748
 23
-2.570192280599247
 33
0.0
  0
SOLID
  5
22138
330
21D8B
100
AcDbEntity
  8
0
 62
     0
100
AcDbTrace
 10
28.3070251338748
 20
-2.540192280599247
 30
0.0
 11
28.3070251338748
 21
-2.600192280599247
 31
0.0
 12
28.4870251338748
 22
-2.570192280599247
 32
0.0
 13
28.4870251338748
 23
-2.570192280599247
 33
0.0
  0
MTEXT
  5
22139
330
21D8B
100
AcDbEntity
  8
0
 62
     0
100
AcDbMText
 10
27.75860954945922
 20
-2.570192280599247
 30
0.0
 40
0.18
 41
0.0
 71
     5
 72
     1
  1
\A1;0.125
  7
TECHNIC
 73
     1
 44
1.0
1001
ACAD
1000
MTEXTBEGIN
1070
    73
1070
     1
1070
    44
1040
1.0
1070
    74
1070
     0
1000
MTEXTEND
  0
POINT
  5
2213A
330
21D8B
100
AcDbEntity
  8
DEFPOINTS
 62
     0
100
AcDbPoint
 10
28.6120251338748
 20
-3.443638715708416
 30
0.0
  0
POINT
  5
2213B
330
21D8B
100
AcDbEntity
  8
DEFPOINTS
 62
     0
100
AcDbPoint
 10
28.4870251338748
 20
-3.443638715708416
 30
0.0
  0
POINT
  5
2213C
330
21D8B
100
AcDbEntity
  8
DEFPOINTS
 62
     0
100
AcDbPoint
 10
28.4870251338748
 20
-2.570192280599247
 30
0.0
  0
ENDBLK
  5
21D8D
330
21D8B
100
AcDbEntity
  8
0
100
AcDbBlockEnd
  0
BLOCK
  5
21D99
330
21D98
100
AcDbEntity
  8
0
100
AcDbBlockBegin
  2
*D24
 70
     1
 10
0.0
 20
0.0
 30
0.0
  3
*D24
  1

  0
LINE
  5
2211F
330
21D98
100
AcDbEntity
  8
0
 62
     0
370
    -2
100
AcDbLine
 10
28.48702513387483
 20
-3.381138715708417
 30
0.0
 11
27.59557154002626
 21
-3.381138715708417
 31
0.0
  0
LINE
  5
22120
330
21D98
100
AcDbEntity
  8
0
 62
     0
370
    -2
100
AcDbLine
 10
28.48702513387483
 20
-4.131138715708417
 30
0.0
 11
27.59557154002626
 21
-4.131138715708417
 31
0.0
  0
LINE
  5
22121
330
21D98
100
AcDbEntity
  8
0
 62
     0
370
    -2
100
AcDbLine
 10
27.77557154002626
 20
-3.561138715708418
 30
0.0
 11
27.77557154002626
 21
-3.573508845578541
 31
0.0
  0
LINE
  5
22122
330
21D98
100
AcDbEntity
  8
0
 62
     0
370
    -2
100
AcDbLine
 10
27.77557154002626
 20
-3.951138715708417
 30
0.0
 11
27.77557154002626
 21
-3.938768585838281
 31
0.0
  0
SOLID
  5
22123
330
21D98
100
AcDbEntity
  8
0
 62
     0
100
AcDbTrace
 10
27.74557154002625
 20
-3.561138715708418
 30
0.0
 11
27.80557154002626
 21
-3.561138715708418
 31
0.0
 12
27.77557154002626
 22
-3.381138715708417
 32
0.0
 13
27.77557154002626
 23
-3.381138715708417
 33
0.0
  0
SOLID
  5
22124
330
21D98
100
AcDbEntity
  8
0
 62
     0
100
AcDbTrace
 10
27.74557154002625
 20
-3.951138715708417
 30
0.0
 11
27.80557154002626
 21
-3.951138715708417
 31
0.0
 12
27.77557154002626
 22
-4.131138715708417
 32
0.0
 13
27.77557154002626
 23
-4.131138715708417
 33
0.0
  0
MTEXT
  5
22125
330
21D98
100
AcDbEntity
  8
0
 62
     0
100
AcDbMText
 10
27.77557154002625
 20
-3.756138715708417
 30
0.0
 40
0.18
 41
0.0
 71
     5
 72
     1
  1
\A1;0.750
  7
TECHNIC
 73
     1
 44
1.0
1001
ACAD
1000
MTEXTBEGIN
1070
    73
1070
     1
1070
    44
1040
1.0
1070
    74
1070
     0
1000
MTEXTEND
  0
POINT
  5
22126
330
21D98
100
AcDbEntity
  8
DEFPOINTS
 62
     0
100
AcDbPoint
 10
28.54952513387483
 20
-3.381138715708417
 30
0.0
  0
POINT
  5
22127
330
21D98
100
AcDbEntity
  8
DEFPOINTS
 62
     0
100
AcDbPoint
 10
28.54952513387483
 20
-4.131138715708417
 30
0.0
  0
POINT
  5
22128
330
21D98
100
AcDbEntity
  8
DEFPOINTS
 62
     0
100
AcDbPoint
 10
27.77557154002626
 20
-4.131138715708417
 30
0.0
  0
ENDBLK
  5
21D9A
330
21D98
100
AcDbEntity
  8
0
100
AcDbBlockEnd
  0
BLOCK
  5
21DA7
330
21DA6
100
AcDbEntity
  8
0
100
AcDbBlockBegin
  2
*D25
 70
     1
 10
0.0
 20
0.0
 30
0.0
  3
*D25
  1

  0
LINE
  5
22168
330
21DA6
100
AcDbEntity
  8
0
 62
     0
370
    -2
100
AcDbLine
 10
33.42452513387482
 20
-5.943638715708417
 30
0.0
 11
34.12322473048639
 21
-5.943638715708417
 31
0.0
  0
LINE
  5
22169
330
21DA6
100
AcDbEntity
  8
0
 62
     0
370
    -2
100
AcDbLine
 10
33.42452513387482
 20
-5.068638715708417
 30
0.0
 11
34.12322473048639
 21
-5.068638715708416
 31
0.0
  0
LINE
  5
2216A
330
21DA6
100
AcDbEntity
  8
0
 62
     0
370
    -2
100
AcDbLine
 10
33.94322473048639
 20
-5.763638715708419
 30
0.0
 11
33.94322473048639
 21
-5.688768585838279
 31
0.0
  0
LINE
  5
2216B
330
21DA6
100
AcDbEntity
  8
0
 62
     0
370
    -2
100
AcDbLine
 10
33.94322473048639
 20
-5.248638715708417
 30
0.0
 11
33.94322473048639
 21
-5.323508845578539
 31
0.0
  0
SOLID
  5
2216C
330
21DA6
100
AcDbEntity
  8
0
 62
     0
100
AcDbTrace
 10
33.91322473048639
 20
-5.763638715708419
 30
0.0
 11
33.97322473048639
 21
-5.763638715708419
 31
0.0
 12
33.94322473048639
 22
-5.943638715708417
 32
0.0
 13
33.94322473048639
 23
-5.943638715708417
 33
0.0
  0
SOLID
  5
2216D
330
21DA6
100
AcDbEntity
  8
0
 62
     0
100
AcDbTrace
 10
33.91322473048639
 20
-5.248638715708417
 30
0.0
 11
33.97322473048639
 21
-5.248638715708417
 31
0.0
 12
33.94322473048639
 22
-5.068638715708417
 32
0.0
 13
33.94322473048639
 23
-5.068638715708417
 33
0.0
  0
MTEXT
  5
2216E
330
21DA6
100
AcDbEntity
  8
0
 62
     0
100
AcDbMText
 10
33.94322473048638
 20
-5.506138715708417
 30
0.0
 40
0.18
 41
0.0
 71
     5
 72
     1
  1
\A1;0.875
  7
TECHNIC
 73
     1
 44
1.0
1001
ACAD
1000
MTEXTBEGIN
1070
    73
1070
     1
1070
    44
1040
1.0
1070
    74
1070
     0
1000
MTEXTEND
  0
POINT
  5
2216F
330
21DA6
100
AcDbEntity
  8
DEFPOINTS
 62
     0
100
AcDbPoint
 10
33.36202513387482
 20
-5.943638715708417
 30
0.0
  0
POINT
  5
22170
330
21DA6
100
AcDbEntity
  8
DEFPOINTS
 62
     0
100
AcDbPoint
 10
33.36202513387482
 20
-5.068638715708417
 30
0.0
  0
POINT
  5
22171
330
21DA6
100
AcDbEntity
  8
DEFPOINTS
 62
     0
100
AcDbPoint
 10
33.94322473048639
 20
-5.068638715708417
 30
0.0
  0
ENDBLK
  5
21DA8
330
21DA6
100
AcDbEntity
  8
0
100
AcDbBlockEnd
  0
BLOCK
  5
21DB5
330
21DB4
100
AcDbEntity
  8
0
100
AcDbBlockBegin
  2
*D26
 70
     1
 10
0.0
 20
0.0
 30
0.0
  3
*D26
  1

  0
LINE
  5
2217C
330
21DB4
100
AcDbEntity
  8
0
 62
     0
370
    -2
100
AcDbLine
 10
33.0495251338748
 20
-6.818638715708415
 30
0.0
 11
33.0495251338748
 21
-7.316662889296394
 31
0.0
  0
LINE
  5
2217D
330
21DB4
100
AcDbEntity
  8
0
 62
     0
370
    -2
100
AcDbLine
 10
33.2995251338748
 20
-6.381138715708415
 30
0.0
 11
33.2995251338748
 21
-7.316662889296394
 31
0.0
  0
LINE
  5
2217E
330
21DB4
100
AcDbEntity
  8
0
 62
     0
370
    -2
100
AcDbLine
 10
32.8695251338748
 20
-7.136662889296395
 30
0.0
 11
32.68952513387481
 21
-7.136662889296395
 31
0.0
  0
LINE
  5
2217F
330
21DB4
100
AcDbEntity
  8
0
 62
     0
370
    -2
100
AcDbLine
 10
33.4795251338748
 20
-7.136662889296395
 30
0.0
 11
33.6595251338748
 21
-7.136662889296395
 31
0.0
  0
SOLID
  5
22180
330
21DB4
100
AcDbEntity
  8
0
 62
     0
100
AcDbTrace
 10
32.8695251338748
 20
-7.106662889296394
 30
0.0
 11
32.8695251338748
 21
-7.166662889296397
 31
0.0
 12
33.0495251338748
 22
-7.136662889296395
 32
0.0
 13
33.0495251338748
 23
-7.136662889296395
 33
0.0
  0
SOLID
  5
22181
330
21DB4
100
AcDbEntity
  8
0
 62
     0
100
AcDbTrace
 10
33.4795251338748
 20
-7.106662889296394
 30
0.0
 11
33.4795251338748
 21
-7.166662889296397
 31
0.0
 12
33.2995251338748
 22
-7.136662889296395
 32
0.0
 13
33.2995251338748
 23
-7.136662889296395
 33
0.0
  0
MTEXT
  5
22182
330
21DB4
100
AcDbEntity
  8
0
 62
     0
100
AcDbMText
 10
34.02881734166701
 20
-7.136662889296395
 30
0.0
 40
0.18
 41
0.0
 71
     5
 72
     1
  1
\A1;0.250
  7
TECHNIC
 73
     1
 44
1.0
1001
ACAD
1000
MTEXTBEGIN
1070
    73
1070
     1
1070
    44
1040
1.0
1070
    74
1070
     0
1000
MTEXTEND
  0
POINT
  5
22183
330
21DB4
100
AcDbEntity
  8
DEFPOINTS
 62
     0
100
AcDbPoint
 10
33.0495251338748
 20
-6.756138715708415
 30
0.0
  0
POINT
  5
22184
330
21DB4
100
AcDbEntity
  8
DEFPOINTS
 62
     0
100
AcDbPoint
 10
33.2995251338748
 20
-6.318638715708415
 30
0.0
  0
POINT
  5
22185
330
21DB4
100
AcDbEntity
  8
DEFPOINTS
 62
     0
100
AcDbPoint
 10
33.2995251338748
 20
-7.136662889296395
 30
0.0
  0
ENDBLK
  5
21DB6
330
21DB4
100
AcDbEntity
  8
0
100
AcDbBlockEnd
  0
BLOCK
  5
21DF0
330
21DEF
100
AcDbEntity
  8
0
100
AcDbBlockBegin
  2
*D27
 70
     1
 10
0.0
 20
0.0
 30
0.0
  3
*D27
  1

  0
LINE
  5
21FB4
330
21DEF
100
AcDbEntity
  8
0
 62
     0
370
    -2
100
AcDbLine
 10
41.47674168492939
 20
6.740410891662713
 30
0.0
 11
41.47674168492939
 21
7.71535732677188
 31
0.0
  0
LINE
  5
21FB5
330
21DEF
100
AcDbEntity
  8
0
 62
     0
370
    -2
100
AcDbLine
 10
41.3837416849294
 20
6.740410891662713
 30
0.0
 11
41.3837416849294
 21
7.71535732677188
 31
0.0
  0
LINE
  5
21FB6
330
21DEF
100
AcDbEntity
  8
0
 62
     0
370
    -2
100
AcDbLine
 10
41.6567416849294
 20
7.53535732677188
 30
0.0
 11
41.8367416849294
 21
7.53535732677188
 31
0.0
  0
LINE
  5
21FB7
330
21DEF
100
AcDbEntity
  8
0
 62
     0
370
    -2
100
AcDbLine
 10
41.20374168492939
 20
7.53535732677188
 30
0.0
 11
41.02374168492938
 21
7.53535732677188
 31
0.0
  0
SOLID
  5
21FB8
330
21DEF
100
AcDbEntity
  8
0
 62
     0
100
AcDbTrace
 10
41.6567416849294
 20
7.565357326771882
 30
0.0
 11
41.6567416849294
 21
7.50535732677188
 31
0.0
 12
41.47674168492939
 22
7.53535732677188
 32
0.0
 13
41.47674168492939
 23
7.53535732677188
 33
0.0
  0
SOLID
  5
21FB9
330
21DEF
100
AcDbEntity
  8
0
 62
     0
100
AcDbTrace
 10
41.20374168492939
 20
7.565357326771882
 30
0.0
 11
41.20374168492939
 21
7.50535732677188
 31
0.0
 12
41.3837416849294
 22
7.53535732677188
 32
0.0
 13
41.3837416849294
 23
7.53535732677188
 33
0.0
  0
MTEXT
  5
21FBA
330
21DEF
100
AcDbEntity
  8
0
 62
     0
100
AcDbMText
 10
40.6543325940203
 20
7.53535732677188
 30
0.0
 40
0.18
 41
0.0
 71
     5
 72
     1
  1
\A1;0.093
  7
TECHNIC
 73
     1
 44
1.0
1001
ACAD
1000
MTEXTBEGIN
1070
    73
1070
     1
1070
    44
1040
1.0
1070
    74
1070
     0
1000
MTEXTEND
  0
POINT
  5
21FBB
330
21DEF
100
AcDbEntity
  8
DEFPOINTS
 62
     0
100
AcDbPoint
 10
41.47674168492939
 20
6.677910891662713
 30
0.0
  0
POINT
  5
21FBC
330
21DEF
100
AcDbEntity
  8
DEFPOINTS
 62
     0
100
AcDbPoint
 10
41.3837416849294
 20
6.677910891662713
 30
0.0
  0
POINT
  5
21FBD
330
21DEF
100
AcDbEntity
  8
DEFPOINTS
 62
     0
100
AcDbPoint
 10
41.3837416849294
 20
7.53535732677188
 30
0.0
  0
ENDBLK
  5
21DF1
330
21DEF
100
AcDbEntity
  8
0
100
AcDbBlockEnd
  0
BLOCK
  5
21DFD
330
21DFC
100
AcDbEntity
  8
0
100
AcDbBlockBegin
  2
*D28
 70
     1
 10
0.0
 20
0.0
 30
0.0
  3
*D28
  1

  0
LINE
  5
21FA0
330
21DFC
100
AcDbEntity
  8
0
 62
     0
370
    -2
100
AcDbLine
 10
41.3677416849294
 20
6.724410891662714
 30
0.0
 11
40.47628809108084
 21
6.724410891662714
 31
0.0
  0
LINE
  5
21FA1
330
21DFC
100
AcDbEntity
  8
0
 62
     0
370
    -2
100
AcDbLine
 10
41.3677416849294
 20
6.224410891662719
 30
0.0
 11
40.47628809108084
 21
6.224410891662719
 31
0.0
  0
LINE
  5
21FA2
330
21DFC
100
AcDbEntity
  8
0
 62
     0
370
    -2
100
AcDbLine
 10
40.65628809108083
 20
6.904410891662714
 30
0.0
 11
40.65628809108083
 21
7.084410891662715
 31
0.0
  0
LINE
  5
21FA3
330
21DFC
100
AcDbEntity
  8
0
 62
     0
370
    -2
100
AcDbLine
 10
40.65628809108083
 20
6.044410891662718
 30
0.0
 11
40.65628809108083
 21
5.864410891662718
 31
0.0
  0
SOLID
  5
21FA4
330
21DFC
100
AcDbEntity
  8
0
 62
     0
100
AcDbTrace
 10
40.62628809108084
 20
6.904410891662714
 30
0.0
 11
40.68628809108083
 21
6.904410891662714
 31
0.0
 12
40.65628809108083
 22
6.724410891662714
 32
0.0
 13
40.65628809108083
 23
6.724410891662714
 33
0.0
  0
SOLID
  5
21FA5
330
21DFC
100
AcDbEntity
  8
0
 62
     0
100
AcDbTrace
 10
40.62628809108084
 20
6.044410891662718
 30
0.0
 11
40.68628809108083
 21
6.044410891662718
 31
0.0
 12
40.65628809108083
 22
6.224410891662719
 32
0.0
 13
40.65628809108083
 23
6.224410891662719
 33
0.0
  0
MTEXT
  5
21FA6
330
21DFC
100
AcDbEntity
  8
0
 62
     0
100
AcDbMText
 10
40.65628809108082
 20
6.474410891662703
 30
0.0
 40
0.18
 41
0.0
 71
     5
 72
     1
  1
\A1;0.500
  7
TECHNIC
 73
     1
 44
1.0
1001
ACAD
1000
MTEXTBEGIN
1070
    73
1070
     1
1070
    44
1040
1.0
1070
    74
1070
     0
1000
MTEXTEND
  0
POINT
  5
21FA7
330
21DFC
100
AcDbEntity
  8
DEFPOINTS
 62
     0
100
AcDbPoint
 10
41.4302416849294
 20
6.724410891662714
 30
0.0
  0
POINT
  5
21FA8
330
21DFC
100
AcDbEntity
  8
DEFPOINTS
 62
     0
100
AcDbPoint
 10
41.4302416849294
 20
6.224410891662719
 30
0.0
  0
POINT
  5
21FA9
330
21DFC
100
AcDbEntity
  8
DEFPOINTS
 62
     0
100
AcDbPoint
 10
40.65628809108083
 20
6.224410891662719
 30
0.0
  0
ENDBLK
  5
21DFE
330
21DFC
100
AcDbEntity
  8
0
100
AcDbBlockEnd
  0
BLOCK
  5
21E0B
330
21E0A
100
AcDbEntity
  8
0
100
AcDbBlockBegin
  2
*D29
 70
     1
 10
0.0
 20
0.0
 30
0.0
  3
*D29
  1

  0
LINE
  5
21FFC
330
21E0A
100
AcDbEntity
  8
0
 62
     0
370
    -2
100
AcDbLine
 10
46.2892416849294
 20
3.849410891662714
 30
0.0
 11
46.9926106957546
 21
3.849410891662714
 31
0.0
  0
LINE
  5
21FFD
330
21E0A
100
AcDbEntity
  8
0
 62
     0
370
    -2
100
AcDbLine
 10
46.2892416849294
 20
4.599410891662714
 30
0.0
 11
46.9926106957546
 21
4.599410891662714
 31
0.0
  0
LINE
  5
21FFE
330
21E0A
100
AcDbEntity
  8
0
 62
     0
370
    -2
100
AcDbLine
 10
46.81261069575461
 20
4.029410891662716
 30
0.0
 11
46.81261069575461
 21
4.04178102153286
 31
0.0
  0
LINE
  5
21FFF
330
21E0A
100
AcDbEntity
  8
0
 62
     0
370
    -2
100
AcDbLine
 10
46.81261069575461
 20
4.419410891662715
 30
0.0
 11
46.81261069575461
 21
4.407040761792598
 31
0.0
  0
SOLID
  5
22000
330
21E0A
100
AcDbEntity
  8
0
 62
     0
100
AcDbTrace
 10
46.7826106957546
 20
4.029410891662716
 30
0.0
 11
46.84261069575462
 21
4.029410891662716
 31
0.0
 12
46.81261069575461
 22
3.849410891662714
 32
0.0
 13
46.81261069575461
 23
3.849410891662714
 33
0.0
  0
SOLID
  5
22001
330
21E0A
100
AcDbEntity
  8
0
 62
     0
100
AcDbTrace
 10
46.7826106957546
 20
4.419410891662715
 30
0.0
 11
46.84261069575462
 21
4.419410891662715
 31
0.0
 12
46.81261069575461
 22
4.599410891662714
 32
0.0
 13
46.81261069575461
 23
4.599410891662714
 33
0.0
  0
MTEXT
  5
22002
330
21E0A
100
AcDbEntity
  8
0
 62
     0
100
AcDbMText
 10
46.81261069575461
 20
4.224410891662714
 30
0.0
 40
0.18
 41
0.0
 71
     5
 72
     1
  1
\A1;0.750
  7
TECHNIC
 73
     1
 44
1.0
1001
ACAD
1000
MTEXTBEGIN
1070
    73
1070
     1
1070
    44
1040
1.0
1070
    74
1070
     0
1000
MTEXTEND
  0
POINT
  5
22003
330
21E0A
100
AcDbEntity
  8
DEFPOINTS
 62
     0
100
AcDbPoint
 10
46.22674168492941
 20
3.849410891662714
 30
0.0
  0
POINT
  5
22004
330
21E0A
100
AcDbEntity
  8
DEFPOINTS
 62
     0
100
AcDbPoint
 10
46.22674168492941
 20
4.599410891662714
 30
0.0
  0
POINT
  5
22005
330
21E0A
100
AcDbEntity
  8
DEFPOINTS
 62
     0
100
AcDbPoint
 10
46.81261069575461
 20
4.599410891662714
 30
0.0
  0
ENDBLK
  5
21E0C
330
21E0A
100
AcDbEntity
  8
0
100
AcDbBlockEnd
  0
BLOCK
  5
21E19
330
21E18
100
AcDbEntity
  8
0
100
AcDbBlockBegin
  2
*D30
 70
     1
 10
0.0
 20
0.0
 30
0.0
  3
*D30
  1

  0
LINE
  5
21FF2
330
21E18
100
AcDbEntity
  8
0
 62
     0
370
    -2
100
AcDbLine
 10
45.9302416849294
 20
3.161910891662714
 30
0.0
 11
45.9302416849294
 21
2.439942077451606
 31
0.0
  0
LINE
  5
21FF3
330
21E18
100
AcDbEntity
  8
0
 62
     0
370
    -2
100
AcDbLine
 10
46.18024168492939
 20
3.536910891662714
 30
0.0
 11
46.18024168492939
 21
2.439942077451606
 31
0.0
  0
LINE
  5
21FF4
330
21E18
100
AcDbEntity
  8
0
 62
     0
370
    -2
100
AcDbLine
 10
45.7502416849294
 20
2.619942077451606
 30
0.0
 11
45.57024168492939
 21
2.619942077451606
 31
0.0
  0
LINE
  5
21FF5
330
21E18
100
AcDbEntity
  8
0
 62
     0
370
    -2
100
AcDbLine
 10
46.3602416849294
 20
2.619942077451606
 30
0.0
 11
46.5402416849294
 21
2.619942077451606
 31
0.0
  0
SOLID
  5
21FF6
330
21E18
100
AcDbEntity
  8
0
 62
     0
100
AcDbTrace
 10
45.7502416849294
 20
2.649942077451604
 30
0.0
 11
45.7502416849294
 21
2.589942077451606
 31
0.0
 12
45.9302416849294
 22
2.619942077451606
 32
0.0
 13
45.9302416849294
 23
2.619942077451606
 33
0.0
  0
SOLID
  5
21FF7
330
21E18
100
AcDbEntity
  8
0
 62
     0
100
AcDbTrace
 10
46.3602416849294
 20
2.649942077451604
 30
0.0
 11
46.3602416849294
 21
2.589942077451606
 31
0.0
 12
46.18024168492939
 22
2.619942077451606
 32
0.0
 13
46.18024168492939
 23
2.619942077451606
 33
0.0
  0
MTEXT
  5
21FF8
330
21E18
100
AcDbEntity
  8
0
 62
     0
100
AcDbMText
 10
46.9095338927216
 20
2.619942077451606
 30
0.0
 40
0.18
 41
0.0
 71
     5
 72
     1
  1
\A1;0.250
  7
TECHNIC
 73
     1
 44
1.0
1001
ACAD
1000
MTEXTBEGIN
1070
    73
1070
     1
1070
    44
1040
1.0
1070
    74
1070
     0
1000
MTEXTEND
  0
POINT
  5
21FF9
330
21E18
100
AcDbEntity
  8
DEFPOINTS
 62
     0
100
AcDbPoint
 10
45.9302416849294
 20
3.224410891662714
 30
0.0
  0
POINT
  5
21FFA
330
21E18
100
AcDbEntity
  8
DEFPOINTS
 62
     0
100
AcDbPoint
 10
46.18024168492939
 20
3.599410891662714
 30
0.0
  0
POINT
  5
21FFB
330
21E18
100
AcDbEntity
  8
DEFPOINTS
 62
     0
100
AcDbPoint
 10
46.18024168492939
 20
2.619942077451606
 30
0.0
  0
ENDBLK
  5
21E1A
330
21E18
100
AcDbEntity
  8
0
100
AcDbBlockEnd
  0
BLOCK
  5
21E54
330
21E53
100
AcDbEntity
  8
0
100
AcDbBlockBegin
  2
*D31
 70
     1
 10
0.0
 20
0.0
 30
0.0
  3
*D31
  1

  0
LINE
  5
221C3
330
21E53
100
AcDbEntity
  8
0
 62
     0
370
    -2
100
AcDbLine
 10
41.11309286656337
 20
-3.481959505851662
 30
0.0
 11
41.11309286656337
 21
-2.491013070742493
 31
0.0
  0
LINE
  5
221C4
330
21E53
100
AcDbEntity
  8
0
 62
     0
370
    -2
100
AcDbLine
 10
40.98809286656337
 20
-3.481959505851662
 30
0.0
 11
40.98809286656337
 21
-2.491013070742493
 31
0.0
  0
LINE
  5
221C5
330
21E53
100
AcDbEntity
  8
0
 62
     0
370
    -2
100
AcDbLine
 10
41.29309286656337
 20
-2.671013070742493
 30
0.0
 11
41.47309286656335
 21
-2.671013070742493
 31
0.0
  0
LINE
  5
221C6
330
21E53
100
AcDbEntity
  8
0
 62
     0
370
    -2
100
AcDbLine
 10
40.80809286656337
 20
-2.671013070742493
 30
0.0
 11
40.62809286656337
 21
-2.671013070742493
 31
0.0
  0
SOLID
  5
221C7
330
21E53
100
AcDbEntity
  8
0
 62
     0
100
AcDbTrace
 10
41.29309286656337
 20
-2.641013070742493
 30
0.0
 11
41.29309286656337
 21
-2.701013070742491
 31
0.0
 12
41.11309286656337
 22
-2.671013070742493
 32
0.0
 13
41.11309286656337
 23
-2.671013070742493
 33
0.0
  0
SOLID
  5
221C8
330
21E53
100
AcDbEntity
  8
0
 62
     0
100
AcDbTrace
 10
40.80809286656337
 20
-2.641013070742493
 30
0.0
 11
40.80809286656337
 21
-2.701013070742491
 31
0.0
 12
40.98809286656337
 22
-2.671013070742493
 32
0.0
 13
40.98809286656337
 23
-2.671013070742493
 33
0.0
  0
MTEXT
  5
221C9
330
21E53
100
AcDbEntity
  8
0
 62
     0
100
AcDbMText
 10
40.25967728214777
 20
-2.671013070742493
 30
0.0
 40
0.18
 41
0.0
 71
     5
 72
     1
  1
\A1;0.125
  7
TECHNIC
 73
     1
 44
1.0
1001
ACAD
1000
MTEXTBEGIN
1070
    73
1070
     1
1070
    44
1040
1.0
1070
    74
1070
     0
1000
MTEXTEND
  0
POINT
  5
221CA
330
21E53
100
AcDbEntity
  8
DEFPOINTS
 62
     0
100
AcDbPoint
 10
41.11309286656337
 20
-3.544459505851662
 30
0.0
  0
POINT
  5
221CB
330
21E53
100
AcDbEntity
  8
DEFPOINTS
 62
     0
100
AcDbPoint
 10
40.98809286656337
 20
-3.544459505851662
 30
0.0
  0
POINT
  5
221CC
330
21E53
100
AcDbEntity
  8
DEFPOINTS
 62
     0
100
AcDbPoint
 10
40.98809286656337
 20
-2.671013070742493
 30
0.0
  0
ENDBLK
  5
21E55
330
21E53
100
AcDbEntity
  8
0
100
AcDbBlockEnd
  0
BLOCK
  5
21E61
330
21E60
100
AcDbEntity
  8
0
100
AcDbBlockBegin
  2
*D32
 70
     1
 10
0.0
 20
0.0
 30
0.0
  3
*D32
  1

  0
LINE
  5
221AF
330
21E60
100
AcDbEntity
  8
0
 62
     0
370
    -2
100
AcDbLine
 10
40.98809286656338
 20
-3.481959505851663
 30
0.0
 11
40.09663927271481
 21
-3.481959505851663
 31
0.0
  0
LINE
  5
221B0
330
21E60
100
AcDbEntity
  8
0
 62
     0
370
    -2
100
AcDbLine
 10
40.98809286656338
 20
-4.481959505851664
 30
0.0
 11
40.09663927271481
 21
-4.481959505851664
 31
0.0
  0
LINE
  5
221B1
330
21E60
100
AcDbEntity
  8
0
 62
     0
370
    -2
100
AcDbLine
 10
40.27663927271482
 20
-3.661959505851663
 30
0.0
 11
40.27663927271482
 21
-3.799563401955559
 31
0.0
  0
LINE
  5
221B2
330
21E60
100
AcDbEntity
  8
0
 62
     0
370
    -2
100
AcDbLine
 10
40.27663927271482
 20
-4.301959505851663
 30
0.0
 11
40.27663927271482
 21
-4.164355609747768
 31
0.0
  0
SOLID
  5
221B3
330
21E60
100
AcDbEntity
  8
0
 62
     0
100
AcDbTrace
 10
40.24663927271482
 20
-3.661959505851663
 30
0.0
 11
40.30663927271482
 21
-3.661959505851663
 31
0.0
 12
40.27663927271482
 22
-3.481959505851663
 32
0.0
 13
40.27663927271482
 23
-3.481959505851663
 33
0.0
  0
SOLID
  5
221B4
330
21E60
100
AcDbEntity
  8
0
 62
     0
100
AcDbTrace
 10
40.24663927271482
 20
-4.301959505851663
 30
0.0
 11
40.30663927271482
 21
-4.301959505851663
 31
0.0
 12
40.27663927271482
 22
-4.481959505851664
 32
0.0
 13
40.27663927271482
 23
-4.481959505851664
 33
0.0
  0
MTEXT
  5
221B5
330
21E60
100
AcDbEntity
  8
0
 62
     0
100
AcDbMText
 10
40.27663927271481
 20
-3.981959505851674
 30
0.0
 40
0.18
 41
0.0
 71
     5
 72
     1
  1
\A1;1.000
  7
TECHNIC
 73
     1
 44
1.0
1001
ACAD
1000
MTEXTBEGIN
1070
    73
1070
     1
1070
    44
1040
1.0
1070
    74
1070
     0
1000
MTEXTEND
  0
POINT
  5
221B6
330
21E60
100
AcDbEntity
  8
DEFPOINTS
 62
     0
100
AcDbPoint
 10
41.05059286656338
 20
-3.481959505851663
 30
0.0
  0
POINT
  5
221B7
330
21E60
100
AcDbEntity
  8
DEFPOINTS
 62
     0
100
AcDbPoint
 10
41.05059286656338
 20
-4.481959505851664
 30
0.0
  0
POINT
  5
221B8
330
21E60
100
AcDbEntity
  8
DEFPOINTS
 62
     0
100
AcDbPoint
 10
40.27663927271482
 20
-4.481959505851664
 30
0.0
  0
ENDBLK
  5
21E62
330
21E60
100
AcDbEntity
  8
0
100
AcDbBlockEnd
  0
BLOCK
  5
21E6F
330
21E6E
100
AcDbEntity
  8
0
100
AcDbBlockBegin
  2
*D33
 70
     1
 10
0.0
 20
0.0
 30
0.0
  3
*D33
  1

  0
LINE
  5
221ED
330
21E6E
100
AcDbEntity
  8
0
 62
     0
370
    -2
100
AcDbLine
 10
46.42559286656338
 20
-5.669459505851664
 30
0.0
 11
47.12429246317495
 21
-5.669459505851664
 31
0.0
  0
LINE
  5
221EE
330
21E6E
100
AcDbEntity
  8
0
 62
     0
370
    -2
100
AcDbLine
 10
46.42559286656338
 20
-4.544459505851664
 30
0.0
 11
47.12429246317495
 21
-4.544459505851664
 31
0.0
  0
LINE
  5
221EF
330
21E6E
100
AcDbEntity
  8
0
 62
     0
370
    -2
100
AcDbLine
 10
46.94429246317495
 20
-5.489459505851664
 30
0.0
 11
46.94429246317495
 21
-5.289706259098417
 31
0.0
  0
LINE
  5
221F0
330
21E6E
100
AcDbEntity
  8
0
 62
     0
370
    -2
100
AcDbLine
 10
46.94429246317495
 20
-4.724459505851664
 30
0.0
 11
46.94429246317495
 21
-4.924212752604911
 31
0.0
  0
SOLID
  5
221F1
330
21E6E
100
AcDbEntity
  8
0
 62
     0
100
AcDbTrace
 10
46.91429246317495
 20
-5.489459505851664
 30
0.0
 11
46.97429246317495
 21
-5.489459505851664
 31
0.0
 12
46.94429246317495
 22
-5.669459505851664
 32
0.0
 13
46.94429246317495
 23
-5.669459505851664
 33
0.0
  0
SOLID
  5
221F2
330
21E6E
100
AcDbEntity
  8
0
 62
     0
100
AcDbTrace
 10
46.91429246317495
 20
-4.724459505851664
 30
0.0
 11
46.97429246317495
 21
-4.724459505851664
 31
0.0
 12
46.94429246317495
 22
-4.544459505851664
 32
0.0
 13
46.94429246317495
 23
-4.544459505851664
 33
0.0
  0
MTEXT
  5
221F3
330
21E6E
100
AcDbEntity
  8
0
 62
     0
100
AcDbMText
 10
46.94429246317493
 20
-5.106959505851675
 30
0.0
 40
0.18
 41
0.0
 71
     5
 72
     1
  1
\A1;1.125
  7
TECHNIC
 73
     1
 44
1.0
1001
ACAD
1000
MTEXTBEGIN
1070
    73
1070
     1
1070
    44
1040
1.0
1070
    74
1070
     0
1000
MTEXTEND
  0
POINT
  5
221F4
330
21E6E
100
AcDbEntity
  8
DEFPOINTS
 62
     0
100
AcDbPoint
 10
46.36309286656338
 20
-5.669459505851664
 30
0.0
  0
POINT
  5
221F5
330
21E6E
100
AcDbEntity
  8
DEFPOINTS
 62
     0
100
AcDbPoint
 10
46.36309286656338
 20
-4.544459505851664
 30
0.0
  0
POINT
  5
221F6
330
21E6E
100
AcDbEntity
  8
DEFPOINTS
 62
     0
100
AcDbPoint
 10
46.94429246317495
 20
-4.544459505851664
 30
0.0
  0
ENDBLK
  5
21E70
330
21E6E
100
AcDbEntity
  8
0
100
AcDbBlockEnd
  0
BLOCK
  5
21E7D
330
21E7C
100
AcDbEntity
  8
0
100
AcDbBlockBegin
  2
*D34
 70
     1
 10
0.0
 20
0.0
 30
0.0
  3
*D34
  1

  0
LINE
  5
22201
330
21E7C
100
AcDbEntity
  8
0
 62
     0
370
    -2
100
AcDbLine
 10
46.05059286656337
 20
-6.794459505851662
 30
0.0
 11
46.05059286656337
 21
-7.310775296165245
 31
0.0
  0
LINE
  5
22202
330
21E7C
100
AcDbEntity
  8
0
 62
     0
370
    -2
100
AcDbLine
 10
46.30059286656337
 20
-6.231959505851662
 30
0.0
 11
46.30059286656337
 21
-7.310775296165245
 31
0.0
  0
LINE
  5
22203
330
21E7C
100
AcDbEntity
  8
0
 62
     0
370
    -2
100
AcDbLine
 10
45.87059286656335
 20
-7.130775296165245
 30
0.0
 11
45.69059286656337
 21
-7.130775296165245
 31
0.0
  0
LINE
  5
22204
330
21E7C
100
AcDbEntity
  8
0
 62
     0
370
    -2
100
AcDbLine
 10
46.48059286656335
 20
-7.130775296165245
 30
0.0
 11
46.66059286656337
 21
-7.130775296165245
 31
0.0
  0
SOLID
  5
22205
330
21E7C
100
AcDbEntity
  8
0
 62
     0
100
AcDbTrace
 10
45.87059286656335
 20
-7.100775296165245
 30
0.0
 11
45.87059286656335
 21
-7.160775296165247
 31
0.0
 12
46.05059286656337
 22
-7.130775296165245
 32
0.0
 13
46.05059286656337
 23
-7.130775296165245
 33
0.0
  0
SOLID
  5
22206
330
21E7C
100
AcDbEntity
  8
0
 62
     0
100
AcDbTrace
 10
46.48059286656335
 20
-7.100775296165245
 30
0.0
 11
46.48059286656335
 21
-7.160775296165247
 31
0.0
 12
46.30059286656337
 22
-7.130775296165245
 32
0.0
 13
46.30059286656337
 23
-7.130775296165245
 33
0.0
  0
MTEXT
  5
22207
330
21E7C
100
AcDbEntity
  8
0
 62
     0
100
AcDbMText
 10
47.02988507435557
 20
-7.130775296165245
 30
0.0
 40
0.18
 41
0.0
 71
     5
 72
     1
  1
\A1;0.250
  7
TECHNIC
 73
     1
 44
1.0
1001
ACAD
1000
MTEXTBEGIN
1070
    73
1070
     1
1070
    44
1040
1.0
1070
    74
1070
     0
1000
MTEXTEND
  0
POINT
  5
22208
330
21E7C
100
AcDbEntity
  8
DEFPOINTS
 62
     0
100
AcDbPoint
 10
46.05059286656337
 20
-6.731959505851662
 30
0.0
  0
POINT
  5
22209
330
21E7C
100
AcDbEntity
  8
DEFPOINTS
 62
     0
100
AcDbPoint
 10
46.30059286656337
 20
-6.169459505851662
 30
0.0
  0
POINT
  5
2220A
330
21E7C
100
AcDbEntity
  8
DEFPOINTS
 62
     0
100
AcDbPoint
 10
46.30059286656337
 20
-7.130775296165245
 30
0.0
  0
ENDBLK
  5
21E7E
330
21E7C
100
AcDbEntity
  8
0
100
AcDbBlockEnd
  0
ENDSEC
  0
SECTION
  2
ENTITIES
  0
INSERT
  5
D3
330
15BFD
100
AcDbEntity
  8
ASHADE
 62
     1
100
AcDbBlockReference
  2
AVE_RENDER
 10
0.0
 20
0.0
 30
0.0
1001
AVE_RENDER
1002
{
1070
     2
1000
Pref
1070
    30
1070
    20
1070
     0
1070
     0
1000

1070
    10
1070
     0
1070
    30
1040
1.0
1070
     1
1040
0.3
1040
0.7
1040
0.0
1040
10.0
1010
-1.0
1020
-1.0
1030
-1.0
1040
0.3
1070
    49
1002
}
  0
INSERT
  5
D4
330
15BFD
100
AcDbEntity
  8
ASHADE
 62
     3
100
AcDbBlockReference
  2
AVE_RENDER
 10
0.0
 20
0.0
 30
0.0
1001
AVE_RENDER
1002
{
1070
     0
1000
Full Opt
1070
     0
1070
     1
1070
     1
1070
     1
1070
     0
1070
     0
1070
     0
1070
     1
1070
     1
1040
0.0001
1040
0.0001
1002
}
  0
INSERT
  5
D5
330
15BFD
100
AcDbEntity
  8
ASHADE
 62
     4
100
AcDbBlockReference
  2
AVE_RENDER
 10
0.0
 20
0.0
 30
0.0
1001
AVE_RENDER
1002
{
1070
     0
1000
Quick Opt
1070
     0
1070
     1
1070
     1
1070
     1
1070
     0
1070
     0
1070
     1
1002
}
  0
INSERT
  5
12E78
330
15BFD
100
AcDbEntity
  8
AME_FRZ
100
AcDbBlockReference
  2
AME_NIL
 10
9.954687314218272
 20
-1.645215170945056
 30
0.0
  0
INSERT
  5
12E79
330
15BFD
100
AcDbEntity
  8
AME_FRZ
100
AcDbBlockReference
  2
AME_SOL
 10
9.954687314218272
 20
-1.645215170945056
 30
0.0
1001
AME_SOL
1000
R2.1
1000
AME2
1000
sq cm
1070
     3
1070
     0
1070
     3
1000
wire
1040
45.0
1000
U
1040
1.0
1000
cm
1000
gm
1000
MILD_STEEL
1070
    25
1000
CSG
1070
     1
1070
     3
1070
     3
1070
     3
1070
     0
1000
cu cm
1070
     1
1070
     0
1005
12E78
  0
INSERT
  5
12EF9
330
15BFD
100
AcDbEntity
  8
ASHADE
 62
     1
100
AcDbBlockReference
  2
AVE_RENDER
 10
13.87033994976867
 20
8.610411672458926
 30
0.0
 41
1.5
 42
1.5
 43
1.5
1001
AVE_RENDER
1002
{
1070
     2
1000
Pref
1070
    30
1070
    20
1070
     0
1070
     0
1000

1070
    10
1070
     0
1070
    30
1040
1.0
1070
     1
1040
0.3
1040
0.7
1040
0.0
1040
10.0
1010
-1.0
1020
-1.0
1030
-1.0
1040
0.3
1070
    49
1002
}
  0
INSERT
  5
12EFA
330
15BFD
100
AcDbEntity
  8
ASHADE
 62
     3
100
AcDbBlockReference
  2
AVE_RENDER
 10
13.87033994976867
 20
8.610411672458926
 30
0.0
 41
1.5
 42
1.5
 43
1.5
1001
AVE_RENDER
1002
{
1070
     0
1000
Full Opt
1070
     0
1070
     1
1070
     1
1070
     1
1070
     0
1070
     0
1070
     0
1070
     1
1070
     1
1040
0.0001
1040
0.0001
1002
}
  0
INSERT
  5
12EFB
330
15BFD
100
AcDbEntity
  8
ASHADE
 62
     4
100
AcDbBlockReference
  2
AVE_RENDER
 10
13.87033994976867
 20
8.610411672458926
 30
0.0
 41
1.5
 42
1.5
 43
1.5
1001
AVE_RENDER
1002
{
1070
     0
1000
Quick Opt
1070
     0
1070
     1
1070
     1
1070
     1
1070
     0
1070
     0
1070
     1
1002
}
  0
TEXT
  5
12EFC
330
15BFD
100
AcDbEntity
  8
0
  6
ByBlock
 62
     0
100
AcDbText
 10
26.17857294570129
 20
9.832104736241381
 30
0.0
 40
0.197554691027904
  1

 72
     4
 11
26.17857294570129
 21
9.832104736241381
 31
0.0
100
AcDbText
  0
INSERT
  5
13C17
330
15BFD
100
AcDbEntity
  8
ASHADE
 62
     1
100
AcDbBlockReference
  2
AVE_RENDER
 10
41.94767293258992
 20
6.567143562854012
 30
0.0
 41
1.5
 42
1.5
 43
1.5
1001
AVE_RENDER
1002
{
1070
     2
1000
Pref
1070
    30
1070
    20
1070
     0
1070
     0
1000

1070
    10
1070
     0
1070
    30
1040
1.0
1070
     1
1040
0.3
1040
0.7
1040
0.0
1040
10.0
1010
-1.0
1020
-1.0
1030
-1.0
1040
0.3
1070
    49
1002
}
  0
INSERT
  5
13C18
330
15BFD
100
AcDbEntity
  8
ASHADE
 62
     3
100
AcDbBlockReference
  2
AVE_RENDER
 10
41.94767293258992
 20
6.567143562854012
 30
0.0
 41
1.5
 42
1.5
 43
1.5
1001
AVE_RENDER
1002
{
1070
     0
1000
Full Opt
1070
     0
1070
     1
1070
     1
1070
     1
1070
     0
1070
     0
1070
     0
1070
     1
1070
     1
1040
0.0001
1040
0.0001
1002
}
  0
INSERT
  5
13C19
330
15BFD
100
AcDbEntity
  8
ASHADE
 62
     4
100
AcDbBlockReference
  2
AVE_RENDER
 10
41.94767293258992
 20
6.567143562854012
 30
0.0
 41
1.5
 42
1.5
 43
1.5
1001
AVE_RENDER
1002
{
1070
     0
1000
Quick Opt
1070
     0
1070
     1
1070
     1
1070
     1
1070
     0
1070
     0
1070
     1
1002
}
  0
INSERT
  5
14F05
330
15BFD
100
AcDbEntity
  8
ASHADE
 62
     1
100
AcDbBlockReference
  2
AVE_RENDER
 10
11.34313127788957
 20
1.767572169231448
 30
0.0
1001
AVE_RENDER
1002
{
1070
     2
1000
Pref
1070
    30
1070
    20
1070
     0
1070
     0
1000

1070
    10
1070
     0
1070
    30
1040
1.0
1070
     1
1040
0.3
1040
0.7
1040
0.0
1040
10.0
1010
-1.0
1020
-1.0
1030
-1.0
1040
0.3
1070
    49
1002
}
  0
INSERT
  5
14F06
330
15BFD
100
AcDbEntity
  8
ASHADE
 62
     3
100
AcDbBlockReference
  2
AVE_RENDER
 10
11.34313127788957
 20
1.767572169231448
 30
0.0
1001
AVE_RENDER
1002
{
1070
     0
1000
Full Opt
1070
     0
1070
     1
1070
     1
1070
     1
1070
     0
1070
     0
1070
     0
1070
     1
1070
     1
1040
0.0001
1040
0.0001
1002
}
  0
INSERT
  5
14F07
330
15BFD
100
AcDbEntity
  8
ASHADE
 62
     4
100
AcDbBlockReference
  2
AVE_RENDER
 10
11.34313127788957
 20
1.767572169231448
 30
0.0
1001
AVE_RENDER
1002
{
1070
     0
1000
Quick Opt
1070
     0
1070
     1
1070
     1
1070
     1
1070
     0
1070
     0
1070
     1
1002
}
  0
INSERT
  5
158DA
330
15BFD
100
AcDbEntity
  8
ASHADE
 62
     1
100
AcDbBlockReference
  2
AVE_RENDER
 10
11.44409417726856
 20
1.637049088247751
 30
0.0
1001
AVE_RENDER
1002
{
1070
     2
1000
Pref
1070
    30
1070
    20
1070
     0
1070
     0
1000

1070
    10
1070
     0
1070
    30
1040
1.0
1070
     1
1040
0.3
1040
0.7
1040
0.0
1040
10.0
1010
-1.0
1020
-1.0
1030
-1.0
1040
0.3
1070
    49
1002
}
  0
INSERT
  5
158DB
330
15BFD
100
AcDbEntity
  8
ASHADE
 62
     3
100
AcDbBlockReference
  2
AVE_RENDER
 10
11.44409417726856
 20
1.637049088247751
 30
0.0
1001
AVE_RENDER
1002
{
1070
     0
1000
Full Opt
1070
     0
1070
     1
1070
     1
1070
     1
1070
     0
1070
     0
1070
     0
1070
     1
1070
     1
1040
0.0001
1040
0.0001
1002
}
  0
INSERT
  5
158DC
330
15BFD
100
AcDbEntity
  8
ASHADE
 62
     4
100
AcDbBlockReference
  2
AVE_RENDER
 10
11.44409417726856
 20
1.637049088247751
 30
0.0
1001
AVE_RENDER
1002
{
1070
     0
1000
Quick Opt
1070
     0
1070
     1
1070
     1
1070
     1
1070
     0
1070
     0
1070
     1
1002
}
  0
LINE
  5
21522
330
15BFD
100
AcDbEntity
  8
BLU
100
AcDbLine
 10
25.58179484739014
 20
-1.443406024164755
 30
0.0
 11
25.58179484739014
 21
-9.743753660441576
 31
0.0
  0
LINE
  5
21523
330
15BFD
100
AcDbEntity
  8
BLU
100
AcDbLine
 10
36.38179484739014
 20
-1.443406024164755
 30
0.0
 11
36.38179484739014
 21
-9.743753660441576
 31
0.0
  0
LINE
  5
21524
330
15BFD
100
AcDbEntity
  8
BLU
100
AcDbLine
 10
36.38179484739014
 20
-1.443406024164755
 30
0.0
 11
25.58179484739014
 21
-1.443406024164755
 31
0.0
  0
LINE
  5
21525
330
15BFD
100
AcDbEntity
  8
BLU
100
AcDbLine
 10
25.58179484739014
 20
-9.743753660441576
 30
0.0
 11
36.38179484739014
 21
-9.743753660441576
 31
0.0
  0
LINE
  5
21526
330
15BFD
100
AcDbEntity
  8
BLU
100
AcDbLine
 10
25.58179484739014
 20
-8.991016021737893
 30
0.0
 11
36.38179484739014
 21
-8.991016021737893
 31
0.0
  0
LINE
  5
21527
330
15BFD
100
AcDbEntity
  8
BLU
100
AcDbLine
 10
25.58179484739014
 20
-8.991016021737893
 30
0.0
 11
36.38179484739014
 21
-8.991016021737893
 31
0.0
  0
TEXT
  5
21528
330
15BFD
100
AcDbEntity
  8
TEXT
 62
     7
100
AcDbText
 10
27.57042689916955
 20
-9.3001490512654
 30
0.0
 40
0.1734572550165357
  1
DIAMOND MANUFACTURING Co.
  7
TECHNIC
 72
     1
 11
29.09617493582799
 21
-9.3001490512654
 31
0.0
100
AcDbText
  0
LINE
  5
21529
330
15BFD
100
AcDbEntity
  8
BLU
 62
     3
100
AcDbLine
 10
27.10669348111632
 20
-9.514778780231003
 30
0.0
 11
27.10671484438768
 21
-9.514766446140528
 31
0.0
  0
LWPOLYLINE
  5
2152A
330
15BFD
100
AcDbEntity
  8
BLU
 62
     3
100
AcDbPolyline
 90
        2
 70
     0
 43
0.0154176003961154
 10
26.75458966500418
 20
-9.413673226076769
 10
26.90146203469695
 20
-9.328876423898137
  0
LWPOLYLINE
  5
2152B
330
15BFD
100
AcDbEntity
  8
BLU
 62
     3
100
AcDbPolyline
 90
        2
 70
     0
 43
0.0154176003961154
 10
26.83526031488732
 20
-9.55339889035396
 10
26.98213268458009
 20
-9.468602088175323
  0
LWPOLYLINE
  5
2152C
330
15BFD
100
AcDbEntity
  8
BLU
 62
     3
100
AcDbPolyline
 90
        2
 70
     0
 43
0.0154176003961154
 10
26.99086340977614
 20
-9.483724147801819
 10
26.85757699633617
 20
-9.252865307765166
  0
LWPOLYLINE
  5
2152D
330
15BFD
100
AcDbEntity
  8
BLU
 62
     3
100
AcDbPolyline
 90
        2
 70
     0
 43
0.0154176003961154
 10
27.00446170012344
 20
-9.168089868864894
 42
1.000145465123967
 10
26.8575893304307
 20
-9.252886671043526
 42
1.000145465123967
  0
LWPOLYLINE
  5
2152E
330
15BFD
100
AcDbEntity
  8
BLU
 62
     3
100
AcDbPolyline
 90
        2
 70
     0
 43
0.0154176003961154
 10
26.99086340977614
 20
-9.483724147801819
 42
1.00014546512396
 10
27.1377357794689
 20
-9.398927345623187
 42
1.00014546512396
  0
LWPOLYLINE
  5
2152F
330
15BFD
100
AcDbEntity
  8
BLU
 62
     3
100
AcDbPolyline
 90
        5
 70
     0
 43
0.0154176003961154
 10
27.00444936604601
 20
-9.168068505616103
 10
27.22909780416263
 20
-9.557171014275088
 10
27.3759701738554
 20
-9.472374212096452
 10
27.15788695825099
 20
-9.094643002391626
 10
27.01101458855823
 20
-9.179439804570259
  0
LWPOLYLINE
  5
21530
330
15BFD
100
AcDbEntity
  8
BLU
 62
     3
100
AcDbPolyline
 90
       16
 70
     1
 43
0.0154176003961154
 10
27.34819845565143
 20
-9.169844776376864
 42
0.0984914033571612
 10
27.31574340429195
 20
-9.176300487476206
 42
0.0984914033571629
 10
27.28822934029617
 20
-9.194684797280537
 42
0.0984914033571604
 10
27.26984503049184
 20
-9.222198861276323
 42
0.0984914033571598
 10
27.26338931939249
 20
-9.254653912635816
 42
0.0984914033571643
 10
27.26984503049184
 20
-9.28710896399531
 42
0.0984914033571657
 10
27.28822934029617
 20
-9.314623027991093
 42
0.0984914033571724
 10
27.31574340429195
 20
-9.333007337795422
 42
0.0984914033571721
 10
27.34819845565143
 20
-9.339463048894767
 42
0.0984914033571677
 10
27.38065350701094
 20
-9.333007337795422
 42
0.0984914033571684
 10
27.40816757100672
 20
-9.314623027991093
 42
0.098491403357166
 10
27.42655188081105
 20
-9.28710896399531
 42
0.0984914033571664
 10
27.43300759191039
 20
-9.254653912635816
 42
0.0984914033571604
 10
27.42655188081105
 20
-9.222198861276323
 42
0.0984914033571675
 10
27.40816757100672
 20
-9.194684797280537
 42
0.0984914033571651
 10
27.38065350701094
 20
-9.176300487476213
 42
0.0984914033571695
  0
LWPOLYLINE
  5
21531
330
15BFD
100
AcDbEntity
  8
BLU
 62
     3
100
AcDbPolyline
 90
        2
 70
     0
 43
0.0154176003961154
 10
26.84382975254448
 20
-9.553480821777297
 10
26.75903295036584
 20
-9.406608452084537
  0
LINE
  5
21532
330
15BFD
100
AcDbEntity
  8
BLU
100
AcDbLine
 10
25.58179484739014
 20
-8.575502652559782
 30
0.0
 11
36.38179484739014
 21
-8.575502652559782
 31
0.0
  0
LINE
  5
21533
330
15BFD
100
AcDbEntity
  8
BLU
100
AcDbLine
 10
25.58179484739014
 20
-8.575502652559782
 30
0.0
 11
36.38179484739014
 21
-8.575502652559782
 31
0.0
  0
TEXT
  5
21534
330
15BFD
100
AcDbEntity
  8
TEXT
100
AcDbText
 10
25.65027179811474
 20
-8.833161068842835
 30
0.0
 40
0.099803463387997
  1
Max Material Thickness:
  7
TECHNIC
 72
     1
 11
26.33091197618775
 21
-8.783259337148837
 31
0.0
100
AcDbText
 73
     2
  0
TEXT
  5
21535
330
15BFD
100
AcDbEntity
  8
BLU
 62
     3
100
AcDbText
 10
27.2541887213627
 20
-8.852330186923435
 30
0.0
 40
0.1381416995491938
  1
Carbon Steel - 14 Ga
  7
TECHNIC
 72
     1
 11
28.05689066838605
 21
-8.783259337148837
 31
0.0
100
AcDbText
 73
     2
  0
TEXT
  5
21536
330
15BFD
100
AcDbEntity
  8
BLU
 62
     3
100
AcDbText
 10
33.15503608469166
 20
-8.852330186923435
 30
0.0
 40
0.1381416995491938
  1
48"
  7
TECHNIC
 72
     1
 11
33.28752653289566
 21
-8.783259337148837
 31
0.0
100
AcDbText
 73
     2
  0
TEXT
  5
21537
330
15BFD
100
AcDbEntity
  8
TEXT
 62
     7
100
AcDbText
 10
28.21293624982117
 20
-9.456870489070237
 30
0.0
 40
0.0888053782816246
  1
243 WEST EIGHTH ST, PO BOX 4174
  7
TECHNIC
 72
     1
 11
29.09617493582799
 21
-9.456870489070237
 31
0.0
100
AcDbText
  0
TEXT
  5
21538
330
15BFD
100
AcDbEntity
  8
TEXT
 62
     7
100
AcDbText
 10
32.81310914873465
 20
-9.247367693407724
 30
0.0
 40
0.1065664539379495
  1
PHONE - 1-800-233-9601
  7
TECHNIC
 72
     1
 11
33.58384756689107
 21
-9.247367693407724
 31
0.0
100
AcDbText
  0
TEXT
  5
21539
330
15BFD
100
AcDbEntity
  8
TEXT
 62
     7
100
AcDbText
 10
32.93230441945421
 20
-9.424978449970971
 30
0.0
 40
0.1065664539379495
  1
FAX  -  570-693-3500
  7
TECHNIC
 72
     1
 11
33.58384756689107
 21
-9.424978449970971
 31
0.0
100
AcDbText
  0
TEXT
  5
2153A
330
15BFD
100
AcDbEntity
  8
TEXT
 62
     7
100
AcDbText
 10
32.89621714300704
 20
-9.602589206534222
 30
0.0
 40
0.1065664539379495
  1
www.DiamondMan.com
  7
TECHNIC
 72
     1
 11
33.58384756689107
 21
-9.602589206534222
 31
0.0
100
AcDbText
  0
TEXT
  5
2153B
330
15BFD
100
AcDbEntity
  8
TEXT
 62
     7
100
AcDbText
 10
28.57726896409604
 20
-9.595525458097556
 30
0.0
 40
0.0888053782816246
  1
WYOMING PA, 18644
  7
TECHNIC
 72
     1
 11
29.09617493582799
 21
-9.595525458097556
 31
0.0
100
AcDbText
  0
LINE
  5
2153C
330
15BFD
100
AcDbEntity
  8
BLU
100
AcDbLine
 10
32.03197988574327
 20
-8.991016021737893
 30
0.0
 11
32.03197988574327
 21
-8.575502652559782
 31
0.0
  0
TEXT
  5
2153D
330
15BFD
100
AcDbEntity
  8
TEXT
100
AcDbText
 10
32.16335814084096
 20
-8.833161068842835
 30
0.0
 40
0.099803463387997
  1
Max Width:
  7
TECHNIC
 72
     1
 11
32.47712337979745
 21
-8.783259337148837
 31
0.0
100
AcDbText
 73
     2
  0
LINE
  5
2153E
330
15BFD
100
AcDbEntity
  8
BLU
100
AcDbLine
 10
25.58179484739014
 20
-8.159989283381669
 30
0.0
 11
36.38179484739014
 21
-8.159989283381669
 31
0.0
  0
LINE
  5
2153F
330
15BFD
100
AcDbEntity
  8
BLU
100
AcDbLine
 10
25.58179484739014
 20
-8.159989283381669
 30
0.0
 11
36.38179484739014
 21
-8.159989283381669
 31
0.0
  0
TEXT
  5
21540
330
15BFD
100
AcDbEntity
  8
TEXT
100
AcDbText
 10
25.91640356590877
 20
-8.417647699664721
 30
0.0
 40
0.099803463387997
  1
PERF PATTERN
  7
TECHNIC
 72
     1
 11
26.33091197618775
 21
-8.367745967970723
 31
0.0
100
AcDbText
 73
     2
  0
TEXT
  5
21542
330
15BFD
100
AcDbEntity
  8
BLU
 62
     3
100
AcDbText
 10
33.03918543211518
 20
-8.43681681774532
 30
0.0
 40
0.1381416995491938
  1
41.3%%%
  7
TECHNIC
 72
     1
 11
33.28752653289566
 21
-8.367745967970723
 31
0.0
100
AcDbText
 73
     2
  0
LINE
  5
21543
330
15BFD
100
AcDbEntity
  8
BLU
100
AcDbLine
 10
32.03197988574327
 20
-8.575502652559782
 30
0.0
 11
32.03197988574327
 21
-8.159989283381669
 31
0.0
  0
TEXT
  5
21544
330
15BFD
100
AcDbEntity
  8
TEXT
100
AcDbText
 10
32.16206199196579
 20
-8.417647699664721
 30
0.0
 40
0.099803463387997
  1
OPEN AREA
  7
TECHNIC
 72
     1
 11
32.47712337979745
 21
-8.367745967970723
 31
0.0
100
AcDbText
 73
     2
  0
TEXT
  5
21545
330
15BFD
100
AcDbEntity
  8
BLU
 62
     3
100
AcDbText
 10
29.16169471337456
 20
-8.852330186923435
 30
0.0
 40
0.1381416995491938
  1
Stainless - 16 Ga
  7
TECHNIC
 72
     1
 11
29.81957213187702
 21
-8.783259337148837
 31
0.0
100
AcDbText
 73
     2
  0
TEXT
  5
21546
330
15BFD
100
AcDbEntity
  8
BLU
 62
     3
100
AcDbText
 10
30.72353842407542
 20
-8.852330186923435
 30
0.0
 40
0.1381416995491938
  1
Alum - .125"
  7
TECHNIC
 72
     1
 11
31.20447785403192
 21
-8.783259337148837
 31
0.0
100
AcDbText
 73
     2
  0
LWPOLYLINE
  5
21825
330
15BFD
100
AcDbEntity
  8
0
100
AcDbPolyline
 90
        5
 70
     0
 43
0.0
 10
28.4870251338748
 20
-6.693638715708415
 10
28.4870251338748
 20
-6.068638715708415
 42
-1.0
 10
28.6120251338748
 20
-6.068638715708415
 10
28.6120251338748
 20
-6.693638715708415
 42
-1.0
 10
28.4870251338748
 20
-6.693638715708415
  0
LWPOLYLINE
  5
21826
330
15BFD
100
AcDbEntity
  8
0
100
AcDbPolyline
 90
        5
 70
     0
 43
0.0
 10
28.7370251338748
 20
-6.256138715708415
 10
28.7370251338748
 20
-5.631138715708415
 42
-1.0
 10
28.8620251338748
 20
-5.631138715708415
 10
28.8620251338748
 20
-6.256138715708415
 42
-1.0
 10
28.7370251338748
 20
-6.256138715708415
  0
LWPOLYLINE
  5
21827
330
15BFD
100
AcDbEntity
  8
0
100
AcDbPolyline
 90
        5
 70
     0
 43
0.0
 10
28.9870251338748
 20
-6.693638715708415
 10
28.9870251338748
 20
-6.068638715708415
 42
-1.0
 10
29.1120251338748
 20
-6.068638715708415
 10
29.1120251338748
 20
-6.693638715708415
 42
-1.0
 10
28.9870251338748
 20
-6.693638715708415
  0
LWPOLYLINE
  5
21828
330
15BFD
100
AcDbEntity
  8
0
100
AcDbPolyline
 90
        5
 70
     0
 43
0.0
 10
29.2370251338748
 20
-6.256138715708415
 10
29.2370251338748
 20
-5.631138715708415
 42
-1.0
 10
29.3620251338748
 20
-5.631138715708415
 10
29.3620251338748
 20
-6.256138715708415
 42
-1.0
 10
29.2370251338748
 20
-6.256138715708415
  0
LWPOLYLINE
  5
21829
330
15BFD
100
AcDbEntity
  8
0
100
AcDbPolyline
 90
        5
 70
     0
 43
0.0
 10
29.4870251338748
 20
-6.693638715708415
 10
29.4870251338748
 20
-6.068638715708415
 42
-1.0
 10
29.6120251338748
 20
-6.068638715708415
 10
29.6120251338748
 20
-6.693638715708415
 42
-1.0
 10
29.4870251338748
 20
-6.693638715708415
  0
LWPOLYLINE
  5
2182A
330
15BFD
100
AcDbEntity
  8
0
100
AcDbPolyline
 90
        5
 70
     0
 43
0.0
 10
29.7370251338748
 20
-6.256138715708415
 10
29.7370251338748
 20
-5.631138715708415
 42
-1.0
 10
29.8620251338748
 20
-5.631138715708415
 10
29.8620251338748
 20
-6.256138715708415
 42
-1.0
 10
29.7370251338748
 20
-6.256138715708415
  0
LWPOLYLINE
  5
2182B
330
15BFD
100
AcDbEntity
  8
0
100
AcDbPolyline
 90
        5
 70
     0
 43
0.0
 10
29.9870251338748
 20
-6.693638715708415
 10
29.9870251338748
 20
-6.068638715708415
 42
-1.0
 10
30.1120251338748
 20
-6.068638715708415
 10
30.1120251338748
 20
-6.693638715708415
 42
-1.0
 10
29.9870251338748
 20
-6.693638715708415
  0
LWPOLYLINE
  5
2182C
330
15BFD
100
AcDbEntity
  8
0
100
AcDbPolyline
 90
        5
 70
     0
 43
0.0
 10
30.2370251338748
 20
-6.256138715708415
 10
30.2370251338748
 20
-5.631138715708415
 42
-1.0
 10
30.3620251338748
 20
-5.631138715708415
 10
30.3620251338748
 20
-6.256138715708415
 42
-1.0
 10
30.2370251338748
 20
-6.256138715708415
  0
LWPOLYLINE
  5
2182D
330
15BFD
100
AcDbEntity
  8
0
100
AcDbPolyline
 90
        5
 70
     0
 43
0.0
 10
30.4870251338748
 20
-6.693638715708415
 10
30.4870251338748
 20
-6.068638715708415
 42
-1.0
 10
30.6120251338748
 20
-6.068638715708415
 10
30.6120251338748
 20
-6.693638715708415
 42
-1.0
 10
30.4870251338748
 20
-6.693638715708415
  0
LWPOLYLINE
  5
2182E
330
15BFD
100
AcDbEntity
  8
0
100
AcDbPolyline
 90
        5
 70
     0
 43
0.0
 10
30.7370251338748
 20
-6.256138715708415
 10
30.7370251338748
 20
-5.631138715708415
 42
-1.0
 10
30.8620251338748
 20
-5.631138715708415
 10
30.8620251338748
 20
-6.256138715708415
 42
-1.0
 10
30.7370251338748
 20
-6.256138715708415
  0
LWPOLYLINE
  5
2182F
330
15BFD
100
AcDbEntity
  8
0
100
AcDbPolyline
 90
        5
 70
     0
 43
0.0
 10
30.9870251338748
 20
-6.693638715708415
 10
30.9870251338748
 20
-6.068638715708415
 42
-1.0
 10
31.1120251338748
 20
-6.068638715708415
 10
31.1120251338748
 20
-6.693638715708415
 42
-1.0
 10
30.9870251338748
 20
-6.693638715708415
  0
LWPOLYLINE
  5
21830
330
15BFD
100
AcDbEntity
  8
0
100
AcDbPolyline
 90
        5
 70
     0
 43
0.0
 10
31.2370251338748
 20
-6.256138715708415
 10
31.2370251338748
 20
-5.631138715708415
 42
-1.0
 10
31.3620251338748
 20
-5.631138715708415
 10
31.3620251338748
 20
-6.256138715708415
 42
-1.0
 10
31.2370251338748
 20
-6.256138715708415
  0
LWPOLYLINE
  5
21831
330
15BFD
100
AcDbEntity
  8
0
100
AcDbPolyline
 90
        5
 70
     0
 43
0.0
 10
31.4870251338748
 20
-6.693638715708415
 10
31.4870251338748
 20
-6.068638715708415
 42
-1.0
 10
31.6120251338748
 20
-6.068638715708415
 10
31.6120251338748
 20
-6.693638715708415
 42
-1.0
 10
31.4870251338748
 20
-6.693638715708415
  0
LWPOLYLINE
  5
21832
330
15BFD
100
AcDbEntity
  8
0
100
AcDbPolyline
 90
        5
 70
     0
 43
0.0
 10
31.7370251338748
 20
-6.256138715708415
 10
31.7370251338748
 20
-5.631138715708415
 42
-1.0
 10
31.8620251338748
 20
-5.631138715708415
 10
31.8620251338748
 20
-6.256138715708415
 42
-1.0
 10
31.7370251338748
 20
-6.256138715708415
  0
LWPOLYLINE
  5
21833
330
15BFD
100
AcDbEntity
  8
0
100
AcDbPolyline
 90
        5
 70
     0
 43
0.0
 10
31.9870251338748
 20
-6.693638715708415
 10
31.9870251338748
 20
-6.068638715708415
 42
-1.0
 10
32.1120251338748
 20
-6.068638715708415
 10
32.1120251338748
 20
-6.693638715708415
 42
-1.0
 10
31.9870251338748
 20
-6.693638715708415
  0
LWPOLYLINE
  5
21834
330
15BFD
100
AcDbEntity
  8
0
100
AcDbPolyline
 90
        5
 70
     0
 43
0.0
 10
32.2370251338748
 20
-6.256138715708415
 10
32.2370251338748
 20
-5.631138715708415
 42
-1.0
 10
32.3620251338748
 20
-5.631138715708415
 10
32.3620251338748
 20
-6.256138715708415
 42
-1.0
 10
32.2370251338748
 20
-6.256138715708415
  0
LWPOLYLINE
  5
21835
330
15BFD
100
AcDbEntity
  8
0
100
AcDbPolyline
 90
        5
 70
     0
 43
0.0
 10
32.4870251338748
 20
-6.693638715708415
 10
32.4870251338748
 20
-6.068638715708415
 42
-1.0
 10
32.6120251338748
 20
-6.068638715708415
 10
32.6120251338748
 20
-6.693638715708415
 42
-1.0
 10
32.4870251338748
 20
-6.693638715708415
  0
LWPOLYLINE
  5
21836
330
15BFD
100
AcDbEntity
  8
0
100
AcDbPolyline
 90
        5
 70
     0
 43
0.0
 10
32.7370251338748
 20
-6.256138715708415
 10
32.7370251338748
 20
-5.631138715708415
 42
-1.0
 10
32.8620251338748
 20
-5.631138715708415
 10
32.8620251338748
 20
-6.256138715708415
 42
-1.0
 10
32.7370251338748
 20
-6.256138715708415
  0
LWPOLYLINE
  5
21837
330
15BFD
100
AcDbEntity
  8
0
100
AcDbPolyline
 90
        5
 70
     0
 43
0.0
 10
32.9870251338748
 20
-6.693638715708415
 10
32.9870251338748
 20
-6.068638715708415
 42
-1.0
 10
33.1120251338748
 20
-6.068638715708415
 10
33.1120251338748
 20
-6.693638715708415
 42
-1.0
 10
32.9870251338748
 20
-6.693638715708415
  0
LWPOLYLINE
  5
21838
330
15BFD
100
AcDbEntity
  8
0
100
AcDbPolyline
 90
        5
 70
     0
 43
0.0
 10
33.2370251338748
 20
-6.256138715708415
 10
33.2370251338748
 20
-5.631138715708415
 42
-1.0
 10
33.3620251338748
 20
-5.631138715708415
 10
33.3620251338748
 20
-6.256138715708415
 42
-1.0
 10
33.2370251338748
 20
-6.256138715708415
  0
LWPOLYLINE
  5
2183B
330
15BFD
100
AcDbEntity
  8
0
100
AcDbPolyline
 90
        5
 70
     0
 43
0.0
 10
28.4870251338748
 20
-5.818638715708415
 10
28.4870251338748
 20
-5.193638715708416
 42
-1.0
 10
28.6120251338748
 20
-5.193638715708416
 10
28.6120251338748
 20
-5.818638715708415
 42
-1.0
 10
28.4870251338748
 20
-5.818638715708415
  0
LWPOLYLINE
  5
2183C
330
15BFD
100
AcDbEntity
  8
0
100
AcDbPolyline
 90
        5
 70
     0
 43
0.0
 10
28.7370251338748
 20
-5.381138715708415
 10
28.7370251338748
 20
-4.756138715708416
 42
-1.0
 10
28.8620251338748
 20
-4.756138715708416
 10
28.8620251338748
 20
-5.381138715708415
 42
-1.0
 10
28.7370251338748
 20
-5.381138715708415
  0
LWPOLYLINE
  5
2183D
330
15BFD
100
AcDbEntity
  8
0
100
AcDbPolyline
 90
        5
 70
     0
 43
0.0
 10
28.9870251338748
 20
-5.818638715708415
 10
28.9870251338748
 20
-5.193638715708416
 42
-1.0
 10
29.1120251338748
 20
-5.193638715708416
 10
29.1120251338748
 20
-5.818638715708415
 42
-1.0
 10
28.9870251338748
 20
-5.818638715708415
  0
LWPOLYLINE
  5
2183E
330
15BFD
100
AcDbEntity
  8
0
100
AcDbPolyline
 90
        5
 70
     0
 43
0.0
 10
29.2370251338748
 20
-5.381138715708415
 10
29.2370251338748
 20
-4.756138715708416
 42
-1.0
 10
29.3620251338748
 20
-4.756138715708416
 10
29.3620251338748
 20
-5.381138715708415
 42
-1.0
 10
29.2370251338748
 20
-5.381138715708415
  0
LWPOLYLINE
  5
2183F
330
15BFD
100
AcDbEntity
  8
0
100
AcDbPolyline
 90
        5
 70
     0
 43
0.0
 10
29.4870251338748
 20
-5.818638715708415
 10
29.4870251338748
 20
-5.193638715708416
 42
-1.0
 10
29.6120251338748
 20
-5.193638715708416
 10
29.6120251338748
 20
-5.818638715708415
 42
-1.0
 10
29.4870251338748
 20
-5.818638715708415
  0
LWPOLYLINE
  5
21840
330
15BFD
100
AcDbEntity
  8
0
100
AcDbPolyline
 90
        5
 70
     0
 43
0.0
 10
29.7370251338748
 20
-5.381138715708415
 10
29.7370251338748
 20
-4.756138715708416
 42
-1.0
 10
29.8620251338748
 20
-4.756138715708416
 10
29.8620251338748
 20
-5.381138715708415
 42
-1.0
 10
29.7370251338748
 20
-5.381138715708415
  0
LWPOLYLINE
  5
21841
330
15BFD
100
AcDbEntity
  8
0
100
AcDbPolyline
 90
        5
 70
     0
 43
0.0
 10
29.9870251338748
 20
-5.818638715708415
 10
29.9870251338748
 20
-5.193638715708416
 42
-1.0
 10
30.1120251338748
 20
-5.193638715708416
 10
30.1120251338748
 20
-5.818638715708415
 42
-1.0
 10
29.9870251338748
 20
-5.818638715708415
  0
LWPOLYLINE
  5
21842
330
15BFD
100
AcDbEntity
  8
0
100
AcDbPolyline
 90
        5
 70
     0
 43
0.0
 10
30.2370251338748
 20
-5.381138715708415
 10
30.2370251338748
 20
-4.756138715708416
 42
-1.0
 10
30.3620251338748
 20
-4.756138715708416
 10
30.3620251338748
 20
-5.381138715708415
 42
-1.0
 10
30.2370251338748
 20
-5.381138715708415
  0
LWPOLYLINE
  5
21843
330
15BFD
100
AcDbEntity
  8
0
100
AcDbPolyline
 90
        5
 70
     0
 43
0.0
 10
30.4870251338748
 20
-5.818638715708415
 10
30.4870251338748
 20
-5.193638715708416
 42
-1.0
 10
30.6120251338748
 20
-5.193638715708416
 10
30.6120251338748
 20
-5.818638715708415
 42
-1.0
 10
30.4870251338748
 20
-5.818638715708415
  0
LWPOLYLINE
  5
21844
330
15BFD
100
AcDbEntity
  8
0
100
AcDbPolyline
 90
        5
 70
     0
 43
0.0
 10
30.7370251338748
 20
-5.381138715708415
 10
30.7370251338748
 20
-4.756138715708416
 42
-1.0
 10
30.8620251338748
 20
-4.756138715708416
 10
30.8620251338748
 20
-5.381138715708415
 42
-1.0
 10
30.7370251338748
 20
-5.381138715708415
  0
LWPOLYLINE
  5
21845
330
15BFD
100
AcDbEntity
  8
0
100
AcDbPolyline
 90
        5
 70
     0
 43
0.0
 10
30.9870251338748
 20
-5.818638715708415
 10
30.9870251338748
 20
-5.193638715708416
 42
-1.0
 10
31.1120251338748
 20
-5.193638715708416
 10
31.1120251338748
 20
-5.818638715708415
 42
-1.0
 10
30.9870251338748
 20
-5.818638715708415
  0
LWPOLYLINE
  5
21846
330
15BFD
100
AcDbEntity
  8
0
100
AcDbPolyline
 90
        5
 70
     0
 43
0.0
 10
31.2370251338748
 20
-5.381138715708415
 10
31.2370251338748
 20
-4.756138715708416
 42
-1.0
 10
31.3620251338748
 20
-4.756138715708416
 10
31.3620251338748
 20
-5.381138715708415
 42
-1.0
 10
31.2370251338748
 20
-5.381138715708415
  0
LWPOLYLINE
  5
21847
330
15BFD
100
AcDbEntity
  8
0
100
AcDbPolyline
 90
        5
 70
     0
 43
0.0
 10
31.4870251338748
 20
-5.818638715708415
 10
31.4870251338748
 20
-5.193638715708416
 42
-1.0
 10
31.6120251338748
 20
-5.193638715708416
 10
31.6120251338748
 20
-5.818638715708415
 42
-1.0
 10
31.4870251338748
 20
-5.818638715708415
  0
LWPOLYLINE
  5
21848
330
15BFD
100
AcDbEntity
  8
0
100
AcDbPolyline
 90
        5
 70
     0
 43
0.0
 10
31.7370251338748
 20
-5.381138715708415
 10
31.7370251338748
 20
-4.756138715708416
 42
-1.0
 10
31.8620251338748
 20
-4.756138715708416
 10
31.8620251338748
 20
-5.381138715708415
 42
-1.0
 10
31.7370251338748
 20
-5.381138715708415
  0
LWPOLYLINE
  5
21849
330
15BFD
100
AcDbEntity
  8
0
100
AcDbPolyline
 90
        5
 70
     0
 43
0.0
 10
31.9870251338748
 20
-5.818638715708415
 10
31.9870251338748
 20
-5.193638715708416
 42
-1.0
 10
32.1120251338748
 20
-5.193638715708416
 10
32.1120251338748
 20
-5.818638715708415
 42
-1.0
 10
31.9870251338748
 20
-5.818638715708415
  0
LWPOLYLINE
  5
2184A
330
15BFD
100
AcDbEntity
  8
0
100
AcDbPolyline
 90
        5
 70
     0
 43
0.0
 10
32.2370251338748
 20
-5.381138715708415
 10
32.2370251338748
 20
-4.756138715708416
 42
-1.0
 10
32.3620251338748
 20
-4.756138715708416
 10
32.3620251338748
 20
-5.381138715708415
 42
-1.0
 10
32.2370251338748
 20
-5.381138715708415
  0
LWPOLYLINE
  5
2184B
330
15BFD
100
AcDbEntity
  8
0
100
AcDbPolyline
 90
        5
 70
     0
 43
0.0
 10
32.4870251338748
 20
-5.818638715708415
 10
32.4870251338748
 20
-5.193638715708416
 42
-1.0
 10
32.6120251338748
 20
-5.193638715708416
 10
32.6120251338748
 20
-5.818638715708415
 42
-1.0
 10
32.4870251338748
 20
-5.818638715708415
  0
LWPOLYLINE
  5
2184C
330
15BFD
100
AcDbEntity
  8
0
100
AcDbPolyline
 90
        5
 70
     0
 43
0.0
 10
32.7370251338748
 20
-5.381138715708415
 10
32.7370251338748
 20
-4.756138715708416
 42
-1.0
 10
32.8620251338748
 20
-4.756138715708416
 10
32.8620251338748
 20
-5.381138715708415
 42
-1.0
 10
32.7370251338748
 20
-5.381138715708415
  0
LWPOLYLINE
  5
2184D
330
15BFD
100
AcDbEntity
  8
0
100
AcDbPolyline
 90
        5
 70
     0
 43
0.0
 10
32.9870251338748
 20
-5.818638715708415
 10
32.9870251338748
 20
-5.193638715708416
 42
-1.0
 10
33.1120251338748
 20
-5.193638715708416
 10
33.1120251338748
 20
-5.818638715708415
 42
-1.0
 10
32.9870251338748
 20
-5.818638715708415
  0
LWPOLYLINE
  5
2184E
330
15BFD
100
AcDbEntity
  8
0
100
AcDbPolyline
 90
        5
 70
     0
 43
0.0
 10
33.2370251338748
 20
-5.381138715708415
 10
33.2370251338748
 20
-4.756138715708416
 42
-1.0
 10
33.3620251338748
 20
-4.756138715708416
 10
33.3620251338748
 20
-5.381138715708415
 42
-1.0
 10
33.2370251338748
 20
-5.381138715708415
  0
LWPOLYLINE
  5
21851
330
15BFD
100
AcDbEntity
  8
0
100
AcDbPolyline
 90
        5
 70
     0
 43
0.0
 10
28.4870251338748
 20
-4.943638715708416
 10
28.4870251338748
 20
-4.318638715708416
 42
-1.0
 10
28.6120251338748
 20
-4.318638715708416
 10
28.6120251338748
 20
-4.943638715708416
 42
-1.0
 10
28.4870251338748
 20
-4.943638715708416
  0
LWPOLYLINE
  5
21852
330
15BFD
100
AcDbEntity
  8
0
100
AcDbPolyline
 90
        5
 70
     0
 43
0.0
 10
28.7370251338748
 20
-4.506138715708416
 10
28.7370251338748
 20
-3.881138715708416
 42
-1.0
 10
28.8620251338748
 20
-3.881138715708416
 10
28.8620251338748
 20
-4.506138715708416
 42
-1.0
 10
28.7370251338748
 20
-4.506138715708416
  0
LWPOLYLINE
  5
21853
330
15BFD
100
AcDbEntity
  8
0
100
AcDbPolyline
 90
        5
 70
     0
 43
0.0
 10
28.9870251338748
 20
-4.943638715708416
 10
28.9870251338748
 20
-4.318638715708416
 42
-1.0
 10
29.1120251338748
 20
-4.318638715708416
 10
29.1120251338748
 20
-4.943638715708416
 42
-1.0
 10
28.9870251338748
 20
-4.943638715708416
  0
LWPOLYLINE
  5
21854
330
15BFD
100
AcDbEntity
  8
0
100
AcDbPolyline
 90
        5
 70
     0
 43
0.0
 10
29.2370251338748
 20
-4.506138715708416
 10
29.2370251338748
 20
-3.881138715708416
 42
-1.0
 10
29.3620251338748
 20
-3.881138715708416
 10
29.3620251338748
 20
-4.506138715708416
 42
-1.0
 10
29.2370251338748
 20
-4.506138715708416
  0
LWPOLYLINE
  5
21855
330
15BFD
100
AcDbEntity
  8
0
100
AcDbPolyline
 90
        5
 70
     0
 43
0.0
 10
29.4870251338748
 20
-4.943638715708416
 10
29.4870251338748
 20
-4.318638715708416
 42
-1.0
 10
29.6120251338748
 20
-4.318638715708416
 10
29.6120251338748
 20
-4.943638715708416
 42
-1.0
 10
29.4870251338748
 20
-4.943638715708416
  0
LWPOLYLINE
  5
21856
330
15BFD
100
AcDbEntity
  8
0
100
AcDbPolyline
 90
        5
 70
     0
 43
0.0
 10
29.7370251338748
 20
-4.506138715708416
 10
29.7370251338748
 20
-3.881138715708416
 42
-1.0
 10
29.8620251338748
 20
-3.881138715708416
 10
29.8620251338748
 20
-4.506138715708416
 42
-1.0
 10
29.7370251338748
 20
-4.506138715708416
  0
LWPOLYLINE
  5
21857
330
15BFD
100
AcDbEntity
  8
0
100
AcDbPolyline
 90
        5
 70
     0
 43
0.0
 10
29.9870251338748
 20
-4.943638715708416
 10
29.9870251338748
 20
-4.318638715708416
 42
-1.0
 10
30.1120251338748
 20
-4.318638715708416
 10
30.1120251338748
 20
-4.943638715708416
 42
-1.0
 10
29.9870251338748
 20
-4.943638715708416
  0
LWPOLYLINE
  5
21858
330
15BFD
100
AcDbEntity
  8
0
100
AcDbPolyline
 90
        5
 70
     0
 43
0.0
 10
30.2370251338748
 20
-4.506138715708416
 10
30.2370251338748
 20
-3.881138715708416
 42
-1.0
 10
30.3620251338748
 20
-3.881138715708416
 10
30.3620251338748
 20
-4.506138715708416
 42
-1.0
 10
30.2370251338748
 20
-4.506138715708416
  0
LWPOLYLINE
  5
21859
330
15BFD
100
AcDbEntity
  8
0
100
AcDbPolyline
 90
        5
 70
     0
 43
0.0
 10
30.4870251338748
 20
-4.943638715708416
 10
30.4870251338748
 20
-4.318638715708416
 42
-1.0
 10
30.6120251338748
 20
-4.318638715708416
 10
30.6120251338748
 20
-4.943638715708416
 42
-1.0
 10
30.4870251338748
 20
-4.943638715708416
  0
LWPOLYLINE
  5
2185A
330
15BFD
100
AcDbEntity
  8
0
100
AcDbPolyline
 90
        5
 70
     0
 43
0.0
 10
30.7370251338748
 20
-4.506138715708416
 10
30.7370251338748
 20
-3.881138715708416
 42
-1.0
 10
30.8620251338748
 20
-3.881138715708416
 10
30.8620251338748
 20
-4.506138715708416
 42
-1.0
 10
30.7370251338748
 20
-4.506138715708416
  0
LWPOLYLINE
  5
2185B
330
15BFD
100
AcDbEntity
  8
0
100
AcDbPolyline
 90
        5
 70
     0
 43
0.0
 10
30.9870251338748
 20
-4.943638715708416
 10
30.9870251338748
 20
-4.318638715708416
 42
-1.0
 10
31.1120251338748
 20
-4.318638715708416
 10
31.1120251338748
 20
-4.943638715708416
 42
-1.0
 10
30.9870251338748
 20
-4.943638715708416
  0
LWPOLYLINE
  5
2185C
330
15BFD
100
AcDbEntity
  8
0
100
AcDbPolyline
 90
        5
 70
     0
 43
0.0
 10
31.2370251338748
 20
-4.506138715708416
 10
31.2370251338748
 20
-3.881138715708416
 42
-1.0
 10
31.3620251338748
 20
-3.881138715708416
 10
31.3620251338748
 20
-4.506138715708416
 42
-1.0
 10
31.2370251338748
 20
-4.506138715708416
  0
LWPOLYLINE
  5
2185D
330
15BFD
100
AcDbEntity
  8
0
100
AcDbPolyline
 90
        5
 70
     0
 43
0.0
 10
31.4870251338748
 20
-4.943638715708416
 10
31.4870251338748
 20
-4.318638715708416
 42
-1.0
 10
31.6120251338748
 20
-4.318638715708416
 10
31.6120251338748
 20
-4.943638715708416
 42
-1.0
 10
31.4870251338748
 20
-4.943638715708416
  0
LWPOLYLINE
  5
2185E
330
15BFD
100
AcDbEntity
  8
0
100
AcDbPolyline
 90
        5
 70
     0
 43
0.0
 10
31.7370251338748
 20
-4.506138715708416
 10
31.7370251338748
 20
-3.881138715708416
 42
-1.0
 10
31.8620251338748
 20
-3.881138715708416
 10
31.8620251338748
 20
-4.506138715708416
 42
-1.0
 10
31.7370251338748
 20
-4.506138715708416
  0
LWPOLYLINE
  5
2185F
330
15BFD
100
AcDbEntity
  8
0
100
AcDbPolyline
 90
        5
 70
     0
 43
0.0
 10
31.9870251338748
 20
-4.943638715708416
 10
31.9870251338748
 20
-4.318638715708416
 42
-1.0
 10
32.1120251338748
 20
-4.318638715708416
 10
32.1120251338748
 20
-4.943638715708416
 42
-1.0
 10
31.9870251338748
 20
-4.943638715708416
  0
LWPOLYLINE
  5
21860
330
15BFD
100
AcDbEntity
  8
0
100
AcDbPolyline
 90
        5
 70
     0
 43
0.0
 10
32.2370251338748
 20
-4.506138715708416
 10
32.2370251338748
 20
-3.881138715708416
 42
-1.0
 10
32.3620251338748
 20
-3.881138715708416
 10
32.3620251338748
 20
-4.506138715708416
 42
-1.0
 10
32.2370251338748
 20
-4.506138715708416
  0
LWPOLYLINE
  5
21861
330
15BFD
100
AcDbEntity
  8
0
100
AcDbPolyline
 90
        5
 70
     0
 43
0.0
 10
32.4870251338748
 20
-4.943638715708416
 10
32.4870251338748
 20
-4.318638715708416
 42
-1.0
 10
32.6120251338748
 20
-4.318638715708416
 10
32.6120251338748
 20
-4.943638715708416
 42
-1.0
 10
32.4870251338748
 20
-4.943638715708416
  0
LWPOLYLINE
  5
21862
330
15BFD
100
AcDbEntity
  8
0
100
AcDbPolyline
 90
        5
 70
     0
 43
0.0
 10
32.7370251338748
 20
-4.506138715708416
 10
32.7370251338748
 20
-3.881138715708416
 42
-1.0
 10
32.8620251338748
 20
-3.881138715708416
 10
32.8620251338748
 20
-4.506138715708416
 42
-1.0
 10
32.7370251338748
 20
-4.506138715708416
  0
LWPOLYLINE
  5
21863
330
15BFD
100
AcDbEntity
  8
0
100
AcDbPolyline
 90
        5
 70
     0
 43
0.0
 10
32.9870251338748
 20
-4.943638715708416
 10
32.9870251338748
 20
-4.318638715708416
 42
-1.0
 10
33.1120251338748
 20
-4.318638715708416
 10
33.1120251338748
 20
-4.943638715708416
 42
-1.0
 10
32.9870251338748
 20
-4.943638715708416
  0
LWPOLYLINE
  5
21864
330
15BFD
100
AcDbEntity
  8
0
100
AcDbPolyline
 90
        5
 70
     0
 43
0.0
 10
33.2370251338748
 20
-4.506138715708416
 10
33.2370251338748
 20
-3.881138715708416
 42
-1.0
 10
33.3620251338748
 20
-3.881138715708416
 10
33.3620251338748
 20
-4.506138715708416
 42
-1.0
 10
33.2370251338748
 20
-4.506138715708416
  0
LWPOLYLINE
  5
21867
330
15BFD
100
AcDbEntity
  8
0
100
AcDbPolyline
 90
        5
 70
     0
 43
0.0
 10
28.4870251338748
 20
-4.068638715708416
 10
28.4870251338748
 20
-3.443638715708416
 42
-1.0
 10
28.6120251338748
 20
-3.443638715708416
 10
28.6120251338748
 20
-4.068638715708416
 42
-1.0
 10
28.4870251338748
 20
-4.068638715708416
  0
LWPOLYLINE
  5
21868
330
15BFD
100
AcDbEntity
  8
0
100
AcDbPolyline
 90
        5
 70
     0
 43
0.0
 10
28.7370251338748
 20
-3.631138715708416
 10
28.7370251338748
 20
-3.006138715708416
 42
-1.0
 10
28.8620251338748
 20
-3.006138715708416
 10
28.8620251338748
 20
-3.631138715708416
 42
-1.0
 10
28.7370251338748
 20
-3.631138715708416
  0
LWPOLYLINE
  5
21869
330
15BFD
100
AcDbEntity
  8
0
100
AcDbPolyline
 90
        5
 70
     0
 43
0.0
 10
28.9870251338748
 20
-4.068638715708416
 10
28.9870251338748
 20
-3.443638715708416
 42
-1.0
 10
29.1120251338748
 20
-3.443638715708416
 10
29.1120251338748
 20
-4.068638715708416
 42
-1.0
 10
28.9870251338748
 20
-4.068638715708416
  0
LWPOLYLINE
  5
2186A
330
15BFD
100
AcDbEntity
  8
0
100
AcDbPolyline
 90
        5
 70
     0
 43
0.0
 10
29.2370251338748
 20
-3.631138715708416
 10
29.2370251338748
 20
-3.006138715708416
 42
-1.0
 10
29.3620251338748
 20
-3.006138715708416
 10
29.3620251338748
 20
-3.631138715708416
 42
-1.0
 10
29.2370251338748
 20
-3.631138715708416
  0
LWPOLYLINE
  5
2186B
330
15BFD
100
AcDbEntity
  8
0
100
AcDbPolyline
 90
        5
 70
     0
 43
0.0
 10
29.4870251338748
 20
-4.068638715708416
 10
29.4870251338748
 20
-3.443638715708416
 42
-1.0
 10
29.6120251338748
 20
-3.443638715708416
 10
29.6120251338748
 20
-4.068638715708416
 42
-1.0
 10
29.4870251338748
 20
-4.068638715708416
  0
LWPOLYLINE
  5
2186C
330
15BFD
100
AcDbEntity
  8
0
100
AcDbPolyline
 90
        5
 70
     0
 43
0.0
 10
29.7370251338748
 20
-3.631138715708416
 10
29.7370251338748
 20
-3.006138715708416
 42
-1.0
 10
29.8620251338748
 20
-3.006138715708416
 10
29.8620251338748
 20
-3.631138715708416
 42
-1.0
 10
29.7370251338748
 20
-3.631138715708416
  0
LWPOLYLINE
  5
2186D
330
15BFD
100
AcDbEntity
  8
0
100
AcDbPolyline
 90
        5
 70
     0
 43
0.0
 10
29.9870251338748
 20
-4.068638715708416
 10
29.9870251338748
 20
-3.443638715708416
 42
-1.0
 10
30.1120251338748
 20
-3.443638715708416
 10
30.1120251338748
 20
-4.068638715708416
 42
-1.0
 10
29.9870251338748
 20
-4.068638715708416
  0
LWPOLYLINE
  5
2186E
330
15BFD
100
AcDbEntity
  8
0
100
AcDbPolyline
 90
        5
 70
     0
 43
0.0
 10
30.2370251338748
 20
-3.631138715708416
 10
30.2370251338748
 20
-3.006138715708416
 42
-1.0
 10
30.3620251338748
 20
-3.006138715708416
 10
30.3620251338748
 20
-3.631138715708416
 42
-1.0
 10
30.2370251338748
 20
-3.631138715708416
  0
LWPOLYLINE
  5
2186F
330
15BFD
100
AcDbEntity
  8
0
100
AcDbPolyline
 90
        5
 70
     0
 43
0.0
 10
30.4870251338748
 20
-4.068638715708416
 10
30.4870251338748
 20
-3.443638715708416
 42
-1.0
 10
30.6120251338748
 20
-3.443638715708416
 10
30.6120251338748
 20
-4.068638715708416
 42
-1.0
 10
30.4870251338748
 20
-4.068638715708416
  0
LWPOLYLINE
  5
21870
330
15BFD
100
AcDbEntity
  8
0
100
AcDbPolyline
 90
        5
 70
     0
 43
0.0
 10
30.7370251338748
 20
-3.631138715708416
 10
30.7370251338748
 20
-3.006138715708416
 42
-1.0
 10
30.8620251338748
 20
-3.006138715708416
 10
30.8620251338748
 20
-3.631138715708416
 42
-1.0
 10
30.7370251338748
 20
-3.631138715708416
  0
LWPOLYLINE
  5
21871
330
15BFD
100
AcDbEntity
  8
0
100
AcDbPolyline
 90
        5
 70
     0
 43
0.0
 10
30.9870251338748
 20
-4.068638715708416
 10
30.9870251338748
 20
-3.443638715708416
 42
-1.0
 10
31.1120251338748
 20
-3.443638715708416
 10
31.1120251338748
 20
-4.068638715708416
 42
-1.0
 10
30.9870251338748
 20
-4.068638715708416
  0
LWPOLYLINE
  5
21872
330
15BFD
100
AcDbEntity
  8
0
100
AcDbPolyline
 90
        5
 70
     0
 43
0.0
 10
31.2370251338748
 20
-3.631138715708416
 10
31.2370251338748
 20
-3.006138715708416
 42
-1.0
 10
31.3620251338748
 20
-3.006138715708416
 10
31.3620251338748
 20
-3.631138715708416
 42
-1.0
 10
31.2370251338748
 20
-3.631138715708416
  0
LWPOLYLINE
  5
21873
330
15BFD
100
AcDbEntity
  8
0
100
AcDbPolyline
 90
        5
 70
     0
 43
0.0
 10
31.4870251338748
 20
-4.068638715708416
 10
31.4870251338748
 20
-3.443638715708416
 42
-1.0
 10
31.6120251338748
 20
-3.443638715708416
 10
31.6120251338748
 20
-4.068638715708416
 42
-1.0
 10
31.4870251338748
 20
-4.068638715708416
  0
LWPOLYLINE
  5
21874
330
15BFD
100
AcDbEntity
  8
0
100
AcDbPolyline
 90
        5
 70
     0
 43
0.0
 10
31.7370251338748
 20
-3.631138715708416
 10
31.7370251338748
 20
-3.006138715708416
 42
-1.0
 10
31.8620251338748
 20
-3.006138715708416
 10
31.8620251338748
 20
-3.631138715708416
 42
-1.0
 10
31.7370251338748
 20
-3.631138715708416
  0
LWPOLYLINE
  5
21875
330
15BFD
100
AcDbEntity
  8
0
100
AcDbPolyline
 90
        5
 70
     0
 43
0.0
 10
31.9870251338748
 20
-4.068638715708416
 10
31.9870251338748
 20
-3.443638715708416
 42
-1.0
 10
32.1120251338748
 20
-3.443638715708416
 10
32.1120251338748
 20
-4.068638715708416
 42
-1.0
 10
31.9870251338748
 20
-4.068638715708416
  0
LWPOLYLINE
  5
21876
330
15BFD
100
AcDbEntity
  8
0
100
AcDbPolyline
 90
        5
 70
     0
 43
0.0
 10
32.2370251338748
 20
-3.631138715708416
 10
32.2370251338748
 20
-3.006138715708416
 42
-1.0
 10
32.3620251338748
 20
-3.006138715708416
 10
32.3620251338748
 20
-3.631138715708416
 42
-1.0
 10
32.2370251338748
 20
-3.631138715708416
  0
LWPOLYLINE
  5
21877
330
15BFD
100
AcDbEntity
  8
0
100
AcDbPolyline
 90
        5
 70
     0
 43
0.0
 10
32.4870251338748
 20
-4.068638715708416
 10
32.4870251338748
 20
-3.443638715708416
 42
-1.0
 10
32.6120251338748
 20
-3.443638715708416
 10
32.6120251338748
 20
-4.068638715708416
 42
-1.0
 10
32.4870251338748
 20
-4.068638715708416
  0
LWPOLYLINE
  5
21878
330
15BFD
100
AcDbEntity
  8
0
100
AcDbPolyline
 90
        5
 70
     0
 43
0.0
 10
32.7370251338748
 20
-3.631138715708416
 10
32.7370251338748
 20
-3.006138715708416
 42
-1.0
 10
32.8620251338748
 20
-3.006138715708416
 10
32.8620251338748
 20
-3.631138715708416
 42
-1.0
 10
32.7370251338748
 20
-3.631138715708416
  0
LWPOLYLINE
  5
21879
330
15BFD
100
AcDbEntity
  8
0
100
AcDbPolyline
 90
        5
 70
     0
 43
0.0
 10
32.9870251338748
 20
-4.068638715708416
 10
32.9870251338748
 20
-3.443638715708416
 42
-1.0
 10
33.1120251338748
 20
-3.443638715708416
 10
33.1120251338748
 20
-4.068638715708416
 42
-1.0
 10
32.9870251338748
 20
-4.068638715708416
  0
LWPOLYLINE
  5
2187A
330
15BFD
100
AcDbEntity
  8
0
100
AcDbPolyline
 90
        5
 70
     0
 43
0.0
 10
33.2370251338748
 20
-3.631138715708416
 10
33.2370251338748
 20
-3.006138715708416
 42
-1.0
 10
33.3620251338748
 20
-3.006138715708416
 10
33.3620251338748
 20
-3.631138715708416
 42
-1.0
 10
33.2370251338748
 20
-3.631138715708416
  0
TEXT
  5
219FA
330
15BFD
100
AcDbEntity
  8
BLU
 62
     3
100
AcDbText
 10
27.25757390686075
 20
-8.43681681774532
 30
0.0
 40
0.1381416995491938
  1
.125" x .750" RES on .250" x .875" Staggered Centers
  7
TECHNIC
 72
     1
 11
29.31274564606308
 21
-8.367745967970723
 31
0.0
100
AcDbText
 73
     2
  0
DIMENSION
  5
21D87
330
15BFD
100
AcDbEntity
  8
0
100
AcDbDimension
  2
*D23
 10
28.4870251338748
 20
-2.570192280599247
 30
0.0
 11
27.75860954945922
 21
-2.570192280599247
 31
0.0
 70
    32
 71
     5
 42
0.125
  3
Standard
100
AcDbAlignedDimension
 13
28.6120251338748
 23
-3.443638715708416
 33
0.0
 14
28.4870251338748
 24
-3.443638715708416
 34
0.0
100
AcDbRotatedDimension
  0
DIMENSION
  5
21D88
330
15BFD
100
AcDbEntity
  8
0
100
AcDbDimension
  2
*D24
 10
27.77557154002626
 20
-4.131138715708417
 30
0.0
 11
27.77557154002625
 21
-3.756138715708417
 31
0.0
 70
   160
 71
     5
 42
0.75
  3
Standard
100
AcDbAlignedDimension
 13
28.5495251338748
 23
-3.381138715708416
 33
0.0
 14
28.5495251338748
 24
-4.131138715708416
 34
0.0
 50
90.0
100
AcDbRotatedDimension
  0
DIMENSION
  5
21D89
330
15BFD
100
AcDbEntity
  8
0
100
AcDbDimension
  2
*D25
 10
33.94322473048639
 20
-5.068638715708417
 30
0.0
 11
33.94322473048638
 21
-5.506138715708417
 31
0.0
 70
   160
 71
     5
 42
0.875
  3
Standard
100
AcDbAlignedDimension
 13
33.3620251338748
 23
-5.943638715708415
 33
0.0
 14
33.3620251338748
 24
-5.068638715708416
 34
0.0
 50
90.0
100
AcDbRotatedDimension
  0
DIMENSION
  5
21D8A
330
15BFD
100
AcDbEntity
  8
0
100
AcDbDimension
  2
*D26
 10
33.2995251338748
 20
-7.136662889296395
 30
0.0
 11
34.02881734166701
 21
-7.136662889296395
 31
0.0
 70
    32
 71
     5
 42
0.25
  3
Standard
100
AcDbAlignedDimension
 13
33.0495251338748
 23
-6.756138715708415
 33
0.0
 14
33.2995251338748
 24
-6.318638715708415
 34
0.0
100
AcDbRotatedDimension
  0
ENDSEC
  0
SECTION
  2
OBJECTS
  0
DICTIONARY
  5
15BEB
330
0
100
AcDbDictionary
281
     1
  3
ACAD_2007HEADERVARS_RT
350
224DB
  3
ACAD_BACKGROUND
350
1E902
  3
ACAD_CIP_PREVIOUS_PRODUCT_INFO
350
174D8
  3
ACAD_COLOR
350
15CFA
  3
ACAD_DETAILVIEWSTYLE
350
174C7
  3
ACAD_GROUP
350
15BEC
  3
ACAD_LAYOUT
350
15BF8
  3
ACAD_MATERIAL
350
15CD0
  3
ACAD_MLEADERSTYLE
350
15D1F
  3
ACAD_MLINESTYLE
350
15BF5
  3
ACAD_PLOTSETTINGS
350
15BF7
  3
ACAD_PLOTSTYLENAME
350
15BED
  3
ACAD_SCALELIST
350
15CFD
  3
ACAD_SECTIONVIEWSTYLE
350
174C5
  3
ACAD_TABLESTYLE
350
15CFB
  3
ACAD_VISUALSTYLE
350
15CE9
  3
ACDB_RECOMPOSE_DATA
350
224D9
  3
AcDbVariableDictionary
350
15F28
  3
AEC_PROPERTY_SET_DEFS
350
17539
  3
DWGPROPS
350
224DA
  0
DICTIONARY
  5
1741E
330
15BE7
100
AcDbDictionary
280
     1
281
     1
  0
DICTIONARY
  5
15FAB
330
15BE1
100
AcDbDictionary
280
     1
281
     1
  3
ACAD_LAYERSTATES
360
15FAC
  0
DICTIONARY
  5
15D2F
330
15BEF
100
AcDbDictionary
280
     1
281
     1
  3
ADSK_XREC_LAYER_RECONCILED
360
1755D
  0
DICTIONARY
  5
15D35
330
15C3E
100
AcDbDictionary
280
     1
281
     1
  3
ADSK_XREC_LAYER_RECONCILED
360
1755E
  0
DICTIONARY
  5
15D41
330
15C45
100
AcDbDictionary
280
     1
281
     1
  3
ADSK_XREC_LAYER_RECONCILED
360
1755F
  0
DICTIONARY
  5
15D43
330
15C46
100
AcDbDictionary
280
     1
281
     1
  3
ADSK_XREC_LAYER_RECONCILED
360
17560
  0
DICTIONARY
  5
17561
330
1752D
100
AcDbDictionary
280
     1
281
     1
  3
ADSK_XREC_LAYER_RECONCILED
360
17562
  0
DICTIONARY
  5
16FD3
330
15BFD
100
AcDbDictionary
280
     1
281
     1
  3
ACAD_SORTENTS
360
16FD4
  0
DICTIONARY
  5
224DB
102
{ACAD_REACTORS
330
15BEB
102
}
330
15BEB
100
AcDbDictionary
281
     1
  3
INTERFEREVPVS
350
224DC
  0
DICTIONARY
  5
1E902
102
{ACAD_REACTORS
330
15BEB
102
}
330
15BEB
100
AcDbDictionary
281
     1
  0
XRECORD
  5
174D8
102
{ACAD_REACTORS
330
15BEB
102
}
330
15BEB
100
AcDbXrecord
280
     1
300
ACD
300
2023
300

  0
DICTIONARY
  5
15CFA
102
{ACAD_REACTORS
330
15BEB
102
}
330
15BEB
100
AcDbDictionary
281
     1
  0
DICTIONARY
  5
174C7
102
{ACAD_REACTORS
330
15BEB
102
}
330
15BEB
100
AcDbDictionary
281
     1
  3
Imperial24
350
174C8
  0
DICTIONARY
  5
15BEC
102
{ACAD_REACTORS
330
15BEB
102
}
330
15BEB
100
AcDbDictionary
281
     1
  0
DICTIONARY
  5
15BF8
102
{ACAD_REACTORS
330
15BEB
102
}
330
15BEB
100
AcDbDictionary
281
     1
  3
Layout1
350
15BFC
  3
Model
350
15C00
  0
DICTIONARY
  5
15CD0
102
{ACAD_REACTORS
330
15BEB
102
}
330
15BEB
100
AcDbDictionary
281
     1
  3
ByBlock
350
15CD9
  3
ByLayer
350
15CD1
  3
Global
350
15CE1
  0
DICTIONARY
  5
15D1F
102
{ACAD_REACTORS
330
15BEB
102
}
330
15BEB
100
AcDbDictionary
281
     1
  3
Standard
350
15D20
  3
Technic
350
174F4
  0
DICTIONARY
  5
15BF5
102
{ACAD_REACTORS
330
15BEB
102
}
330
15BEB
100
AcDbDictionary
281
     1
  3
Standard
350
15BF6
  0
DICTIONARY
  5
15BF7
102
{ACAD_REACTORS
330
15BEB
102
}
330
15BEB
100
AcDbDictionary
281
     1
  3
PDF
350
1C749
  0
ACDBDICTIONARYWDFLT
  5
15BED
102
{ACAD_REACTORS
330
15BEB
102
}
330
15BEB
100
AcDbDictionary
281
     1
  3
Normal
350
15BEE
100
AcDbDictionaryWithDefault
340
15BEE
  0
DICTIONARY
  5
15CFD
102
{ACAD_REACTORS
330
15BEB
102
}
330
15BEB
100
AcDbDictionary
281
     1
  3
A0
350
15CFE
  3
A1
350
15CFF
  3
A2
350
15D00
  3
A3
350
15D01
  3
A4
350
15D02
  3
A5
350
15D03
  3
A6
350
15D04
  3
A7
350
15D05
  3
A8
350
15D06
  3
A9
350
15D07
  3
B0
350
15D08
  3
B1
350
15D09
  3
B2
350
15D0A
  3
B3
350
15D0B
  3
B4
350
15D0C
  3
B5
350
15D0D
  3
B6
350
15D0E
  3
B7
350
15D0F
  3
B8
350
15D10
  3
B9
350
15D11
  3
C0
350
15D12
  3
C1
350
15D13
  3
C2
350
15D14
  3
C3
350
15D15
  3
C4
350
15D16
  3
C5
350
15D17
  3
C6
350
15D18
  3
C7
350
15D19
  3
C8
350
15D1A
  3
C9
350
15D1B
  3
D0
350
15D1C
  3
D1
350
15D1D
  3
D2
350
15D1E
  0
DICTIONARY
  5
174C5
102
{ACAD_REACTORS
330
15BEB
102
}
330
15BEB
100
AcDbDictionary
281
     1
  3
Imperial24
350
174C6
  0
DICTIONARY
  5
15CFB
102
{ACAD_REACTORS
330
15BEB
102
}
330
15BEB
100
AcDbDictionary
281
     1
  3
Standard
350
15CFC
  3
Technic
350
17532
  0
DICTIONARY
  5
15CE9
102
{ACAD_REACTORS
330
15BEB
102
}
330
15BEB
100
AcDbDictionary
281
     1
  3
2dWireframe
350
15CEF
  3
3D Hidden
350
15CF1
  3
3dWireframe
350
15CF0
  3
Basic
350
15CEE
  3
Brighten
350
15CF5
  3
ColorChange
350
15CF9
  3
Conceptual
350
15CF2
  3
Dim
350
15CF4
  3
EdgeColorOff
350
15F8D
  3
Facepattern
350
15CF8
  3
Flat
350
15CEA
  3
FlatWithEdges
350
15CEB
  3
Gouraud
350
15CEC
  3
GouraudWithEdges
350
15CED
  3
Hidden
350
16DEA
  3
JitterOff
350
15F8B
  3
Linepattern
350
15CF7
  3
OverhangOff
350
15F8C
  3
Realistic
350
15CF3
  3
Shaded
350
16DEF
  3
Shaded with edges
350
16DEE
  3
Shades of Gray
350
16DEB
  3
Sketchy
350
16DEC
  3
Thicken
350
15CF6
  3
Wireframe
350
16DE9
  3
X-Ray
350
16DED
  0
XRECORD
  5
224D9
102
{ACAD_REACTORS
330
15BEB
102
}
330
15BEB
100
AcDbXrecord
280
     1
 90
        1
330
15CFC
330
17532
  0
DICTIONARY
  5
15F28
102
{ACAD_REACTORS
330
15BEB
102
}
330
15BEB
100
AcDbDictionary
281
     1
  3
CANNOSCALE
350
15F2C
  3
CMLEADERSTYLE
350
15F2A
  3
CTABLESTYLE
350
15F29
  3
CVIEWDETAILSTYLE
350
174DF
  3
CVIEWSECTIONSTYLE
350
174E0
  3
DIMASSOC
350
17464
  3
INDEXCTL
350
17462
  3
LAYEREVAL
350
16048
  3
LAYERNOTIFY
350
16049
  3
LIGHTINGUNITS
350
15F2D
  3
MLEADERSCALE
350
174FC
  3
MSLTSCALE
350
15F2B
  3
SORTENTS
350
17461
  3
XCLIPFRAME
350
224D6
  0
DICTIONARY
  5
17539
102
{ACAD_REACTORS
330
15BEB
102
}
330
15BEB
100
AcDbDictionary
281
     1
  0
XRECORD
  5
224DA
102
{ACAD_REACTORS
330
15BEB
102
}
330
15BEB
100
AcDbXrecord
280
     1
  1
DWGPROPS COOKIE
  2

  3

  4

  6

  7

  8
RFalls
  9

300
=
301
=
302
=
303
=
304
=
305
=
306
=
307
=
308
=
309
=
 40
1.002197222222222
 41
2458080.687511574
 42
2459936.415682871
  1

 90
        0
  0
DICTIONARY
  5
15FAC
102
{ACAD_REACTORS
330
15FAB
102
}
330
15FAB
100
AcDbDictionary
281
     1
  0
XRECORD
  5
1755D
102
{ACAD_REACTORS
330
15D2F
102
}
330
15D2F
100
AcDbXrecord
280
     1
290
     1
  0
XRECORD
  5
1755E
102
{ACAD_REACTORS
330
15D35
102
}
330
15D35
100
AcDbXrecord
280
     1
290
     1
  0
XRECORD
  5
1755F
102
{ACAD_REACTORS
330
15D41
102
}
330
15D41
100
AcDbXrecord
280
     1
290
     1
  0
XRECORD
  5
17560
102
{ACAD_REACTORS
330
15D43
102
}
330
15D43
100
AcDbXrecord
280
     1
290
     1
  0
XRECORD
  5
17562
102
{ACAD_REACTORS
330
17561
102
}
330
17561
100
AcDbXrecord
280
     1
290
     1
  0
SORTENTSTABLE
  5
16FD4
102
{ACAD_REACTORS
330
16FD3
102
}
330
16FD3
100
AcDbSortentsTable
330
15BFD
  0
XRECORD
  5
224DC
102
{ACAD_REACTORS
330
224DB
102
}
330
224DB
100
AcDbXrecord
280
     1
340
15CF0
  0
ACDBDETAILVIEWSTYLE
  5
174C8
102
{ACAD_XDICTIONARY
360
22518
102
}
102
{ACAD_REACTORS
330
174C7
102
}
330
174C7
100
AcDbModelDocViewStyle
 70
     0
  3
Imperial24
290
     0
100
AcDbDetailViewStyle
 70
     0
 71
     0
 90
        3
 71
     1
340
15BF0
 40
0.24
340
0
 40
0.24
300

 40
0.36
280
     3
 71
     2
340
15BF4
 90
       25
 71
     3
340
15BF0
 40
0.24
 90
        1
 40
0.75
 90
        1
300
%<\AcVar ViewType \f "%tc1">% %<\AcVar ViewDetailId>%\PSCALE %<\AcVar ViewScale \f "%sn">%
 71
     4
340
15BF4
 90
       25
340
15BF4
 90
       25
280
     0
  0
LAYOUT
  5
15BFC
102
{ACAD_XDICTIONARY
360
224DD
102
}
102
{ACAD_REACTORS
330
15BF8
102
}
330
15BF8
100
AcDbPlotSettings
  1

  2
C:\Program Files\AutoCAD 2000i\plotters\DWF Classic.pc3
  4

  6

 40
0.0
 41
0.0
 42
0.0
 43
0.0
 44
0.0
 45
0.0
 46
0.0
 47
0.0
 48
0.0
 49
0.0
140
0.0
141
0.0
142
1.0
143
1.0
 70
   688
 72
     0
 73
     0
 74
     5
  7
monochrome.ctb
 75
    16
147
1.0
148
0.0
149
0.0
100
AcDbLayout
  1
Layout1
 70
     0
 71
     1
 10
0.0
 20
0.0
 11
12.0
 21
9.0
 12
0.0
 22
0.0
 32
0.0
 14
1.000000000000000E+20
 24
1.000000000000000E+20
 34
1.000000000000000E+20
 15
-1.000000000000000E+20
 25
-1.000000000000000E+20
 35
-1.000000000000000E+20
146
0.0
 13
0.0
 23
0.0
 33
0.0
 16
1.0
 26
0.0
 36
0.0
 17
0.0
 27
1.0
 37
0.0
 76
     0
330
15BF9
  0
LAYOUT
  5
15C00
102
{ACAD_XDICTIONARY
360
224DF
102
}
102
{ACAD_REACTORS
330
15BF8
102
}
330
15BF8
100
AcDbPlotSettings
  1

  2
350-ENGINEER-LSR-1
  4
Letter
  6

 40
4.233333110809326
 41
4.23333740234375
 42
4.23333740234375
 43
4.23333740234375
 44
215.9000091552734
 45
279.3999938964844
 46
53.57759577793657
 47
0.0
 48
-37.70116992175536
 49
8.192861004842008
140
11.32156387495801
141
26.33721079066946
142
1.0
143
4.595881535023131
 70
  3764
 72
     0
 73
     1
 74
     4
  7
monochrome.ctb
 75
     0
147
0.2175861132145058
148
957.6097160125861
149
-208.098669522987
100
AcDbLayout
  1
Model
 70
     1
 71
     0
 10
0.0
 20
0.0
 11
12.0
 21
9.0
 12
0.0
 22
0.0
 32
0.0
 14
0.0
 24
0.0
 34
0.0
 15
0.0
 25
0.0
 35
0.0
146
0.0
 13
0.0
 23
0.0
 33
0.0
 16
1.0
 26
0.0
 36
0.0
 17
0.0
 27
1.0
 37
0.0
 76
     0
330
15BFD
331
15CCE
1001
ACAD_PSEXT
1000
350-ENGINEER-LSR-1
1000
HP Universal Printing PCL 6 (v6.9.0)
1000
IP_10.163.50.203
1000
HP M604
1070
     0
  0
MATERIAL
  5
15CD9
102
{ACAD_XDICTIONARY
360
15CDA
102
}
102
{ACAD_REACTORS
330
15CD0
102
}
330
15CD0
100
AcDbMaterial
  1
ByBlock
 72
     0
 43
0.0208333333333333
 43
0.0
 43
0.0
 43
0.0
 43
0.0
 43
0.0208333333333333
 43
0.0
 43
0.0
 43
0.0
 43
0.0
 43
1.0
 43
0.0
 43
0.0
 43
0.0
 43
0.0
 43
1.0
 77
     0
 47
0.0208333333333333
 47
0.0
 47
0.0
 47
0.0
 47
0.0
 47
0.0208333333333333
 47
0.0
 47
0.0
 47
0.0
 47
0.0
 47
1.0
 47
0.0
 47
0.0
 47
0.0
 47
0.0
 47
1.0
171
     0
 49
0.0208333333333333
 49
0.0
 49
0.0
 49
0.0
 49
0.0
 49
0.0208333333333333
 49
0.0
 49
0.0
 49
0.0
 49
0.0
 49
1.0
 49
0.0
 49
0.0
 49
0.0
 49
0.0
 49
1.0
175
     0
142
0.0208333333333333
142
0.0
142
0.0
142
0.0
142
0.0
142
0.0208333333333333
142
0.0
142
0.0
142
0.0
142
0.0
142
1.0
142
0.0
142
0.0
142
0.0
142
0.0
142
1.0
179
     0
144
0.0208333333333333
144
0.0
144
0.0
144
0.0
144
0.0
144
0.0208333333333333
144
0.0
144
0.0
144
0.0
144
0.0
144
1.0
144
0.0
144
0.0
144
0.0
144
0.0
144
1.0
147
0.0208333333333333
147
0.0
147
0.0
147
0.0
147
0.0
147
0.0208333333333333
147
0.0
147
0.0
147
0.0
147
0.0
147
1.0
147
0.0
147
0.0
147
0.0
147
0.0
147
1.0
  0
MATERIAL
  5
15CD1
102
{ACAD_XDICTIONARY
360
15CD2
102
}
102
{ACAD_REACTORS
330
15CD0
102
}
330
15CD0
100
AcDbMaterial
  1
ByLayer
 72
     0
 43
0.0208333333333333
 43
0.0
 43
0.0
 43
0.0
 43
0.0
 43
0.0208333333333333
 43
0.0
 43
0.0
 43
0.0
 43
0.0
 43
1.0
 43
0.0
 43
0.0
 43
0.0
 43
0.0
 43
1.0
 77
     0
 47
0.0208333333333333
 47
0.0
 47
0.0
 47
0.0
 47
0.0
 47
0.0208333333333333
 47
0.0
 47
0.0
 47
0.0
 47
0.0
 47
1.0
 47
0.0
 47
0.0
 47
0.0
 47
0.0
 47
1.0
171
     0
 49
0.0208333333333333
 49
0.0
 49
0.0
 49
0.0
 49
0.0
 49
0.0208333333333333
 49
0.0
 49
0.0
 49
0.0
 49
0.0
 49
1.0
 49
0.0
 49
0.0
 49
0.0
 49
0.0
 49
1.0
175
     0
142
0.0208333333333333
142
0.0
142
0.0
142
0.0
142
0.0
142
0.0208333333333333
142
0.0
142
0.0
142
0.0
142
0.0
142
1.0
142
0.0
142
0.0
142
0.0
142
0.0
142
1.0
179
     0
144
0.0208333333333333
144
0.0
144
0.0
144
0.0
144
0.0
144
0.0208333333333333
144
0.0
144
0.0
144
0.0
144
0.0
144
1.0
144
0.0
144
0.0
144
0.0
144
0.0
144
1.0
147
0.0208333333333333
147
0.0
147
0.0
147
0.0
147
0.0
147
0.0208333333333333
147
0.0
147
0.0
147
0.0
147
0.0
147
1.0
147
0.0
147
0.0
147
0.0
147
0.0
147
1.0
  0
MATERIAL
  5
15CE1
102
{ACAD_XDICTIONARY
360
15CE2
102
}
102
{ACAD_REACTORS
330
15CD0
102
}
330
15CD0
100
AcDbMaterial
  1
Global
 72
     0
 43
0.0208333333333333
 43
0.0
 43
0.0
 43
0.0
 43
0.0
 43
0.0208333333333333
 43
0.0
 43
0.0
 43
0.0
 43
0.0
 43
1.0
 43
0.0
 43
0.0
 43
0.0
 43
0.0
 43
1.0
 77
     0
 47
0.0208333333333333
 47
0.0
 47
0.0
 47
0.0
 47
0.0
 47
0.0208333333333333
 47
0.0
 47
0.0
 47
0.0
 47
0.0
 47
1.0
 47
0.0
 47
0.0
 47
0.0
 47
0.0
 47
1.0
171
     0
 49
0.0208333333333333
 49
0.0
 49
0.0
 49
0.0
 49
0.0
 49
0.0208333333333333
 49
0.0
 49
0.0
 49
0.0
 49
0.0
 49
1.0
 49
0.0
 49
0.0
 49
0.0
 49
0.0
 49
1.0
175
     0
142
0.0208333333333333
142
0.0
142
0.0
142
0.0
142
0.0
142
0.0208333333333333
142
0.0
142
0.0
142
0.0
142
0.0
142
1.0
142
0.0
142
0.0
142
0.0
142
0.0
142
1.0
179
     0
144
0.0208333333333333
144
0.0
144
0.0
144
0.0
144
0.0
144
0.0208333333333333
144
0.0
144
0.0
144
0.0
144
0.0
144
1.0
144
0.0
144
0.0
144
0.0
144
0.0
144
1.0
147
0.0208333333333333
147
0.0
147
0.0
147
0.0
147
0.0
147
0.0208333333333333
147
0.0
147
0.0
147
0.0
147
0.0
147
1.0
147
0.0
147
0.0
147
0.0
147
0.0
147
1.0
  0
MLEADERSTYLE
  5
15D20
102
{ACAD_REACTORS
330
15D1F
102
}
330
15D1F
100
AcDbMLeaderStyle
170
     2
171
     1
172
     0
 90
        2
 40
0.0
 41
0.0
173
     1
 91
-1056964608
340
15BF2
 92
       -2
290
     1
 42
0.09
291
     1
 43
0.36
  3
Standard
 44
0.18
300

342
15BF0
174
     1
178
     6
175
     1
176
     0
 93
-1056964608
 45
0.18
292
     0
297
     0
 46
0.18
 94
-1056964608
 47
1.0
 49
1.0
140
1.0
293
     1
141
0.0
294
     1
177
     0
142
1.0
295
     0
296
     0
143
0.125
1001
ACAD_MLEADERVER
1070
     2
  0
MLEADERSTYLE
  5
174F4
102
{ACAD_REACTORS
330
15D1F
102
}
330
15D1F
100
AcDbMLeaderStyle
170
     2
171
     1
172
     0
 90
        2
 40
0.0
 41
0.0
173
     1
 91
-1056964608
340
15BF2
 92
       -2
290
     1
 42
0.09
291
     1
 43
0.36
  3
Standard
 44
0.5
300

342
15C34
174
     1
178
     1
175
     1
176
     0
 93
-1056964608
 45
0.5
292
     0
297
     0
 46
0.18
 94
-1056964608
 47
1.0
 49
1.0
140
1.0
293
     1
141
0.0
294
     1
177
     0
142
0.25
295
     0
296
     0
143
0.125
1001
ACAD_MLEADERVER
1070
     2
  0
MLINESTYLE
  5
15BF6
102
{ACAD_REACTORS
330
15BF5
102
}
330
15BF5
100
AcDbMlineStyle
  2
STANDARD
 70
     0
  3

 62
   256
 51
90.0
 52
90.0
 71
     2
 49
0.5
 62
   256
  6
BYLAYER
 49
-0.5
 62
   256
  6
BYLAYER
  0
PLOTSETTINGS
  5
1C749
102
{ACAD_XDICTIONARY
360
2251B
102
}
102
{ACAD_REACTORS
330
15BF7
102
}
330
15BF7
100
AcDbPlotSettings
  1
PDF
  2
none_device
  4
none_user_media
  6

 40
5.027082920074462
 41
5.027099609375
 42
5.027069091796875
 43
5.027069091796875
 44
215.8999938964844
 45
279.3999938964844
 46
0.0
 47
0.7491115222162587
 48
-27.102215
 49
70.071028
140
70.323785
141
144.944713
142
1.0
143
9.238911904113418
 70
  3764
 72
     0
 73
     1
 74
     4
  7
monochrome.ctb
 75
     0
147
0.1082378542385248
148
688.396261
149
-1779.8041112
1001
ACAD_PSEXT
1000
None
1000
None
1000
Not applicable
1000
The layout will not be plotted unless a new plotter configuration name is selected.
1070
     0
  0
ACDBPLACEHOLDER
  5
15BEE
102
{ACAD_REACTORS
330
15BED
102
}
330
15BED
  0
SCALE
  5
15CFE
102
{ACAD_REACTORS
330
15CFD
102
}
330
15CFD
100
AcDbScale
 70
     0
300
1:1
140
1.0
141
1.0
290
     1
  0
SCALE
  5
15CFF
102
{ACAD_REACTORS
330
15CFD
102
}
330
15CFD
100
AcDbScale
 70
     0
300
1:2
140
1.0
141
2.0
290
     0
  0
SCALE
  5
15D00
102
{ACAD_REACTORS
330
15CFD
102
}
330
15CFD
100
AcDbScale
 70
     0
300
1:4
140
1.0
141
4.0
290
     0
  0
SCALE
  5
15D01
102
{ACAD_REACTORS
330
15CFD
102
}
330
15CFD
100
AcDbScale
 70
     0
300
1:5
140
1.0
141
5.0
290
     0
  0
SCALE
  5
15D02
102
{ACAD_REACTORS
330
15CFD
102
}
330
15CFD
100
AcDbScale
 70
     0
300
1:8
140
1.0
141
8.0
290
     0
  0
SCALE
  5
15D03
102
{ACAD_REACTORS
330
15CFD
102
}
330
15CFD
100
AcDbScale
 70
     0
300
1:10
140
1.0
141
10.0
290
     0
  0
SCALE
  5
15D04
102
{ACAD_REACTORS
330
15CFD
102
}
330
15CFD
100
AcDbScale
 70
     0
300
1:16
140
1.0
141
16.0
290
     0
  0
SCALE
  5
15D05
102
{ACAD_REACTORS
330
15CFD
102
}
330
15CFD
100
AcDbScale
 70
     0
300
1:20
140
1.0
141
20.0
290
     0
  0
SCALE
  5
15D06
102
{ACAD_REACTORS
330
15CFD
102
}
330
15CFD
100
AcDbScale
 70
     0
300
1:30
140
1.0
141
30.0
290
     0
  0
SCALE
  5
15D07
102
{ACAD_REACTORS
330
15CFD
102
}
330
15CFD
100
AcDbScale
 70
     0
300
1:40
140
1.0
141
40.0
290
     0
  0
SCALE
  5
15D08
102
{ACAD_REACTORS
330
15CFD
102
}
330
15CFD
100
AcDbScale
 70
     0
300
1:50
140
1.0
141
50.0
290
     0
  0
SCALE
  5
15D09
102
{ACAD_REACTORS
330
15CFD
102
}
330
15CFD
100
AcDbScale
 70
     0
300
1:100
140
1.0
141
100.0
290
     0
  0
SCALE
  5
15D0A
102
{ACAD_REACTORS
330
15CFD
102
}
330
15CFD
100
AcDbScale
 70
     0
300
2:1
140
2.0
141
1.0
290
     0
  0
SCALE
  5
15D0B
102
{ACAD_REACTORS
330
15CFD
102
}
330
15CFD
100
AcDbScale
 70
     0
300
4:1
140
4.0
141
1.0
290
     0
  0
SCALE
  5
15D0C
102
{ACAD_REACTORS
330
15CFD
102
}
330
15CFD
100
AcDbScale
 70
     0
300
8:1
140
8.0
141
1.0
290
     0
  0
SCALE
  5
15D0D
102
{ACAD_REACTORS
330
15CFD
102
}
330
15CFD
100
AcDbScale
 70
     0
300
10:1
140
10.0
141
1.0
290
     0
  0
SCALE
  5
15D0E
102
{ACAD_REACTORS
330
15CFD
102
}
330
15CFD
100
AcDbScale
 70
     0
300
100:1
140
100.0
141
1.0
290
     0
  0
SCALE
  5
15D0F
102
{ACAD_REACTORS
330
15CFD
102
}
330
15CFD
100
AcDbScale
 70
     0
300
1/128" = 1'-0"
140
0.0078125
141
12.0
290
     0
  0
SCALE
  5
15D10
102
{ACAD_REACTORS
330
15CFD
102
}
330
15CFD
100
AcDbScale
 70
     0
300
1/64" = 1'-0"
140
0.015625
141
12.0
290
     0
  0
SCALE
  5
15D11
102
{ACAD_REACTORS
330
15CFD
102
}
330
15CFD
100
AcDbScale
 70
     0
300
1/32" = 1'-0"
140
0.03125
141
12.0
290
     0
  0
SCALE
  5
15D12
102
{ACAD_REACTORS
330
15CFD
102
}
330
15CFD
100
AcDbScale
 70
     0
300
1/16" = 1'-0"
140
0.0625
141
12.0
290
     0
  0
SCALE
  5
15D13
102
{ACAD_REACTORS
330
15CFD
102
}
330
15CFD
100
AcDbScale
 70
     0
300
3/32" = 1'-0"
140
0.09375
141
12.0
290
     0
  0
SCALE
  5
15D14
102
{ACAD_REACTORS
330
15CFD
102
}
330
15CFD
100
AcDbScale
 70
     0
300
1/8" = 1'-0"
140
0.125
141
12.0
290
     0
  0
SCALE
  5
15D15
102
{ACAD_REACTORS
330
15CFD
102
}
330
15CFD
100
AcDbScale
 70
     0
300
3/16" = 1'-0"
140
0.1875
141
12.0
290
     0
  0
SCALE
  5
15D16
102
{ACAD_REACTORS
330
15CFD
102
}
330
15CFD
100
AcDbScale
 70
     0
300
1/4" = 1'-0"
140
0.25
141
12.0
290
     0
  0
SCALE
  5
15D17
102
{ACAD_REACTORS
330
15CFD
102
}
330
15CFD
100
AcDbScale
 70
     0
300
3/8" = 1'-0"
140
0.375
141
12.0
290
     0
  0
SCALE
  5
15D18
102
{ACAD_REACTORS
330
15CFD
102
}
330
15CFD
100
AcDbScale
 70
     0
300
1/2" = 1'-0"
140
0.5
141
12.0
290
     0
  0
SCALE
  5
15D19
102
{ACAD_REACTORS
330
15CFD
102
}
330
15CFD
100
AcDbScale
 70
     0
300
3/4" = 1'-0"
140
0.75
141
12.0
290
     0
  0
SCALE
  5
15D1A
102
{ACAD_REACTORS
330
15CFD
102
}
330
15CFD
100
AcDbScale
 70
     0
300
1" = 1'-0"
140
1.0
141
12.0
290
     0
  0
SCALE
  5
15D1B
102
{ACAD_REACTORS
330
15CFD
102
}
330
15CFD
100
AcDbScale
 70
     0
300
1-1/2" = 1'-0"
140
1.5
141
12.0
290
     0
  0
SCALE
  5
15D1C
102
{ACAD_REACTORS
330
15CFD
102
}
330
15CFD
100
AcDbScale
 70
     0
300
3" = 1'-0"
140
3.0
141
12.0
290
     0
  0
SCALE
  5
15D1D
102
{ACAD_REACTORS
330
15CFD
102
}
330
15CFD
100
AcDbScale
 70
     0
300
6" = 1'-0"
140
6.0
141
12.0
290
     0
  0
SCALE
  5
15D1E
102
{ACAD_REACTORS
330
15CFD
102
}
330
15CFD
100
AcDbScale
 70
     0
300
1'-0" = 1'-0"
140
12.0
141
12.0
290
     0
  0
ACDBSECTIONVIEWSTYLE
  5
174C6
102
{ACAD_XDICTIONARY
360
22516
102
}
102
{ACAD_REACTORS
330
174C5
102
}
330
174C5
100
AcDbModelDocViewStyle
 70
     0
  3
Imperial24
290
     0
100
AcDbSectionViewStyle
 70
     0
 71
     0
 90
       78
 71
     1
340
15BF0
 40
0.24
340
0
340
0
 40
0.24
300
I, O, Q, S, X, Z
 40
0.48
 90
        3
 40
0.18
 90
        1
 71
     2
340
15BF4
 90
       25
340
15BF4
 90
       50
 40
0.24
 40
0.0
 40
0.24
 71
     3
340
15BF0
 40
0.24
 90
        1
 40
0.75
 90
        1
300
%<\AcVar ViewType \f "%tc1">% %<\AcVar ViewSectionStartId>%-%<\AcVar ViewSectionEndId>%\PSCALE %<\AcVar ViewScale \f "%sn">%
 71
     4
300
ANSI31
 40
1.0
 90
        0
290
     0
290
     0
 90
        6
 40
0.0
 40
1.570796326794896
 40
0.2617993877991494
 40
1.308996938995747
 40
-0.2617993877991494
 40
1.832595714594045
  0
TABLESTYLE
  5
15CFC
102
{ACAD_XDICTIONARY
360
15F23
102
}
102
{ACAD_REACTORS
330
15CFB
102
}
330
15CFB
100
AcDbTableStyle
  3
Standard
 70
     0
 71
     0
 40
0.06
 41
0.06
280
     0
281
     0
  7
STANDARD
140
0.18
170
     2
 62
     0
 63
     7
283
     0
274
    -2
284
     1
 64
     0
275
    -2
285
     1
 65
     0
276
    -2
286
     1
 66
     0
277
    -2
287
     1
 67
     0
278
    -2
288
     1
 68
     0
279
    -2
289
     1
 69
     0
  7
STANDARD
140
0.25
170
     5
 62
     0
 63
     7
283
     0
274
    -2
284
     1
 64
     0
275
    -2
285
     1
 65
     0
276
    -2
286
     1
 66
     0
277
    -2
287
     1
 67
     0
278
    -2
288
     1
 68
     0
279
    -2
289
     1
 69
     0
  7
STANDARD
140
0.18
170
     5
 62
     0
 63
     7
283
     0
274
    -2
284
     1
 64
     0
275
    -2
285
     1
 65
     0
276
    -2
286
     1
 66
     0
277
    -2
287
     1
 67
     0
278
    -2
288
     1
 68
     0
279
    -2
289
     1
 69
     0
  0
TABLESTYLE
  5
17532
102
{ACAD_XDICTIONARY
360
1AB7B
102
}
102
{ACAD_REACTORS
330
15CFB
102
}
330
15CFB
100
AcDbTableStyle
  3
Standard
 70
     0
 71
     0
 40
0.06
 41
0.06
280
     0
281
     0
  7
TECHNIC
140
0.5
170
     5
 62
     0
 63
     7
283
     0
274
    -2
284
     1
 64
     0
275
    -2
285
     1
 65
     0
276
    -2
286
     1
 66
     0
277
    -2
287
     1
 67
     0
278
    -2
288
     1
 68
     0
279
    -2
289
     1
 69
     0
  7
TECHNIC
140
0.5
170
     5
 62
     0
 63
     7
283
     0
274
    -2
284
     1
 64
     0
275
    -2
285
     1
 65
     0
276
    -2
286
     1
 66
     0
277
    -2
287
     1
 67
     0
278
    -2
288
     1
 68
     0
279
    -2
289
     1
 69
     0
  7
TECHNIC
140
0.5
170
     5
 62
     0
 63
     7
283
     0
274
    -2
284
     1
 64
     0
275
    -2
285
     1
 65
     0
276
    -2
286
     1
 66
     0
277
    -2
287
     1
 67
     0
278
    -2
288
     1
 68
     0
279
    -2
289
     1
 69
     0
  0
VISUALSTYLE
  5
15CEF
102
{ACAD_XDICTIONARY
360
224EB
102
}
102
{ACAD_REACTORS
330
15CE9
102
}
330
15CE9
100
AcDbVisualStyle
  2

 70
     4
 71
     0
 72
     2
 73
     0
 90
        0
 40
-0.6
 41
-30.0
 62
     5
 63
     7
 74
     1
 91
        4
 64
     7
 65
   257
 75
     1
175
     1
 42
1.0
 92
        0
 66
   257
 43
1.0
 76
     1
 77
     6
 78
     2
 67
     7
 79
     5
170
     0
171
     0
290
     0
174
     0
 93
        1
 44
0.0
173
     0
291
     0
 45
0.0
1001
ACAD
1000
AcDbSavedByObjectVersion
1070
     0
  0
VISUALSTYLE
  5
15CF1
102
{ACAD_XDICTIONARY
360
224EF
102
}
102
{ACAD_REACTORS
330
15CE9
102
}
330
15CE9
100
AcDbVisualStyle
  2

 70
     6
 71
     1
 72
     2
 73
     2
 90
        0
 40
-0.6
 41
-30.0
 62
     5
 63
     7
 74
     2
 91
        2
 64
     7
 65
   257
 75
     2
175
     1
 42
40.0
 92
        0
 66
   257
 43
1.0
 76
     1
 77
     6
 78
     2
 67
     7
 79
     3
170
     0
171
     0
290
     0
174
     0
 93
        1
 44
0.0
173
     0
291
     0
 45
0.0
1001
ACAD
1000
AcDbSavedByObjectVersion
1070
     0
  0
VISUALSTYLE
  5
15CF0
102
{ACAD_XDICTIONARY
360
224ED
102
}
102
{ACAD_REACTORS
330
15CE9
102
}
330
15CE9
100
AcDbVisualStyle
  2

 70
     5
 71
     0
 72
     2
 73
     0
 90
        0
 40
-0.6
 41
-30.0
 62
     5
 63
     7
 74
     1
 91
        4
 64
     7
 65
   257
 75
     1
175
     1
 42
1.0
 92
        0
 66
   257
 43
1.0
 76
     1
 77
     6
 78
     2
 67
     7
 79
     5
170
     0
171
     0
290
     0
174
     0
 93
        1
 44
0.0
173
     0
291
     0
 45
0.0
1001
ACAD
1000
AcDbSavedByObjectVersion
1070
     0
  0
VISUALSTYLE
  5
15CEE
102
{ACAD_XDICTIONARY
360
224E9
102
}
102
{ACAD_REACTORS
330
15CE9
102
}
330
15CE9
100
AcDbVisualStyle
  2

 70
     7
 71
     1
 72
     0
 73
     1
 90
        0
 40
-0.6
 41
-30.0
 62
     5
 63
     7
 74
     0
 91
        4
 64
     7
 65
   257
 75
     1
175
     1
 42
1.0
 92
        8
 66
     7
 43
1.0
 76
     1
 77
     6
 78
     2
 67
     7
 79
     5
170
     0
171
     0
290
     0
174
     0
 93
        1
 44
0.0
173
     0
291
     1
 45
0.0
1001
ACAD
1000
AcDbSavedByObjectVersion
1070
     0
  0
VISUALSTYLE
  5
15CF5
102
{ACAD_XDICTIONARY
360
224F7
102
}
102
{ACAD_REACTORS
330
15CE9
102
}
330
15CE9
100
AcDbVisualStyle
  2

 70
    12
 71
     2
 72
     2
 73
     0
 90
        0
 40
-0.6
 41
-30.0
 62
     5
 63
     7
 74
     1
 91
        4
 64
     7
 65
   257
 75
     1
175
     1
 42
1.0
 92
        8
 66
     7
 43
1.0
 76
     1
 77
     6
 78
     2
 67
     7
 79
     5
170
     0
171
     0
290
     0
174
     0
 93
        1
 44
50.0
173
     0
291
     1
 45
0.0
1001
ACAD
1000
AcDbSavedByObjectVersion
1070
     0
  0
VISUALSTYLE
  5
15CF9
102
{ACAD_XDICTIONARY
360
224FF
102
}
102
{ACAD_REACTORS
330
15CE9
102
}
330
15CE9
100
AcDbVisualStyle
  2

 70
    16
 71
     2
 72
     2
 73
     3
 90
        0
 40
-0.6
 41
-30.0
 62
     5
 63
     8
 74
     1
 91
        4
 64
     7
 65
   257
 75
     1
175
     1
 42
1.0
 92
        8
 66
     8
 43
1.0
 76
     1
 77
     6
 78
     2
 67
     7
 79
     5
170
     0
171
     0
290
     0
174
     0
 93
        1
 44
0.0
173
     0
291
     1
 45
0.0
1001
ACAD
1000
AcDbSavedByObjectVersion
1070
     0
  0
VISUALSTYLE
  5
15CF2
102
{ACAD_XDICTIONARY
360
224F1
102
}
102
{ACAD_REACTORS
330
15CE9
102
}
330
15CE9
100
AcDbVisualStyle
  2

 70
     9
 71
     3
 72
     2
 73
     0
 90
        0
 40
-0.6
 41
-30.0
 62
     5
 63
     7
 74
     2
 91
        2
 64
     7
 65
   257
 75
     1
175
     1
 42
40.0
 92
        8
 66
     7
 43
1.0
 76
     1
 77
     6
 78
     2
 67
     7
 79
     3
170
     0
171
     0
290
     0
174
     0
 93
        1
 44
0.0
173
     0
291
     0
 45
0.0
1001
ACAD
1000
AcDbSavedByObjectVersion
1070
     0
  0
VISUALSTYLE
  5
15CF4
102
{ACAD_XDICTIONARY
360
224F5
102
}
102
{ACAD_REACTORS
330
15CE9
102
}
330
15CE9
100
AcDbVisualStyle
  2

 70
    11
 71
     2
 72
     2
 73
     0
 90
        0
 40
-0.6
 41
-30.0
 62
     5
 63
     7
 74
     1
 91
        4
 64
     7
 65
   257
 75
     1
175
     1
 42
1.0
 92
        8
 66
     7
 43
1.0
 76
     1
 77
     6
 78
     2
 67
     7
 79
     5
170
     0
171
     0
290
     0
174
     0
 93
        1
 44
-50.0
173
     0
291
     1
 45
0.0
1001
ACAD
1000
AcDbSavedByObjectVersion
1070
     0
  0
VISUALSTYLE
  5
15F8D
102
{ACAD_XDICTIONARY
360
22506
102
}
102
{ACAD_REACTORS
330
15CE9
102
}
330
15CE9
100
AcDbVisualStyle
  2

 70
    22
 71
     2
 72
     2
 73
     0
 90
        0
 40
-0.6
 41
-30.0
 62
     5
 63
     7
 74
     1
 91
        4
 64
     7
 65
   257
 75
     1
175
     1
 42
1.0
 92
        8
 66
     7
 43
1.0
 76
     1
 77
     6
 78
     2
 67
     7
 79
     5
170
     0
171
     0
290
     0
174
     0
 93
        1
 44
0.0
173
     0
291
     1
 45
0.0
1001
ACAD
1000
AcDbSavedByObjectVersion
1070
     0
  0
VISUALSTYLE
  5
15CF8
102
{ACAD_XDICTIONARY
360
224FD
102
}
102
{ACAD_REACTORS
330
15CE9
102
}
330
15CE9
100
AcDbVisualStyle
  2

 70
    15
 71
     2
 72
     2
 73
     0
 90
        0
 40
-0.6
 41
-30.0
 62
     5
 63
     7
 74
     1
 91
        4
 64
     7
 65
   257
 75
     1
175
     1
 42
1.0
 92
        8
 66
     7
 43
1.0
 76
     1
 77
     6
 78
     2
 67
     7
 79
     5
170
     0
171
     0
290
     0
174
     0
 93
        1
 44
0.0
173
     0
291
     1
 45
0.0
1001
ACAD
1000
AcDbSavedByObjectVersion
1070
     0
  0
VISUALSTYLE
  5
15CEA
102
{ACAD_XDICTIONARY
360
224E1
102
}
102
{ACAD_REACTORS
330
15CE9
102
}
330
15CE9
100
AcDbVisualStyle
  2

 70
     0
 71
     2
 72
     1
 73
     1
 90
        2
 40
-0.6
 41
30.0
 62
     5
 63
     7
 74
     0
 91
        4
 64
     7
 65
   257
 75
     1
175
     1
 42
1.0
 92
        8
 66
     7
 43
1.0
 76
     1
 77
     6
 78
     2
 67
     7
 79
     5
170
     0
171
     0
290
     0
174
     0
 93
       13
 44
0.0
173
     0
291
     1
 45
0.0
1001
ACAD
1000
AcDbSavedByObjectVersion
1070
     0
  0
VISUALSTYLE
  5
15CEB
102
{ACAD_XDICTIONARY
360
224E3
102
}
102
{ACAD_REACTORS
330
15CE9
102
}
330
15CE9
100
AcDbVisualStyle
  2

 70
     1
 71
     2
 72
     1
 73
     1
 90
        2
 40
-0.6
 41
30.0
 62
     5
 63
     7
 74
     1
 91
        4
 64
     7
 65
   257
 75
     1
175
     1
 42
1.0
 92
        0
 66
   257
 43
1.0
 76
     1
 77
     6
 78
     2
 67
     7
 79
     5
170
     0
171
     0
290
     0
174
     0
 93
       13
 44
0.0
173
     0
291
     1
 45
0.0
1001
ACAD
1000
AcDbSavedByObjectVersion
1070
     0
  0
VISUALSTYLE
  5
15CEC
102
{ACAD_XDICTIONARY
360
224E5
102
}
102
{ACAD_REACTORS
330
15CE9
102
}
330
15CE9
100
AcDbVisualStyle
  2

 70
     2
 71
     2
 72
     2
 73
     1
 90
        2
 40
-0.6
 41
30.0
 62
     5
 63
     7
 74
     0
 91
        4
 64
     7
 65
   257
 75
     1
175
     1
 42
1.0
 92
        0
 66
     7
 43
1.0
 76
     1
 77
     6
 78
     2
 67
     7
 79
     5
170
     0
171
     0
290
     0
174
     0
 93
       13
 44
0.0
173
     0
291
     1
 45
0.0
1001
ACAD
1000
AcDbSavedByObjectVersion
1070
     0
  0
VISUALSTYLE
  5
15CED
102
{ACAD_XDICTIONARY
360
224E7
102
}
102
{ACAD_REACTORS
330
15CE9
102
}
330
15CE9
100
AcDbVisualStyle
  2

 70
     3
 71
     2
 72
     2
 73
     1
 90
        2
 40
-0.6
 41
30.0
 62
     5
 63
     7
 74
     1
 91
        4
 64
     7
 65
   257
 75
     1
175
     1
 42
1.0
 92
        0
 66
   257
 43
1.0
 76
     1
 77
     6
 78
     2
 67
     7
 79
     5
170
     0
171
     0
290
     0
174
     0
 93
       13
 44
0.0
173
     0
291
     1
 45
0.0
1001
ACAD
1000
AcDbSavedByObjectVersion
1070
     0
  0
VISUALSTYLE
  5
16DEA
102
{ACAD_XDICTIONARY
360
2250A
102
}
102
{ACAD_REACTORS
330
15CE9
102
}
330
15CE9
100
AcDbVisualStyle
  2

 70
     6
 71
     1
 72
     2
 73
     2
 90
        0
 40
-0.6
 41
-30.0
 62
     5
 63
     7
 74
     2
 91
        2
 64
     7
 65
   257
 75
     2
175
     1
 42
40.0
 92
        0
 66
   257
 43
1.0
 76
     1
 77
     6
 78
     2
 67
     7
 79
     3
170
     0
171
     0
290
     0
174
     0
 93
        1
 44
0.0
173
     0
291
     0
 45
0.0
1001
ACAD
1000
AcDbSavedByObjectVersion
1070
     0
  0
VISUALSTYLE
  5
15F8B
102
{ACAD_XDICTIONARY
360
22502
102
}
102
{ACAD_REACTORS
330
15CE9
102
}
330
15CE9
100
AcDbVisualStyle
  2

 70
    20
 71
     2
 72
     2
 73
     0
 90
        0
 40
-0.6
 41
-30.0
 62
     5
 63
     7
 74
     1
 91
        4
 64
     7
 65
   257
 75
     1
175
     1
 42
1.0
 92
       10
 66
     7
 43
1.0
 76
     1
 77
     6
 78
     2
 67
     7
 79
     5
170
     0
171
     0
290
     0
174
     0
 93
        1
 44
0.0
173
     0
291
     1
 45
0.0
1001
ACAD
1000
AcDbSavedByObjectVersion
1070
     0
  0
VISUALSTYLE
  5
15CF7
102
{ACAD_XDICTIONARY
360
224FB
102
}
102
{ACAD_REACTORS
330
15CE9
102
}
330
15CE9
100
AcDbVisualStyle
  2

 70
    14
 71
     2
 72
     2
 73
     0
 90
        0
 40
-0.6
 41
-30.0
 62
     5
 63
     7
 74
     1
 91
        4
 64
     7
 65
   257
 75
     7
175
     7
 42
1.0
 92
        8
 66
     7
 43
1.0
 76
     1
 77
     6
 78
     2
 67
     7
 79
     5
170
     0
171
     0
290
     0
174
     0
 93
        1
 44
0.0
173
     0
291
     1
 45
0.0
1001
ACAD
1000
AcDbSavedByObjectVersion
1070
     0
  0
VISUALSTYLE
  5
15F8C
102
{ACAD_XDICTIONARY
360
22504
102
}
102
{ACAD_REACTORS
330
15CE9
102
}
330
15CE9
100
AcDbVisualStyle
  2

 70
    21
 71
     2
 72
     2
 73
     0
 90
        0
 40
-0.6
 41
-30.0
 62
     5
 63
     7
 74
     1
 91
        4
 64
     7
 65
   257
 75
     1
175
     1
 42
1.0
 92
        9
 66
     7
 43
1.0
 76
     1
 77
     6
 78
     2
 67
     7
 79
     5
170
     0
171
     0
290
     0
174
     0
 93
        1
 44
0.0
173
     0
291
     1
 45
0.0
1001
ACAD
1000
AcDbSavedByObjectVersion
1070
     0
  0
VISUALSTYLE
  5
15CF3
102
{ACAD_XDICTIONARY
360
224F3
102
}
102
{ACAD_REACTORS
330
15CE9
102
}
330
15CE9
100
AcDbVisualStyle
  2

 70
     8
 71
     2
 72
     2
 73
     0
 90
        0
 40
-0.6
 41
-30.0
 62
     5
 63
     7
 74
     1
 91
        0
 64
     7
 65
   257
 75
     1
175
     1
 42
1.0
 92
        8
 66
     8
 43
1.0
 76
     1
 77
     6
 78
     2
 67
     7
 79
     5
170
     0
171
     0
290
     0
174
     0
 93
       13
 44
0.0
173
     0
291
     0
 45
0.0
1001
ACAD
1000
AcDbSavedByObjectVersion
1070
     0
  0
VISUALSTYLE
  5
16DEF
102
{ACAD_XDICTIONARY
360
22514
102
}
102
{ACAD_REACTORS
330
15CE9
102
}
330
15CE9
100
AcDbVisualStyle
  2

 70
    27
 71
     2
 72
     2
 73
     1
 90
        2
 40
-0.6
 41
30.0
 62
     5
 63
     7
 74
     0
 91
        4
 64
     7
 65
   257
 75
     1
175
     1
 42
1.0
 92
        8
 66
   257
 43
1.0
 76
     1
 77
     6
 78
     2
 67
     8
 79
     3
170
     0
171
     0
290
     0
174
     0
 93
        5
 44
0.0
173
     0
291
     0
 45
0.0
1001
ACAD
1000
AcDbSavedByObjectVersion
1070
     0
  0
VISUALSTYLE
  5
16DEE
102
{ACAD_XDICTIONARY
360
22512
102
}
102
{ACAD_REACTORS
330
15CE9
102
}
330
15CE9
100
AcDbVisualStyle
  2

 70
    26
 71
     2
 72
     2
 73
     1
 90
        2
 40
-0.6
 41
30.0
 62
     5
 63
     7
 74
     1
 91
        2
 64
     7
 65
   257
 75
     2
175
     1
 42
1.0
 92
        8
 66
   257
 43
1.0
 76
     1
 77
     6
 78
     2
 67
     7
 79
     3
170
     0
171
     0
290
     0
174
     0
 93
        5
 44
0.0
173
     0
291
     0
 45
0.0
1001
ACAD
1000
AcDbSavedByObjectVersion
1070
     0
  0
VISUALSTYLE
  5
16DEB
102
{ACAD_XDICTIONARY
360
2250C
102
}
102
{ACAD_REACTORS
330
15CE9
102
}
330
15CE9
100
AcDbVisualStyle
  2

 70
    23
 71
     2
 72
     2
 73
     3
 90
        0
 40
-0.6
 41
-30.0
 62
     5
 63
     7
 74
     2
 91
        2
 64
     7
 65
     7
 75
     1
175
     1
 42
40.0
 92
        8
 66
     7
 43
1.0
 76
     1
 77
     6
 78
     2
 67
     7
 79
     3
170
     0
171
     0
290
     0
174
     0
 93
        1
 44
0.0
173
     0
291
     0
 45
0.0
1001
ACAD
1000
AcDbSavedByObjectVersion
1070
     0
  0
VISUALSTYLE
  5
16DEC
102
{ACAD_XDICTIONARY
360
2250E
102
}
102
{ACAD_REACTORS
330
15CE9
102
}
330
15CE9
100
AcDbVisualStyle
  2

 70
    24
 71
     1
 72
     2
 73
     2
 90
        0
 40
-0.6
 41
-30.0
 62
     5
 63
     7
 74
     2
 91
        2
 64
     7
 65
     7
 75
     1
175
     1
 42
40.0
 92
       11
 66
     7
 43
1.0
 76
     1
 77
     6
 78
     2
 67
     7
 79
     6
170
     0
171
     0
290
     0
174
     0
 93
        1
 44
0.0
173
     0
291
     0
 45
0.0
1001
ACAD
1000
AcDbSavedByObjectVersion
1070
     0
  0
VISUALSTYLE
  5
15CF6
102
{ACAD_XDICTIONARY
360
224F9
102
}
102
{ACAD_REACTORS
330
15CE9
102
}
330
15CE9
100
AcDbVisualStyle
  2

 70
    13
 71
     2
 72
     2
 73
     0
 90
        0
 40
-0.6
 41
-30.0
 62
     5
 63
     7
 74
     1
 91
        4
 64
     7
 65
   257
 75
     1
175
     1
 42
1.0
 92
       12
 66
     7
 43
1.0
 76
     1
 77
     6
 78
     2
 67
     7
 79
     5
170
     0
171
     0
290
     0
174
     0
 93
        1
 44
0.0
173
     0
291
     1
 45
0.0
1001
ACAD
1000
AcDbSavedByObjectVersion
1070
     0
  0
VISUALSTYLE
  5
16DE9
102
{ACAD_XDICTIONARY
360
22508
102
}
102
{ACAD_REACTORS
330
15CE9
102
}
330
15CE9
100
AcDbVisualStyle
  2

 70
     5
 71
     0
 72
     2
 73
     0
 90
        0
 40
-0.6
 41
-30.0
 62
     5
 63
     7
 74
     1
 91
        4
 64
     7
 65
   257
 75
     1
175
     1
 42
1.0
 92
        0
 66
   257
 43
1.0
 76
     1
 77
     6
 78
     2
 67
     7
 79
     3
170
     0
171
     0
290
     0
174
     0
 93
        1
 44
0.0
173
     0
291
     0
 45
0.0
1001
ACAD
1000
AcDbSavedByObjectVersion
1070
     0
  0
VISUALSTYLE
  5
16DED
102
{ACAD_XDICTIONARY
360
22510
102
}
102
{ACAD_REACTORS
330
15CE9
102
}
330
15CE9
100
AcDbVisualStyle
  2

 70
    25
 71
     2
 72
     2
 73
     1
 90
        1
 40
0.5
 41
-30.0
 62
     5
 63
     7
 74
     1
 91
        0
 64
     7
 65
   257
 75
     1
175
     1
 42
1.0
 92
        8
 66
     7
 43
1.0
 76
     1
 77
     6
 78
     2
 67
     7
 79
     3
170
     0
171
     0
290
     0
174
     0
 93
       13
 44
0.0
173
     0
291
     0
 45
0.0
1001
ACAD
1000
AcDbSavedByObjectVersion
1070
     0
  0
DICTIONARYVAR
  5
15F2C
102
{ACAD_REACTORS
330
15F28
102
}
330
15F28
100
DictionaryVariables
280
     0
  1
1:1
  0
DICTIONARYVAR
  5
15F2A
102
{ACAD_REACTORS
330
15F28
102
}
330
15F28
100
DictionaryVariables
280
     0
  1
Technic
  0
DICTIONARYVAR
  5
15F29
102
{ACAD_REACTORS
330
15F28
102
}
330
15F28
100
DictionaryVariables
280
     0
  1
STANDARD
  0
DICTIONARYVAR
  5
174DF
102
{ACAD_REACTORS
330
15F28
102
}
330
15F28
100
DictionaryVariables
280
     0
  1
Imperial24
  0
DICTIONARYVAR
  5
174E0
102
{ACAD_REACTORS
330
15F28
102
}
330
15F28
100
DictionaryVariables
280
     0
  1
Imperial24
  0
DICTIONARYVAR
  5
17464
102
{ACAD_REACTORS
330
15F28
102
}
330
15F28
100
DictionaryVariables
280
     0
  1
1
  0
DICTIONARYVAR
  5
17462
102
{ACAD_REACTORS
330
15F28
102
}
330
15F28
100
DictionaryVariables
280
     0
  1
0
  0
DICTIONARYVAR
  5
16048
102
{ACAD_REACTORS
330
15F28
102
}
330
15F28
100
DictionaryVariables
280
     0
  1
1
  0
DICTIONARYVAR
  5
16049
102
{ACAD_REACTORS
330
15F28
102
}
330
15F28
100
DictionaryVariables
280
     0
  1
15
  0
DICTIONARYVAR
  5
15F2D
102
{ACAD_REACTORS
330
15F28
102
}
330
15F28
100
DictionaryVariables
280
     0
  1
0
  0
DICTIONARYVAR
  5
174FC
102
{ACAD_REACTORS
330
15F28
102
}
330
15F28
100
DictionaryVariables
280
     0
  1
0.250000
  0
DICTIONARYVAR
  5
15F2B
102
{ACAD_REACTORS
330
15F28
102
}
330
15F28
100
DictionaryVariables
280
     0
  1
0
  0
DICTIONARYVAR
  5
17461
102
{ACAD_REACTORS
330
15F28
102
}
330
15F28
100
DictionaryVariables
280
     0
  1
127
  0
DICTIONARYVAR
  5
224D6
102
{ACAD_REACTORS
330
15F28
102
}
330
15F28
100
DictionaryVariables
280
     0
  1
2
  0
DICTIONARY
  5
22518
330
174C8
100
AcDbDictionary
280
     1
281
     1
  3
ACAD_XREC_ROUNDTRIP
360
22519
  0
DICTIONARY
  5
224DD
330
15BFC
100
AcDbDictionary
280
     1
281
     1
  3
ACAD_XREC_ROUNDTRIP
360
224DE
  0
DICTIONARY
  5
224DF
330
15C00
100
AcDbDictionary
280
     1
281
     1
  3
ACAD_XREC_ROUNDTRIP
360
224E0
  0
DICTIONARY
  5
15CDA
330
15CD9
100
AcDbDictionary
280
     1
281
     1
  3
ACAD_XREC_ROUNDTRIP
360
22492
  3
BUMPTILE
360
15CDC
  3
DIFFUSETILE
360
15CDB
  3
OPACITYTILE
360
15CDF
  3
REFLECTIONTILE
360
15CDE
  3
REFRACTIONTILE
360
15CE0
  3
SPECULARTILE
360
15CDD
  0
DICTIONARY
  5
15CD2
330
15CD1
100
AcDbDictionary
280
     1
281
     1
  3
ACAD_XREC_ROUNDTRIP
360
22491
  3
BUMPTILE
360
15CD4
  3
DIFFUSETILE
360
15CD3
  3
OPACITYTILE
360
15CD7
  3
REFLECTIONTILE
360
15CD6
  3
REFRACTIONTILE
360
15CD8
  3
SPECULARTILE
360
15CD5
  0
DICTIONARY
  5
15CE2
330
15CE1
100
AcDbDictionary
280
     1
281
     1
  3
ACAD_XREC_ROUNDTRIP
360
22493
  3
BUMPTILE
360
15CE4
  3
DIFFUSETILE
360
15CE3
  3
FBXASSET
360
174F2
  3
OPACITYTILE
360
15CE7
  3
REFLECTIONTILE
360
15CE6
  3
REFRACTIONTILE
360
15CE8
  3
SPECULARTILE
360
15CE5
  0
DICTIONARY
  5
2251B
330
1C749
100
AcDbDictionary
280
     1
281
     1
  3
ACAD_XREC_ROUNDTRIP
360
2251C
  0
DICTIONARY
  5
22516
330
174C6
100
AcDbDictionary
280
     1
281
     1
  3
ACAD_XREC_ROUNDTRIP
360
22517
  0
DICTIONARY
  5
15F23
330
15CFC
100
AcDbDictionary
280
     1
281
     1
  3
ACAD_ROUNDTRIP_2008_TABLESTYLE_CELLSTYLEMAP
360
224D7
  3
ACAD_XREC_ROUNDTRIP
360
22501
  0
DICTIONARY
  5
1AB7B
330
17532
100
AcDbDictionary
280
     1
281
     1
  3
ACAD_ROUNDTRIP_2008_TABLESTYLE_CELLSTYLEMAP
360
224D8
  3
ACAD_XREC_ROUNDTRIP
360
2251A
  0
DICTIONARY
  5
224EB
330
15CEF
100
AcDbDictionary
280
     1
281
     1
  3
ACAD_XREC_ROUNDTRIP
360
224EC
  0
DICTIONARY
  5
224EF
330
15CF1
100
AcDbDictionary
280
     1
281
     1
  3
ACAD_XREC_ROUNDTRIP
360
224F0
  0
DICTIONARY
  5
224ED
330
15CF0
100
AcDbDictionary
280
     1
281
     1
  3
ACAD_XREC_ROUNDTRIP
360
224EE
  0
DICTIONARY
  5
224E9
330
15CEE
100
AcDbDictionary
280
     1
281
     1
  3
ACAD_XREC_ROUNDTRIP
360
224EA
  0
DICTIONARY
  5
224F7
330
15CF5
100
AcDbDictionary
280
     1
281
     1
  3
ACAD_XREC_ROUNDTRIP
360
224F8
  0
DICTIONARY
  5
224FF
330
15CF9
100
AcDbDictionary
280
     1
281
     1
  3
ACAD_XREC_ROUNDTRIP
360
22500
  0
DICTIONARY
  5
224F1
330
15CF2
100
AcDbDictionary
280
     1
281
     1
  3
ACAD_XREC_ROUNDTRIP
360
224F2
  0
DICTIONARY
  5
224F5
330
15CF4
100
AcDbDictionary
280
     1
281
     1
  3
ACAD_XREC_ROUNDTRIP
360
224F6
  0
DICTIONARY
  5
22506
330
15F8D
100
AcDbDictionary
280
     1
281
     1
  3
ACAD_XREC_ROUNDTRIP
360
22507
  0
DICTIONARY
  5
224FD
330
15CF8
100
AcDbDictionary
280
     1
281
     1
  3
ACAD_XREC_ROUNDTRIP
360
224FE
  0
DICTIONARY
  5
224E1
330
15CEA
100
AcDbDictionary
280
     1
281
     1
  3
ACAD_XREC_ROUNDTRIP
360
224E2
  0
DICTIONARY
  5
224E3
330
15CEB
100
AcDbDictionary
280
     1
281
     1
  3
ACAD_XREC_ROUNDTRIP
360
224E4
  0
DICTIONARY
  5
224E5
330
15CEC
100
AcDbDictionary
280
     1
281
     1
  3
ACAD_XREC_ROUNDTRIP
360
224E6
  0
DICTIONARY
  5
224E7
330
15CED
100
AcDbDictionary
280
     1
281
     1
  3
ACAD_XREC_ROUNDTRIP
360
224E8
  0
DICTIONARY
  5
2250A
330
16DEA
100
AcDbDictionary
280
     1
281
     1
  3
ACAD_XREC_ROUNDTRIP
360
2250B
  0
DICTIONARY
  5
22502
330
15F8B
100
AcDbDictionary
280
     1
281
     1
  3
ACAD_XREC_ROUNDTRIP
360
22503
  0
DICTIONARY
  5
224FB
330
15CF7
100
AcDbDictionary
280
     1
281
     1
  3
ACAD_XREC_ROUNDTRIP
360
224FC
  0
DICTIONARY
  5
22504
330
15F8C
100
AcDbDictionary
280
     1
281
     1
  3
ACAD_XREC_ROUNDTRIP
360
22505
  0
DICTIONARY
  5
224F3
330
15CF3
100
AcDbDictionary
280
     1
281
     1
  3
ACAD_XREC_ROUNDTRIP
360
224F4
  0
DICTIONARY
  5
22514
330
16DEF
100
AcDbDictionary
280
     1
281
     1
  3
ACAD_XREC_ROUNDTRIP
360
22515
  0
DICTIONARY
  5
22512
330
16DEE
100
AcDbDictionary
280
     1
281
     1
  3
ACAD_XREC_ROUNDTRIP
360
22513
  0
DICTIONARY
  5
2250C
330
16DEB
100
AcDbDictionary
280
     1
281
     1
  3
ACAD_XREC_ROUNDTRIP
360
2250D
  0
DICTIONARY
  5
2250E
330
16DEC
100
AcDbDictionary
280
     1
281
     1
  3
ACAD_XREC_ROUNDTRIP
360
2250F
  0
DICTIONARY
  5
224F9
330
15CF6
100
AcDbDictionary
280
     1
281
     1
  3
ACAD_XREC_ROUNDTRIP
360
224FA
  0
DICTIONARY
  5
22508
330
16DE9
100
AcDbDictionary
280
     1
281
     1
  3
ACAD_XREC_ROUNDTRIP
360
22509
  0
DICTIONARY
  5
22510
330
16DED
100
AcDbDictionary
280
     1
281
     1
  3
ACAD_XREC_ROUNDTRIP
360
22511
  0
XRECORD
  5
22519
102
{ACAD_REACTORS
330
22518
102
}
330
22518
100
AcDbXrecord
280
     1
102
DISPLAYNAME
  1
Imperial24
102
FLAGS
 90
        0
  0
XRECORD
  5
224DE
102
{ACAD_REACTORS
330
224DD
102
}
330
224DD
100
AcDbXrecord
280
     1
102
SHADEPLOT
 70
     0
102
SHADEPLOTRESLEVEL
 70
     2
102
SHADEPLOTCUSTOMDPI
 70
   300
  0
XRECORD
  5
224E0
102
{ACAD_REACTORS
330
224DF
102
}
330
224DF
100
AcDbXrecord
280
     1
102
SHADEPLOT
 70
     1
102
SHADEPLOTRESLEVEL
 70
     2
102
SHADEPLOTCUSTOMDPI
 70
   300
  0
XRECORD
  5
22492
102
{ACAD_REACTORS
330
15CDA
102
}
330
15CDA
100
AcDbXrecord
280
     1
102
MATERIAL
148
0.0
149
0.0
149
0.0
 93
        0
 94
      127
282
     0
 72
     0
 77
     0
171
     0
175
     0
179
     0
273
     0
  0
XRECORD
  5
15CDC
102
{ACAD_REACTORS
330
15CDA
102
}
330
15CDA
100
AcDbXrecord
280
     1
270
     1
271
     1
  0
XRECORD
  5
15CDB
102
{ACAD_REACTORS
330
15CDA
102
}
330
15CDA
100
AcDbXrecord
280
     1
270
     1
271
     1
  0
XRECORD
  5
15CDF
102
{ACAD_REACTORS
330
15CDA
102
}
330
15CDA
100
AcDbXrecord
280
     1
270
     1
271
     1
  0
XRECORD
  5
15CDE
102
{ACAD_REACTORS
330
15CDA
102
}
330
15CDA
100
AcDbXrecord
280
     1
270
     1
271
     1
  0
XRECORD
  5
15CE0
102
{ACAD_REACTORS
330
15CDA
102
}
330
15CDA
100
AcDbXrecord
280
     1
270
     1
271
     1
  0
XRECORD
  5
15CDD
102
{ACAD_REACTORS
330
15CDA
102
}
330
15CDA
100
AcDbXrecord
280
     1
270
     1
271
     1
  0
XRECORD
  5
22491
102
{ACAD_REACTORS
330
15CD2
102
}
330
15CD2
100
AcDbXrecord
280
     1
102
MATERIAL
148
0.0
149
0.0
149
0.0
 93
        0
 94
      127
282
     0
 72
     0
 77
     0
171
     0
175
     0
179
     0
273
     0
  0
XRECORD
  5
15CD4
102
{ACAD_REACTORS
330
15CD2
102
}
330
15CD2
100
AcDbXrecord
280
     1
270
     1
271
     1
  0
XRECORD
  5
15CD3
102
{ACAD_REACTORS
330
15CD2
102
}
330
15CD2
100
AcDbXrecord
280
     1
270
     1
271
     1
  0
XRECORD
  5
15CD7
102
{ACAD_REACTORS
330
15CD2
102
}
330
15CD2
100
AcDbXrecord
280
     1
270
     1
271
     1
  0
XRECORD
  5
15CD6
102
{ACAD_REACTORS
330
15CD2
102
}
330
15CD2
100
AcDbXrecord
280
     1
270
     1
271
     1
  0
XRECORD
  5
15CD8
102
{ACAD_REACTORS
330
15CD2
102
}
330
15CD2
100
AcDbXrecord
280
     1
270
     1
271
     1
  0
XRECORD
  5
15CD5
102
{ACAD_REACTORS
330
15CD2
102
}
330
15CD2
100
AcDbXrecord
280
     1
270
     1
271
     1
  0
XRECORD
  5
22493
102
{ACAD_REACTORS
330
15CE2
102
}
330
15CE2
100
AcDbXrecord
280
     1
102
MATERIAL
148
0.0
149
0.0
149
0.0
 93
        0
 94
      127
282
     0
 72
     0
 77
     0
171
     0
175
     0
179
     0
273
     0
  0
XRECORD
  5
15CE4
102
{ACAD_REACTORS
330
15CE2
102
}
330
15CE2
100
AcDbXrecord
280
     1
270
     1
271
     1
  0
XRECORD
  5
15CE3
102
{ACAD_REACTORS
330
15CE2
102
}
330
15CE2
100
AcDbXrecord
280
     1
270
     1
271
     1
  0
XRECORD
  5
174F2
102
{ACAD_REACTORS
330
15CE2
102
}
330
15CE2
100
AcDbXrecord
280
     1
 70
     1
 90
1959938040
 71
     1
  1
E796C4E7-4D98-4856-9C8E-EBAD8519823D
311
504B0304140006080800A25E7F4843791792DA000000200100004F00000043394133423438302D453633392D343935452D423031342D3937314144463733393646422F4173736574446174612F446566696E6974696F6E4974657261746F7250726F706572746965732E62696E454E3D4FC3400C3D188A1818FA0FAAEEC7DD
311
252924515B1448D3091698BA54EEC52D912E49954B244646FE35B545512D3D3F7F3EFB4708F17B360AC515E19BFC1DF11A1BEC2AFB6E3FB10631E28A6B77E06E2EBD6B0A39CD710F83EB79EBB5F2169D8306DBC18F2FA3931A7A920377CF4BB784FF826785C3DF31BEFF46E09798A13CA64FE03DF60BB5DF7DA9420759A8F3
311
4066D16326A32229641CBDE472A57393C4C9EA394E22D5A16F87CEA25781D2DBB3F2F6D81CAA7239EFAB1A270DD4B898DA0EE9A772BA0CB479903A94A1F930269D85A99E6DE68A274F504B0304140006080800A25E7F48DE8B39A510010000300200004500000043394133423438302D453633392D343935452D423031342D
311
3937314144463733393646422F4173736574446174612F496E7374616E636550726F706572746965732E62696EEB606060F80F0540260323103700495E20ED9E9A975A94991C9C9C919A9BA802147035B73473367135D73571B1B4D035B13035D3B574B670D575757274B13035B4B4303276614768046931363471713532B5
311
D435353131D635313332D475727372D13534373670367376B67474B5042A03DBCBA019D37FE8ABC6157B20CD04146B0062181F4C03F940F0C11EA29A8141C08141002C0426541C106CAC2CA046088033B02A030AC2157C6006F21A8018AAF50194E6010A610250382264E08660284CD9E98021862280A91564B406929A0FF6
311
2C401E28B6F88038B83CB1243943D7A928312F253505245331E524B272A0087E106D7DCA7887D4696DA18C58BF7CF7383790C92000320B042258B76A816800504B0304140006080800A25E7F4828BB58AF800100009E0500003D00000043394133423438302D453633392D343935452D423031342D39373141444637333936
311
46422F536368656D61732F436F6D6D6F6E536368656D612E786D6CBD544D4FC23018BEFB2B96DE15493C78601010A34B880709DEDFB52FD0D8B54BD70DF6EFED3AC0B12E6442E2716BFB3CEFF3D18E26FB440405EA8C2B1992E1C323095052C5B8DC842437EBFB673219DF8DA659866649B798C078B48AE6410122242F2A49
311
94AC7F93815DF85C049C8564CA0A901499DD886B2EB9B1E02448F358701A9235880C49A0119892A20C89D1B9FD768815CAD268CB5E0355B40B1E47F3E37A2020464BED06AA57CE8FCC20C3C3446D46761A2632A8C1283D07031EFF2AE7CCB1BFEEE916E406DFAC8E36FFD99A9D60A6944090EEDC3B670C7DC13DE86B6B2C5C
311
240D6E503BB85ACD579D513F1B9F9A69DC9CC22AFA80C426D40AF0B21EA168559156B6276F0F726A6BFF04DCD513A87A62CAD41FB24FCB2858B3952E3D852084DA25B9303C15687973CC8E8AAE11DF2836C38C6A9E765E8C1BA1BFB1DC29CDFE518C8B5A7655A4ED7E77291ABEB80DBD82EC866ADE1B8D05AF9E35CF09D7A0
311
61F38A986D9EC412B8F0F65E5D81534D9B231D1E5A8FE577A241F3A5FD01504B0304140006080800A25E7F482CCEBD668A040000E01200003E00000043394133423438302D453633392D343935452D423031342D3937314144463733393646422F536368656D61732F47656E65726963536368656D612E786D6CD5586D6FDB
311
380CFE7EBF42F0F7A649B70E1B90744856B4970F450FCD7A5F05459613EDE4174872DADCAF3F522F8ED3B88D2F1D06AC4050DBA2493EE4438AF2F8EB73AEC8466823CB62928C06C384888297A92C5693A4B6D9D9E7E4EBD51FE3A931C22EF85AE4EC6AFC38BF261BA626C9AD288496DC3F4FCEAFC63366845F7A10452AF41D
311
B320C0D44EC26EAB20918735565582695670811A6A49643A49A6E9069FA4604A64B29016DC4B48552F95E4932463CA888468C1D2B250DB4962750DF7CE273069CE8363F1FF4EDB00E0A21999574AE4A2B00C353B93F3BD4777B8A61ED8F604ABFEDD79CE56A2B7BDFBDBC50996E0ADDE16FED26223C5D30956C29BDF4A55EA
311
686E5E58B112DA45CE67F76F4FA27EFA3FB672FD7372FC388FAECDCA5209E693CAD167BADCD272F943701B3812F8A3D852008B1D2E32DB927B2F833C6EA95879925356D254582695095A3CE982924720BE5774A3CB9CDCDB350427D2DF20DA1B5532EBE2D5D6288D75D4F7E4FD9890A0EF8E3D93EBB8F8BA4758158EF6FB90
311
A6F9520281C93DE7AAC6D24607DA296BB96018123F821A7D6A5C5884050C475DA4865442732C8B95684A50165CBB3A32F25F783A4A480ED59AD7F924B968AEA50131F46303223E6A397B0E52976030DC1DCA81D7E7C1EDEEA42C19FF27635C505E2BD5198A599020DF50A2330FCB3AAF28CB0124108429553EF1B228802E22
311
65D8F7CC2401042B155BCC7070F1E5C55F13B4A9577362CCCE46C32174E010C3C378C44841A4BDA00FE3A12006CE11EE6AEC59894D3526DDE1CD59D503ECC324017F8061B7F162162FA62EDD81AE3308617770796DCBDAD2B2625C5AE8A63DE20B2C8AA5E95E76E5730823955956E33E705425A2187C185D36489A1B44D3DC
311
EC2172F6BA2105C3546287A7194B2331768EBBE64F6E70A9930ABE0ADEA89E9E2C38523B810287AD67A54A039C1606EAFE68F8304610BB9093DBDDABC0B2AE4E290DCDA15376D7E39F72B556F0B32EAB5D3D498B4C41ABADEC3A1434C422D87E8025A84BDCB2B1417ED750FAE4DA8976863974C577C7F902D3F156AD354DEA
311
3540DE6BEAE2BEA52F7A2EB4CA43802ECE5BF2CE2EDC9347179FFB023CE412E60BE16DA0BE29B374988A553F561DC04615DD35F7D2C8979F60E5955CE93DF29DED8AFA1EE6642D53418086C03C47C377910F75F7E8F5EF665F70B60FFB22AEDF897D119E8423C773E819A3C1E55E550599EE6EDCA34D0C86FD72057DF2CD46
311
F16A470682471C164E4346D5306BF12D7D12D82CFF673D41636C347443FEB51B50D72EA171A8E4A58623A4A16E0FA2B8B10A0D23268D87C33896EE8FB73305A74BF224EDBADFA0BD674AB354D63DB7BD5D83426761C077DE767728235446A552754EB93B755891C3C4CC6CADE37CF0E912A7BB38DBA010F9DE1282EDF470CA
311
69A9CDA482E334C4A6EA4107987980B17E72F31730EBF88BBD39E7C629F56797A3C0009C2C5AE7951D9A05A02773440F02EEB4DE396A3B6A570C72CCFBCD823B0B8ED3F1D5CEDDFED772FA70236C83FB7D86C385D570B87107535572A60A96035F8F7C6A7192F13007246BBE0521855E6AC46F3E27689CEE7D186A6FD679D9
311
8CDCAD13333E04EBE7ED6F55FF01504B0304140006080800A25E7F486180134D5F0100006B0300004500000043394133423438302D453633392D343935452D423031342D3937314144463733393646422F536368656D61732F52656E6465724D6174657269616C536368656D612E786D6CA5934D6FC2300C86EFFB1551EEE3
311
43DBA41D1A103009551ADAD40EAE28A4A68D9426284961FCFBE5A340113B2071746D3F765EBF4DC6BFB5407BD0862B49F0B037C0082453059725C18DDD3EBFE3F1E829991803366715D474942CD30FB4A782E00C64017A412D684E454CE3FE28995203B162A6EA5AC94B66997D225E109CD63B0135484BAD1B3C07E9080CA3
311
5DB3119C11BCA5C200461A68A1A438126C75E3E230D40FF81FB3F03C91D1E3A3A0AF79FE28E25BC39EC3E17E4C2A2D94A0833A51AF55BCCA7D88572FCBAC529C4140B020FC3AAFA886621DCED7EAD7664CC86024E806DC297DA1BB393E4156543457A4537DB8817349A70F8ACBF09B3EEE2CB2F33E91B65D60786E4E3B39B7
311
7E3FEEEF5650424525DA657FB8B46BE6BF064646F0A0F7327C0BC1BC1B4CBBC1C419FA3CCB23500007872A2580CAAE5461865565294E4EDB4617B62FF579DF9A5B2F54E834076A597573A020912FED777F9B3F504B0304140006080800A25E7F48F84FE3BF51000000570000004700000043394133423438302D453633392D
311
343935452D423031342D3937314144463733393646422F4173736574446174612F41737365745461626C654F66436F6E74656E74732E62696E536160607035B73473367135D73571B1B4D035B13035D3B574B670D575757274B13035B4B43032761102AACB4D2C492DCA4CCC492C28484D2C4ACC4B4E050A82012F90744FCD
311
03CA26072767A4E6260200504B0304140006080800A25E7F48F865834058000000680000004500000043394133423438302D453633392D343935452D423031342D3937314144463733393646422F4173736574446174612F53747265616D56657273696F6E5461626C652E696E66558CBD0A80300C06F73E4B117FB66E4517
311
41D041DC5BF98480A492E4FDD18EAEC7DD4555D89EF28DF51A0B1BD8340C4DE7DD848B988C0ACF0649566493F2408C508DDEBB99D5129FF8F1AF8CF5B9503E20FAE5A16B5AF702504B0304140006080800A25E7F48D4ACE505340100009A0400003600000043394133423438302D453633392D343935452D423031342D3937
311
314144463733393646422F4173736574446174612F636E782E786D6CCD94314FC3301085FF4AE43D764255842AC71582A51348540C6C57E752AC3A76645F10FC7BEC3603A8882943D6F3BBF3F327BF93DBCFDE161F18A2F1AE6135AF58814EFBD6B863C346EACA3B566C950CDED30F192B1CF4D8B05C664A1E831F87A9D462
311
07A3CD556BDC692ADEC788B48783C5A7EEC13B42479115DA428C0D8BFA1D7BE030926F319E780B04BCE601A31F83C634894C8FD3241D10085BA66EAAFAB6AC56E5AADED7F566BDDA54EB3729B252C983F776D29B7459F043A12FB7325549918F951C839934F92D4CFDE5911F8C932229958C141293A983BE86D401C3608D06
311
4AE884D784542611422FC545ACA4C80C7E9178C4CE38935B76C918900FCFC91E0632B83822FF799D9FCCCE4502A771B93CAE1DCE4FE1E5FC835E2F813C27666939B976C88DEB66488938AF91149ABC55D437504B0304140006080800A25E7F48C18B46FB080100004F0300003400000043394133423438302D453633392D34
311
3935452D423031342D3937314144463733393646422F536368656D61732F636E782E786D6CCD93BD4E042114855F6542BF30385963360C5B5858D9A8951DC2DD952C7027FC187D7B61A4D84DECB4D80E0E5FC839878BD87F7A377C404C16C34C381DC90041A3B1E13893920F9B3B32ECA58888F90C2343501E66D26422C531
311
6259BA64E0A08A6BAAB3E1D4C57BF41EC3B37E07AFC8A09D4A692669DD5255321A48276A545694D308094BD4506FC8D643BF414750190C913723BFDD8CD366E22F9CEFB6D36EDCBE0AD64829DE105DE76DC810711934D645A87646C1DAB11425DACEB40C449E7BA3B50DC12A2145CAB176D0C9FCB554522D8BB35AE55A155B
311
C11F460AD6A25E047E8000D1EAEB4C7C61EEDF223F4130101FEB2B45ABDC7526FFCDE3DF0A60EBECD711685F417E03504B0304140006080800A25E7F48410A3D5871000000A40000002C00000043394133423438302D453633392D343935452D423031342D3937314144463733393646422F636E782E786D6C55CC4D0E8230
311
1086E1AB34B31774E7A22D31F1069E60020334B633A63FC6E34B0909B07DDE2F9FEE7EC1AB2FC5E4840DDC9A2B28E25E06C7938192C7CB1D54677514C9871928C640062A83D55394F2D968A0118BAFEA1DBF377CA444F98919176EAB9FEAAB9F2960DA5BBB1E2ED3FA6FFF504B0304140006080800A25E7F4825F86B487F00
311
0000A300000007000000636E782E786D6C4D8CD10E822018465F85FDF7140C52D91027A5EFE1121D0BA191B41E3F685E74F56D67DF39B2FB6C0EBD4D7CD9E05BA02702C8F87B98AD5F5B48FB821B409D923184FDEF06C84F9B69A16050728D213D0F349B654AAE5067FDE38057D133CD1B82878A09CCC565C09A508E454DFB
311
DB5833518D3A1BE7A2E4F9F5F296BCFA02504B0304140006080800A25E7F4816E99B5DA600000035010000130000005B436F6E74656E745F54797065735D2E786D6C9590410E82301045AFD2740F4517C6180A0BF5065E60AC53688469D30E066F6F91AD9AB89CF9FFFD3F99BA9DC7413C3026E749CB4D59498164FCCD51A7
311
E5C4B6D84BD136F5E5193089ECA5A465CF1C0E4A25D3E308A9F401292BD6C711388FB15301CC1D3A54DBAADA29E38991B8E0254336F5092D4C038BF39CD76B6FC6A538AEBEA54A4B08617006389FA516557DE4AE8E7E70DE30729138228C5F021CD93F02D4FB0DCD0B504B0304140006080800A25E7F483DEE336E64000000
311
790000001B0000006175746F6465736B2D64657369676E2D7061636B6167652E786D6C35CBC10E83200C00D05F21DCA56CA76D41FC96062B120735B69A7DBE268BB7777961F8D5AF396893C2ADB70FE7ADA196782C2DF776D7A97B5933C430F15651E5469C55D70F80A4992A3ADC954792C525AE70A1E4D6AD9816CC044FEF
311
DF01FE3FDE907802504B0304140006080800A25E7F486D1B7261F9000000960100003700000043394133423438302D453633392D343935452D423031342D3937314144463733393646422F4173736574446174612F636F72652E786D6C8550CB6E833010FC15B47703C61048641C1152BEA0A7DE2C70889560233FAA7E7EED
311
40A5F6D4D3AE66676677879EBF9667F2298C955AB580D31C12A1463D4935B7E0DD0D35909C19355ABB5F3448145F440B11064667A3FDBA43A3564EA8882A3D891DE4D60A07C9F80C4D0B76BC8B85A7DCBBC0B08F74E5E383CF22C5E9C663D47B39ED523905377993C200AB2E435FD70341435F0CA8245D83BAEB11A3637F79
311
2BFBA63C105CD32C8A197572F9D93E1AC19D988015393EA09C2082DF313E55E494571F348B4C46AD33E1E77D69FC0E5817AFBE72C769B64DFFB8FA75FADFD54BE548B1BB6E0A0B0C87235F0346B3985228AF08438D89B26F504B0304140006080800A25E7F483F1E2424F8000000940100003500000043394133423438302D
311
453633392D343935452D423031342D3937314144463733393646422F536368656D61732F636F72652E786D6C8550416E833010FC0ADABB01630824328E125A3ED09E7AB3B043AC041B61BBEAF36B0395DA534FBB9A9D99DD1D7AFE9A9EC9A75CAC32BA059CE690483D18A1F4D8827737D44072667431C6FDA241A2F9245B88
311
30303A2EC6CF3B3418EDA48EA83642EE20B7563A488667685AB0C35D4E3CE5DE05867DA4331F1E7C94294E371EA3DE2BB14B95086EEAA6E402ACBAF65D5DF704F55DD1A3925C1A7479396274ECAEAF65D79407826B9A4531A34E4D3FDB8745722705B022C707941344F03BC6A78A9CF2EA836691C9A8754BF8795F1ABF03F6
311
B6DE6969B6CDFE78FA59FCEFE99576A4D83D37850586C389EB80D12C6614CA1A60A8314FF60D504B0304140006080800A25E7F4873D7085802010000D70100002D00000043394133423438302D453633392D343935452D423031342D3937314144463733393646422F636F72652E786D6C9591C152C32010865F25B3771228
311
49DB74089D46DB27F0E40DC336326D2013C0F1F125268E7AD313CCCFF7EFF2EF8AE3FB70CFDE70F2C6D906584E2143DB396D6CDF400C57B287EC28C5E45CF8814166D5800DCC3248D14F2E8EABD4391BD0CEAA751A5751798F01B2EE9E2E0DF8EE150795AB1812E16FF9A8BA9BEA3167F9C24911CCF065ED26540135C80D65
311
5B4239E1EC89B143C50FB47A16C54C4A118D0D7CB336C3E10575E6C6902281AC44B1BC262A1ABD3246A73F9AABC109E4437DE26DB9A7E4BCE53529EBEA4C5ACA4A52EFD8E9F1B2E3F5F6D2A622C92C850F539ACC5A649EC15FED8BF157B238EA7F265B1C1E24FB0E55CC6396A2F8DC413AE795C80F504B0304140006080800
311
A25E7F480BF0428F08010000B201000008000000636F72652E786D6C8D50C172832014FC15E6DD51118D4906C924B67E414FBD5121868982239869FFBE10ED4C7BEBE931BBFBDE2ECB4E9FE3801E6A76DA9A1A48920152A6B3529BBE86C55FF11ED089B3D95AFF4B06C88851D51061E0AC9FED326D50678D5726A2C64AB581
311
C239E501754378D4E0BA9B1A4522161F14EE9E4CA2BB8B5E252459759C793DFEAC76B3125E49E079467638A3989237428E253D66E53B4BA392B365D172B3D232B8EBAB5633F0F2D23655D552DC36798B0B7ADEE3F3CB81E04373792D9A7DB1A3A462695CE6CCF939FC793B12727AE4C423FAB274A538FBB076D804219444D6
311
0C5FC0339646E24FE86592FF08AD8DA7F97670DD70C04908F42482716C308C67BD61C6B6F937504B01021400140006080800A25E7F4843791792DA000000200100004F000000000000000000000000000000000043394133423438302D453633392D343935452D423031342D3937314144463733393646422F417373657444
311
6174612F446566696E6974696F6E4974657261746F7250726F706572746965732E62696E504B01021400140006080800A25E7F48DE8B39A5100100003002000045000000000000000000000000004701000043394133423438302D453633392D343935452D423031342D3937314144463733393646422F4173736574446174
311
612F496E7374616E636550726F706572746965732E62696E504B01021400140006080800A25E7F4828BB58AF800100009E0500003D00000000000000000000000000BA02000043394133423438302D453633392D343935452D423031342D3937314144463733393646422F536368656D61732F436F6D6D6F6E536368656D61
311
2E786D6C504B01021400140006080800A25E7F482CCEBD668A040000E01200003E000000000000000000000000009504000043394133423438302D453633392D343935452D423031342D3937314144463733393646422F536368656D61732F47656E65726963536368656D612E786D6C504B01021400140006080800A25E7F
311
486180134D5F0100006B03000045000000000000000000000000007B09000043394133423438302D453633392D343935452D423031342D3937314144463733393646422F536368656D61732F52656E6465724D6174657269616C536368656D612E786D6C504B01021400140006080800A25E7F48F84FE3BF51000000570000
311
0047000000000000000000000000003D0B000043394133423438302D453633392D343935452D423031342D3937314144463733393646422F4173736574446174612F41737365745461626C654F66436F6E74656E74732E62696E504B01021400140006080800A25E7F48F86583405800000068000000450000000000000000
311
0000000000F30B000043394133423438302D453633392D343935452D423031342D3937314144463733393646422F4173736574446174612F53747265616D56657273696F6E5461626C652E696E66504B01021400140006080800A25E7F48D4ACE505340100009A0400003600000000000000000000000000AE0C0000433941
311
33423438302D453633392D343935452D423031342D3937314144463733393646422F4173736574446174612F636E782E786D6C504B01021400140006080800A25E7F48C18B46FB080100004F0300003400000000000000000000000000360E000043394133423438302D453633392D343935452D423031342D393731414446
311
3733393646422F536368656D61732F636E782E786D6C504B01021400140006080800A25E7F48410A3D5871000000A40000002C00000000000000000000000000900F000043394133423438302D453633392D343935452D423031342D3937314144463733393646422F636E782E786D6C504B01021400140006080800A25E7F
311
4825F86B487F000000A300000007000000000000000000000000004B100000636E782E786D6C504B01021400140006080800A25E7F4816E99B5DA6000000350100001300000000000000000000000000EF1000005B436F6E74656E745F54797065735D2E786D6C504B01021400140006080800A25E7F483DEE336E64000000
311
790000001B00000000000000000000000000C61100006175746F6465736B2D64657369676E2D7061636B6167652E786D6C504B01021400140006080800A25E7F486D1B7261F90000009601000037000000000000000000000000006312000043394133423438302D453633392D343935452D423031342D3937314144463733
311
393646422F4173736574446174612F636F72652E786D6C504B01021400140006080800A25E7F483F1E2424F8000000940100003500000000000000000000000000B113000043394133423438302D453633392D343935452D423031342D3937314144463733393646422F536368656D61732F636F72652E786D6C504B010214
311
00140006080800A25E7F4873D7085802010000D70100002D00000000000000000000000000FC14000043394133423438302D453633392D343935452D423031342D3937314144463733393646422F636F72652E786D6C504B01021400140006080800A25E7F480BF0428F08010000B201000008000000000000000000000000
311
0049160000636F72652E786D6C504B050600000000110011005A060000771700000000
310
504B0304140006080800A25E7F48000000000000000000000000370000006662782F33363536414133302D393131412D343331412D424330352D4134353942344632373638342F617474726962757465732E62696E504B0304140006080800A25E7F48000000000000000000000000350000006662782F3336353641413330
310
2D393131412D343331412D424330352D4134353942344632373638342F76657274696365732E62696E504B0304140006080800A25E7F48F270F1330600000004000000360000006662782F33363536414133302D393131412D343331412D424330352D4134353942344632373638342F747269616E676C65732E62696E6366
310
60600000504B0304140006080800A25E7F4851464CB48900000043010000360000006662782F33363536414133302D393131412D343331412D424330352D4134353942344632373638342F6469726563746F72792E786D6C9D8F310EC2300C45AF127987122606C71DD918B841D4B851A43646695A717C52A85029031293A5
310
A76FBF6FACEF7DA7264E43906840EF0FA03836E242F406C6DCEE4EA06AC22492573150D1F66C60C640E8938CB705396EEDD86DE9B5042FE27813D640EA63BB001C722AF6E55CB61E4863F58284D5D3F53DD715CE1C3985E63FD7F1B7EBDD617E9F1E504B0304140006080800A25E7F484D38E55A39070000201C0000340000
310
006662782F33363536414133302D393131412D343331412D424330352D4134353942344632373638342F6F626A656374732E786D6CDD59DB6EDB3810FD1542FBB2FBA09B6FB10AC785633B8551A42D6A74B16F022DD30E37BA81941267BF7E8714294BB26C2BDD162836011287A186336766CE0C4793F7872844CF84719AC4
310
B7866B39062271906C69BCBF35F26C678E0DF47E8A262C49B2CA3E03C53822B7865836A6933D4BF2542D6DC90EE76173F5FEEE2FC4031213030521E6FCD6E0C12389B085F32CD912FE646D7186ADFDEE60B956B1B12E76CF70FAD8382AC58CC419A80AEB3148511AB8F53FC1247B3AB1C586DAB65EB76DFD0BDB6C69785D51
310
1AF30CC7C189560D39BD6E5AF5DDC162D91B7AE67030E89B8351CF35EFEEEF16A67BD377E6A3F9DC9B2D3D034D279B24094B07A424DE82175F8DA93BB1C57F4AF3150A6D7A07491C9340A1D9B6614B945C4A7813931AB0AE34ADE290C2D6CA42BFA3F167B67502A5A6520D6D6D9CFE5D8DDE64F33780C0BB4429E3444439CF
310
18F85A615FE48333B18BD59A5F284711CE08A3384421DD30CCC041B0B570504D8CC816210A09CCA417B5BCAAAE10D8D773A94DCB5D1E86227F8DA9CC341FF291645C6A46FF21ECA87DF534D009ACCD699C8D95B1D96B0A22BC892D178BFFF57BEA9F05906817E23D440B982936F57B0DBCE6820B560B63FAF17E73580B7E68
310
3F3C65494A5826224F26B3CA3BEDC14A6841F07500A5C0B5EEBB232A5F01FA4F807CA90B9A80E7183D0C0E036D3BC331DF252C02EF2007990EFC7090F878F26962970F4F11AA71E5394C216D7F10A635336A6757209D4E9E21E813D657C6AD031C424C3FD058E439040A0A135802BEDF6D0EC67405640A8BF0140EC17AF89E
310
D8E223825F851CE09B8687DAE8B783A374C234F3ECE8AB0F10338C06A5AB6A369EC377F843F09D2DD61FD739DBE1803CA8C45E901D8D6906C5B45DA11AE8B594FFB6FA2433F2C49EDAAE00CED92782385AFCB2567E41D231A08AA8C3856BE4CA0385740F431C9324E76ABD8DA882244C98BF79F58B1C6E3DEB4F1D04C56190
310
DF22025AC90CAA7BC0682A4031A6CABC9209AD234E82075500EE0BA7FA1B1C3C0978FD0018EB7BF480A8C5AC29348F521F47491E0BFA3E0DEFA66956DF915FAEEBF51CAF37F646DA582EC5EBECD1D4502A2FCE89707AE69079CD5B8A35B4E4228F06C0966D1604D033E5999FA438A0597B2C348C50190A605F54794B77BB9C
310
03A9B7C2D2D0D8EABB43E4547E96875CD65E1DE2D308EF89BFC3A2C2B59E5703A814AE2D6845661F269CD39870D9A19C30570315C7022228E2564B6D0942CAFD8864F87BE24F96BC46F831B20B7DE8A532D1CD5E8F3EADA0AA9EE7248ACE2D897D69FFABCF7194864597760D03B7D738A11557A1B438E219E2CDC799EF6C89
310
6CBAAF492F7941E3DB49BAF7DDE2CFC0C3F04F87471F41A1F5861A79DDB3AE35743DF1350652190DDDFE8D76C435ACF45199E841C21CBAA6E0D57F2174FFD88DD03A9DC349B8F36918E6915FD4838C44D082E12C679DF27534744E9CAF78A19110959376348406B93369CADE43771F60956C3ECE9166E518308AC67047EB64
310
C88915AD212C7D21EFA3E2DA75DDFB6F97FA9FF9B27A4F7922AF2F09DBB66A5A6F237407A61B064197AAC2957124254F27D5E48BE4C5E53A0E032D44F15B714B5011C2C83315830979036ABD3FF0179C0540A46BF9DBBC838CD892EDB1A7A88953630E630A876A69BA4FADDE7480EC44F9A8355E2B41A8114C1BB0E0D907F1
310
21FC8AC1D5D0F9715B753576B1BE1285CD82C1CA518F0BB23E7F5837A4C04AE7A7BF088CC84B43825A9D8B46EE82A86FAB63BFDA90A02CFAB6BAF078F698479B185351194558E06DFAEEBDBC4BDEDA7051B0EF9DDEACEF2C7AE66C70333307F7DEBD391ECC17E6D259B8DED85BDE8DBD81CD084F7216106EF76CC7D7BD531A
310
EF756014D075B951C054E1FAD54FC773D3C1FFE31B45986CF0B958FC552F1465BB271AB2462E76BD50B412F5E66DDDBF7B42D4ED45EC4D9D73312BD0017EB96C0119E97ADFBDB5D0A27527D1AE73A522BEB1F09EBDADFCF41A5323F4D6FA50DBD146F9752E86D9534B95D2B75BC96BCB1B6F341F2C6FCCC1C21B9B83F17064
310
7AF3F1D25CDECD166368E2C6BDFEA2445CD5C2AE75E597E050AD6C658C06D3609E841486F2648BF624811B104C1D3AF02B8B0897371B68005419D76F043A3CFD5CCC5433BC09F5D3C12386C174A82A721EC050146E1DB7865A47BFC118544C22E570CA7A82C2A3A2DD4039A3B706844046A1BE581B1867C9E1A194DE185782
310
DB70BC1777A6E2A9F2EFE363021D8895A35DE59E2EB828CB6AD109C38154BE2700B6D30DC9F79BAED54138838F9B3C2B8D392E1CAD5120E81702857130F57B52F01E80782EDBE55A724F0D924E93F98B7150483533CCF672BC5EC17BB6F8628BC9F8EA334AC37C2FDC79A9DED72499A2CF08F362083581C05066A658DCC3E7
310
EFEC2F2C81574C11BAA71004E8F7C378F4873D4FA228898B257BA65E54A1F523BC76DADA7AE4078D8BE30E6DD9F7A8B13ECCAD38B1F0963FC102B89651311B2D20AE0540494F9500D01E11BE80C76AFB570BA48A40A585ADB6AE021E39D3479048E25D8E489BEA86CA00127201B42AE6B4E507BD30B1190CC1A7FF02504B03
310
04140006080800A25E7F4889358A853E01000046050000300000006662782F33363536414133302D393131412D343331412D424330352D4134353942344632373638342F636E782E786D6CCD94C14A033110865F65C97D371B4B454A36050F3E8107F196CD4ED7D86CB22413B16F6F52D3AA48C543A1BD85C93FF07F333FC3
310
D7EF93A9DEC007ED6C4758D3920AAC7283B66347226EEA3B52AD05F7CEE13719A9AC9CA023B94C041FBD8B73290DB091D1E4AAD1765B8A12D1EB3E220452292343E848502F30C946467403846D3348940D6B3C0417BD82D48F7A82D2AF3C488481889B96DDD6EDA25EB047C656CBC5AA5D3E739A9582F7CE99A2D716C1BBB9
310
522E3D6C32D3729ABF058F5E174D2620E2CB59D36BCB69FA173C24B7762C3ADCCD5937CF462B89694CD42904AC9308E4C4E9A758709A797F503FDC3F1D1C5483F6A0D0F9DD8506C04E0DE068AC4949F81FFF5EF837B6EB5F13EEA5B67D12B6D83A1BEA21AD21C5F5F7FE538AA41DCDF585FE68ECFC994FA704B5BA3EE483AF
310
3311D3FDC94B4BCF17507C00504B0304140006080800A25E7F48FB02305A7F000000A30000000B0000006662782F636E782E786D6C4D8C4D0AC3201844AF22DFDE56E34F13508329F41EA131419A68B1B1F4F8D5924537F3E03133AAFF6C2B7ABBF4F23168A02702C8857B9C7C5834E47DC62DA0DEA814E3FE570314C6CD69
310
A81A8C5A52CCCF434D6E1EF35AEDEAC3E3904C0A692D23B8A3D462CE4A0C5722B0E5A21BF8ADB9C89697C5B94E0A7E7F85F5DE7C01504B0304140006080800A25E7F48A6D797065F0000008200000007000000636E782E786D6C4DCB3B0E80201045D1AD90E9FD7516806B51190811670C8A61F982B1B0BAC9C97B72CA7B10
310
37C6D3332918DA1E04D2CAC69353902EDB8C20262D23F3F59B81A079470595414B17391D1F19B4730A5583A7ED43BBE4025D9592775E5ADFFA01504B0304140006080800A25E7F484FEB6A7CA0000000F4000000130000005B436F6E74656E745F54797065735D2E786D6C7D8F4B0EC2300C44AF1279DFA6B0400835ED02B8
310
011730C16D239A8F121795DB93D02D6269CFBC19BBED573B8B17C564BC53B0AB1B10E4B47F18372A5878A88E20FAAEBDBD032591BD2E299898C349CAA427B2986A1FC86565F0D122E7318E32A07EE24872DF3407A9BD63725C71C980AEBDD080CBCCE2BAE6F5D69B7110E7CD57AA146008B3D1C8F92C5954F993BB1BF787F3
310
9A89ABC491D09600F9FDA2FB00504B0304140006080800A25E7F483DEE336E64000000790000001B0000006175746F6465736B2D64657369676E2D7061636B6167652E786D6C35CBC10E83200C00D05F21DCA56CA76D41FC96062B120735B69A7DBE268BB7777961F8D5AF396893C2ADB70FE7ADA196782C2DF776D7A97B59
310
33C430F15651E5469C55D70F80A4992A3ADC954792C525AE70A1E4D6AD9816CC044FEFDF01FE3FDE907802504B0304140006080800A25E7F48AEF490E3F7000000960100003B0000006662782F33363536414133302D393131412D343331412D424330352D4134353942344632373638342F7265736F75726365732F636F72
310
652E786D6C8550CB6EC32010FC156BEFD8066237893051EBE60F7AEA0DE18D8B1283C5A3EAE71712576A4F3D2D9A9D9965469CBE965BF5893E186707A0750B155AED2663E70152BC903D542729BC73F1170D2AAB161CA0C020C5EC5D5A37483B1BD116D4BA0937508580112A7DCB8F0182FEC045D52AC5CC08D77A55FAAA66
310
AC69FDE04991929936A999B29BB918F420E94BCF5EF9F940CEBC1DC9AEA38C3CEF9E4692D19E75FB8E1D462E9A2296229AE5E7BAF6A8224E20594B7BD272C2E91BA5C78E1FDBEE5D34852945883E67DE8E9674203D0697BCC6209AC7F68F6B5AA7FF5D93B191B3CDF5A1083947FEE47D2145535ACAE35E619EA551F90D504B
310
0304140006080800A25E7F48CF220C7AF1000000B1010000310000006662782F33363536414133302D393131412D343331412D424330352D4134353942344632373638342F636F72652E786D6C8D504B6EC32014BC8AF5F6D8606C3789309153A927E8AA3B04C44589C1E253F5F885D895DA5D363C34CC30F3869DBF977BF5
310
A57D30CE8E406A0C95B6D22963E71152BCA2035467CEBC73F10F0D2A2B163D428181B3D9BBB4EE9074366A5B50EB94DE4111828E50C97BBE8C10E4A75E442D52CC8C70AB57216F62D635A9371E67D12CBF52E9B5885A016F311910A6889277424E3D3DE1FE833585C9594A46ED564665777335DA03A7433F4C13C5E848C884
310
3A9A8FCB2BEED1D4F5C74BF7D6BE0C878E3545CC59883EEFBC7F52B67B56BE09FF654EAB7A22B3B191B6BBE1A608C049CEF378E0AC2905E6F16837CF5236FF01504B0304140006080800A25E7F48BE33916852010000DD0200000C0000006662782F636F72652E786D6C8D52CB6E833010FC15E4BB01434893C8386AD3FC41
310
4FBD39C6A156C046C646F9FCAE7928E5D0B44232D6ECCEECCEC8F4786F9B6890B657469788C4298AA416A652BA2E917757BC43D191516B8CFBD18622CD5B59A20023466B6B7C3743C268277540B5A9E40CF2BE970E45A2814B897AF1255B1E73EFA0A3BFC51D17375ECB98C4531FA3DEAB6AA6AA0AD4D455498B1879DB66EF
310
F9798FCF797AC29B8264F875F372C2806EB3625764FB534E934066D4A976992EACE44E56886529D9E234C739F920E450E487B4F8A449E864B477163CCF43833BC4AE973B4D267CA5E7BBEA6F3DAFB4CBB3596F62F4E000D61B0B8C26211FF88DE1AD3384C1909FE39766B170036890C219BB814A65FCA334F0C64B904EA3F1
310
A3C95405E551E0379DEC89CE730D088AEB1A56E30EAE17EFC2F4F54E9DB47870F7481BDBF2E6B1DCB4E2E37C0C5A595AE8C234C6FE87BD585DC24CC2C364DF504B0304140006080800A25E7F48DA24A56606010000B201000008000000636F72652E786D6C8D504B6EC32014BC0A628F6D2076930813B56E6ED05577D41007
310
C5068B4FD4DEBE1053A9DD75F5D0CCBC37C3B0D3E73283BB725E5BD3435C351028335AA9CDD4C3182E680FC18933676DF82583C08845F530C390B3C9D9B81668B42628935163A52AA0F05E0508C6393D7AE8C7AB5A442562480A7FAB5631DEC4A42A5C6D3ACE825E7E5647A744501272D2E00E351451FC86F1B1A5C7A67D67
310
75567216A396C54ACBE4AE2F5A39C8F14B475EE9F980CEB419D0AEC5043DEF9E0694D08EB4FB961C06CAEABCCC990F2EFDB91C493903F0E29E7D59BD519C7D583B17410A258135F317E40DAB33F127745CE53F426B13282907B70D9F32A7400F2219E706D378D49B666E9B7F03504B01021400140006080800A25E7F480000
310
000000000000000000003700000000000000000000000000000000006662782F33363536414133302D393131412D343331412D424330352D4134353942344632373638342F617474726962757465732E62696E504B01021400140006080800A25E7F4800000000000000000000000035000000000000000000000000005500
310
00006662782F33363536414133302D393131412D343331412D424330352D4134353942344632373638342F76657274696365732E62696E504B01021400140006080800A25E7F48F270F13306000000040000003600000000000000000000000000A80000006662782F33363536414133302D393131412D343331412D424330
310
352D4134353942344632373638342F747269616E676C65732E62696E504B01021400140006080800A25E7F4851464CB489000000430100003600000000000000000000000000020100006662782F33363536414133302D393131412D343331412D424330352D4134353942344632373638342F6469726563746F72792E786D
310
6C504B01021400140006080800A25E7F484D38E55A39070000201C00003400000000000000000000000000DF0100006662782F33363536414133302D393131412D343331412D424330352D4134353942344632373638342F6F626A656374732E786D6C504B01021400140006080800A25E7F4889358A853E01000046050000
310
30000000000000000000000000006A0900006662782F33363536414133302D393131412D343331412D424330352D4134353942344632373638342F636E782E786D6C504B01021400140006080800A25E7F48FB02305A7F000000A30000000B00000000000000000000000000F60A00006662782F636E782E786D6C504B0102
310
1400140006080800A25E7F48A6D797065F0000008200000007000000000000000000000000009E0B0000636E782E786D6C504B01021400140006080800A25E7F484FEB6A7CA0000000F40000001300000000000000000000000000220C00005B436F6E74656E745F54797065735D2E786D6C504B01021400140006080800A2
310
5E7F483DEE336E64000000790000001B00000000000000000000000000F30C00006175746F6465736B2D64657369676E2D7061636B6167652E786D6C504B01021400140006080800A25E7F48AEF490E3F7000000960100003B00000000000000000000000000900D00006662782F33363536414133302D393131412D343331
310
412D424330352D4134353942344632373638342F7265736F75726365732F636F72652E786D6C504B01021400140006080800A25E7F48CF220C7AF1000000B10100003100000000000000000000000000E00E00006662782F33363536414133302D393131412D343331412D424330352D4134353942344632373638342F636F
310
72652E786D6C504B01021400140006080800A25E7F48BE33916852010000DD0200000C00000000000000000000000000201000006662782F636F72652E786D6C504B01021400140006080800A25E7F48DA24A56606010000B201000008000000000000000000000000009C110000636F72652E786D6C504B0506000000000E
310
000E0080040000C81200000000
  0
XRECORD
  5
15CE7
102
{ACAD_REACTORS
330
15CE2
102
}
330
15CE2
100
AcDbXrecord
280
     1
270
     1
271
     1
  0
XRECORD
  5
15CE6
102
{ACAD_REACTORS
330
15CE2
102
}
330
15CE2
100
AcDbXrecord
280
     1
270
     1
271
     1
  0
XRECORD
  5
15CE8
102
{ACAD_REACTORS
330
15CE2
102
}
330
15CE2
100
AcDbXrecord
280
     1
270
     1
271
     1
  0
XRECORD
  5
15CE5
102
{ACAD_REACTORS
330
15CE2
102
}
330
15CE2
100
AcDbXrecord
280
     1
270
     1
271
     1
  0
XRECORD
  5
2251C
102
{ACAD_REACTORS
330
2251B
102
}
330
2251B
100
AcDbXrecord
280
     1
102
SHADEPLOT
 70
     1
102
SHADEPLOTRESLEVEL
 70
     2
102
SHADEPLOTCUSTOMDPI
 70
   300
  0
XRECORD
  5
22517
102
{ACAD_REACTORS
330
22516
102
}
330
22516
100
AcDbXrecord
280
     1
102
DISPLAYNAME
  1
Imperial24
102
FLAGS
 90
        0
  0
CELLSTYLEMAP
  5
224D7
102
{ACAD_REACTORS
330
15F23
102
}
330
15F23
100
AcDbCellStyleMap
 90
        3
300
CELLSTYLE
  1
TABLEFORMAT_BEGIN
 90
        5
170
     1
 91
        0
 92
    32768
 62
   257
 93
        1
300
CONTENTFORMAT
  1
CONTENTFORMAT_BEGIN
 90
        0
 91
        0
 92
      512
 93
        0
300

 40
0.0
140
1.0
 94
        5
 62
     0
340
15BF0
144
0.25
309
CONTENTFORMAT_END
171
     1
301
MARGIN
  1
CELLMARGIN_BEGIN
 40
0.06
 40
0.06
 40
0.06
 40
0.06
 40
0.18
 40
0.18
309
CELLMARGIN_END
 94
        6
 95
        1
302
GRIDFORMAT
  1
GRIDFORMAT_BEGIN
 90
        0
 91
        1
 62
     0
 92
       -2
340
0
 93
        0
 40
0.045
309
GRIDFORMAT_END
 95
        2
302
GRIDFORMAT
  1
GRIDFORMAT_BEGIN
 90
        0
 91
        1
 62
     0
 92
       -2
340
0
 93
        0
 40
0.045
309
GRIDFORMAT_END
 95
        4
302
GRIDFORMAT
  1
GRIDFORMAT_BEGIN
 90
        0
 91
        1
 62
     0
 92
       -2
340
0
 93
        0
 40
0.045
309
GRIDFORMAT_END
 95
        8
302
GRIDFORMAT
  1
GRIDFORMAT_BEGIN
 90
        0
 91
        1
 62
     0
 92
       -2
340
0
 93
        0
 40
0.045
309
GRIDFORMAT_END
 95
       16
302
GRIDFORMAT
  1
GRIDFORMAT_BEGIN
 90
        0
 91
        1
 62
     0
 92
       -2
340
0
 93
        0
 40
0.045
309
GRIDFORMAT_END
 95
       32
302
GRIDFORMAT
  1
GRIDFORMAT_BEGIN
 90
        0
 91
        1
 62
     0
 92
       -2
340
0
 93
        0
 40
0.045
309
GRIDFORMAT_END
309
TABLEFORMAT_END
  1
CELLSTYLE_BEGIN
 90
        1
 91
        1
300
_TITLE
309
CELLSTYLE_END
300
CELLSTYLE
  1
TABLEFORMAT_BEGIN
 90
        5
170
     1
 91
        0
 92
        0
 62
   257
 93
        1
300
CONTENTFORMAT
  1
CONTENTFORMAT_BEGIN
 90
        0
 91
        0
 92
      512
 93
        0
300

 40
0.0
140
1.0
 94
        5
 62
     0
340
15BF0
144
0.18
309
CONTENTFORMAT_END
171
     1
301
MARGIN
  1
CELLMARGIN_BEGIN
 40
0.06
 40
0.06
 40
0.06
 40
0.06
 40
0.18
 40
0.18
309
CELLMARGIN_END
 94
        6
 95
        1
302
GRIDFORMAT
  1
GRIDFORMAT_BEGIN
 90
        0
 91
        1
 62
     0
 92
       -2
340
0
 93
        0
 40
0.045
309
GRIDFORMAT_END
 95
        2
302
GRIDFORMAT
  1
GRIDFORMAT_BEGIN
 90
        0
 91
        1
 62
     0
 92
       -2
340
0
 93
        0
 40
0.045
309
GRIDFORMAT_END
 95
        4
302
GRIDFORMAT
  1
GRIDFORMAT_BEGIN
 90
        0
 91
        1
 62
     0
 92
       -2
340
0
 93
        0
 40
0.045
309
GRIDFORMAT_END
 95
        8
302
GRIDFORMAT
  1
GRIDFORMAT_BEGIN
 90
        0
 91
        1
 62
     0
 92
       -2
340
0
 93
        0
 40
0.045
309
GRIDFORMAT_END
 95
       16
302
GRIDFORMAT
  1
GRIDFORMAT_BEGIN
 90
        0
 91
        1
 62
     0
 92
       -2
340
0
 93
        0
 40
0.045
309
GRIDFORMAT_END
 95
       32
302
GRIDFORMAT
  1
GRIDFORMAT_BEGIN
 90
        0
 91
        1
 62
     0
 92
       -2
340
0
 93
        0
 40
0.045
309
GRIDFORMAT_END
309
TABLEFORMAT_END
  1
CELLSTYLE_BEGIN
 90
        2
 91
        1
300
_HEADER
309
CELLSTYLE_END
300
CELLSTYLE
  1
TABLEFORMAT_BEGIN
 90
        5
170
     1
 91
        0
 92
        0
 62
   257
 93
        1
300
CONTENTFORMAT
  1
CONTENTFORMAT_BEGIN
 90
        0
 91
        0
 92
      512
 93
        0
300

 40
0.0
140
1.0
 94
        2
 62
     0
340
15BF0
144
0.18
309
CONTENTFORMAT_END
171
     1
301
MARGIN
  1
CELLMARGIN_BEGIN
 40
0.06
 40
0.06
 40
0.06
 40
0.06
 40
0.18
 40
0.18
309
CELLMARGIN_END
 94
        6
 95
        1
302
GRIDFORMAT
  1
GRIDFORMAT_BEGIN
 90
        0
 91
        1
 62
     0
 92
       -2
340
0
 93
        0
 40
0.045
309
GRIDFORMAT_END
 95
        2
302
GRIDFORMAT
  1
GRIDFORMAT_BEGIN
 90
        0
 91
        1
 62
     0
 92
       -2
340
0
 93
        0
 40
0.045
309
GRIDFORMAT_END
 95
        4
302
GRIDFORMAT
  1
GRIDFORMAT_BEGIN
 90
        0
 91
        1
 62
     0
 92
       -2
340
0
 93
        0
 40
0.045
309
GRIDFORMAT_END
 95
        8
302
GRIDFORMAT
  1
GRIDFORMAT_BEGIN
 90
        0
 91
        1
 62
     0
 92
       -2
340
0
 93
        0
 40
0.045
309
GRIDFORMAT_END
 95
       16
302
GRIDFORMAT
  1
GRIDFORMAT_BEGIN
 90
        0
 91
        1
 62
     0
 92
       -2
340
0
 93
        0
 40
0.045
309
GRIDFORMAT_END
 95
       32
302
GRIDFORMAT
  1
GRIDFORMAT_BEGIN
 90
        0
 91
        1
 62
     0
 92
       -2
340
0
 93
        0
 40
0.045
309
GRIDFORMAT_END
309
TABLEFORMAT_END
  1
CELLSTYLE_BEGIN
 90
        3
 91
        2
300
_DATA
309
CELLSTYLE_END
  0
XRECORD
  5
22501
102
{ACAD_REACTORS
330
15F23
102
}
330
15F23
100
AcDbXrecord
280
     1
102
ACAD_ROUNDTRIP_PRE2007_TABLESTYLE
 90
      512
 91
        0
  1

 92
      512
 93
        0
  2

 94
      512
 95
        0
  3

  0
CELLSTYLEMAP
  5
224D8
102
{ACAD_REACTORS
330
1AB7B
102
}
330
1AB7B
100
AcDbCellStyleMap
 90
        3
300
CELLSTYLE
  1
TABLEFORMAT_BEGIN
 90
        5
170
     1
 91
        0
 92
    32768
 62
   257
 93
        1
300
CONTENTFORMAT
  1
CONTENTFORMAT_BEGIN
 90
        0
 91
        0
 92
      512
 93
        0
300

 40
0.0
140
1.0
 94
        5
 62
     0
340
15C34
144
0.5
309
CONTENTFORMAT_END
171
     1
301
MARGIN
  1
CELLMARGIN_BEGIN
 40
0.06
 40
0.06
 40
0.06
 40
0.06
 40
0.18
 40
0.18
309
CELLMARGIN_END
 94
        6
 95
        1
302
GRIDFORMAT
  1
GRIDFORMAT_BEGIN
 90
        0
 91
        1
 62
     0
 92
       -2
340
0
 93
        0
 40
0.045
309
GRIDFORMAT_END
 95
        2
302
GRIDFORMAT
  1
GRIDFORMAT_BEGIN
 90
        0
 91
        1
 62
     0
 92
       -2
340
0
 93
        0
 40
0.045
309
GRIDFORMAT_END
 95
        4
302
GRIDFORMAT
  1
GRIDFORMAT_BEGIN
 90
        0
 91
        1
 62
     0
 92
       -2
340
0
 93
        0
 40
0.045
309
GRIDFORMAT_END
 95
        8
302
GRIDFORMAT
  1
GRIDFORMAT_BEGIN
 90
        0
 91
        1
 62
     0
 92
       -2
340
0
 93
        0
 40
0.045
309
GRIDFORMAT_END
 95
       16
302
GRIDFORMAT
  1
GRIDFORMAT_BEGIN
 90
        0
 91
        1
 62
     0
 92
       -2
340
0
 93
        0
 40
0.045
309
GRIDFORMAT_END
 95
       32
302
GRIDFORMAT
  1
GRIDFORMAT_BEGIN
 90
        0
 91
        1
 62
     0
 92
       -2
340
0
 93
        0
 40
0.045
309
GRIDFORMAT_END
309
TABLEFORMAT_END
  1
CELLSTYLE_BEGIN
 90
        1
 91
        1
300
_TITLE
309
CELLSTYLE_END
300
CELLSTYLE
  1
TABLEFORMAT_BEGIN
 90
        5
170
     1
 91
        0
 92
        0
 62
   257
 93
        1
300
CONTENTFORMAT
  1
CONTENTFORMAT_BEGIN
 90
        0
 91
        0
 92
      512
 93
        0
300

 40
0.0
140
1.0
 94
        5
 62
     0
340
15C34
144
0.5
309
CONTENTFORMAT_END
171
     1
301
MARGIN
  1
CELLMARGIN_BEGIN
 40
0.06
 40
0.06
 40
0.06
 40
0.06
 40
0.18
 40
0.18
309
CELLMARGIN_END
 94
        6
 95
        1
302
GRIDFORMAT
  1
GRIDFORMAT_BEGIN
 90
        0
 91
        1
 62
     0
 92
       -2
340
0
 93
        0
 40
0.045
309
GRIDFORMAT_END
 95
        2
302
GRIDFORMAT
  1
GRIDFORMAT_BEGIN
 90
        0
 91
        1
 62
     0
 92
       -2
340
0
 93
        0
 40
0.045
309
GRIDFORMAT_END
 95
        4
302
GRIDFORMAT
  1
GRIDFORMAT_BEGIN
 90
        0
 91
        1
 62
     0
 92
       -2
340
0
 93
        0
 40
0.045
309
GRIDFORMAT_END
 95
        8
302
GRIDFORMAT
  1
GRIDFORMAT_BEGIN
 90
        0
 91
        1
 62
     0
 92
       -2
340
0
 93
        0
 40
0.045
309
GRIDFORMAT_END
 95
       16
302
GRIDFORMAT
  1
GRIDFORMAT_BEGIN
 90
        0
 91
        1
 62
     0
 92
       -2
340
0
 93
        0
 40
0.045
309
GRIDFORMAT_END
 95
       32
302
GRIDFORMAT
  1
GRIDFORMAT_BEGIN
 90
        0
 91
        1
 62
     0
 92
       -2
340
0
 93
        0
 40
0.045
309
GRIDFORMAT_END
309
TABLEFORMAT_END
  1
CELLSTYLE_BEGIN
 90
        2
 91
        1
300
_HEADER
309
CELLSTYLE_END
300
CELLSTYLE
  1
TABLEFORMAT_BEGIN
 90
        5
170
     1
 91
        0
 92
        0
 62
   257
 93
        1
300
CONTENTFORMAT
  1
CONTENTFORMAT_BEGIN
 90
        0
 91
        0
 92
      512
 93
        0
300

 40
0.0
140
1.0
 94
        5
 62
     0
340
15C34
144
0.5
309
CONTENTFORMAT_END
171
     1
301
MARGIN
  1
CELLMARGIN_BEGIN
 40
0.06
 40
0.06
 40
0.06
 40
0.06
 40
0.18
 40
0.18
309
CELLMARGIN_END
 94
        6
 95
        1
302
GRIDFORMAT
  1
GRIDFORMAT_BEGIN
 90
        0
 91
        1
 62
     0
 92
       -2
340
0
 93
        0
 40
0.045
309
GRIDFORMAT_END
 95
        2
302
GRIDFORMAT
  1
GRIDFORMAT_BEGIN
 90
        0
 91
        1
 62
     0
 92
       -2
340
0
 93
        0
 40
0.045
309
GRIDFORMAT_END
 95
        4
302
GRIDFORMAT
  1
GRIDFORMAT_BEGIN
 90
        0
 91
        1
 62
     0
 92
       -2
340
0
 93
        0
 40
0.045
309
GRIDFORMAT_END
 95
        8
302
GRIDFORMAT
  1
GRIDFORMAT_BEGIN
 90
        0
 91
        1
 62
     0
 92
       -2
340
0
 93
        0
 40
0.045
309
GRIDFORMAT_END
 95
       16
302
GRIDFORMAT
  1
GRIDFORMAT_BEGIN
 90
        0
 91
        1
 62
     0
 92
       -2
340
0
 93
        0
 40
0.045
309
GRIDFORMAT_END
 95
       32
302
GRIDFORMAT
  1
GRIDFORMAT_BEGIN
 90
        0
 91
        1
 62
     0
 92
       -2
340
0
 93
        0
 40
0.045
309
GRIDFORMAT_END
309
TABLEFORMAT_END
  1
CELLSTYLE_BEGIN
 90
        3
 91
        2
300
_DATA
309
CELLSTYLE_END
  0
XRECORD
  5
2251A
102
{ACAD_REACTORS
330
1AB7B
102
}
330
1AB7B
100
AcDbXrecord
280
     1
102
ACAD_ROUNDTRIP_PRE2007_TABLESTYLE
 90
      512
 91
        0
  1

 92
      512
 93
        0
  2

 94
      512
 95
        0
  3

  0
XRECORD
  5
224EC
102
{ACAD_REACTORS
330
224EB
102
}
330
224EB
100
AcDbXrecord
280
     1
102
RTVSPost2010Prop28
280
     1
102
RTVSPost2010PropOp28
 70
     1
102
RTVSPost2010Prop29
280
     1
102
RTVSPost2010PropOp29
 70
     1
102
RTVSPost2010Prop30
280
     0
102
RTVSPost2010PropOp30
 70
     1
102
RTVSPost2010Prop31
280
     0
102
RTVSPost2010PropOp31
 70
     1
102
RTVSPost2010Prop32
280
     0
102
RTVSPost2010PropOp32
 70
     1
102
RTVSPost2010Prop33
280
     0
102
RTVSPost2010PropOp33
 70
     1
102
RTVSPost2010Prop34
280
     0
102
RTVSPost2010PropOp34
 70
     1
102
RTVSPost2010Prop35
280
     0
102
RTVSPost2010PropOp35
 70
     1
102
RTVSPost2010Prop36
280
     0
102
RTVSPost2010PropOp36
 70
     1
102
RTVSPost2010Prop37
 90
       50
102
RTVSPost2010PropOp37
 70
     1
102
RTVSPost2010Prop38
140
0.0
102
RTVSPost2010PropOp38
 70
     1
102
RTVSPost2010Prop39
140
1.0
102
RTVSPost2010PropOp39
 70
     1
102
RTVSPost2010Prop40
 90
        0
102
RTVSPost2010PropOp40
 70
     1
102
RTVSPost2010Prop41ColorIndex
 90
       18
102
RTVSPost2010Prop41ColorRGB
 90
        0
102
RTVSPost2010PropOp41
 70
     1
102
RTVSPost2010Prop42
 90
       50
102
RTVSPost2010PropOp42
 70
     1
102
RTVSPost2010Prop43
 90
        3
102
RTVSPost2010PropOp43
 70
     1
102
RTVSPost2010Prop44ColorIndex
 90
        5
102
RTVSPost2010Prop44ColorRGB
 90
      255
102
RTVSPost2010PropOp44
 70
     1
102
RTVSPost2010Prop45
280
     0
102
RTVSPost2010PropOp45
 70
     1
102
RTVSPost2010Prop46
 90
       50
102
RTVSPost2010PropOp46
 70
     1
102
RTVSPost2010Prop47
 90
       50
102
RTVSPost2010PropOp47
 70
     1
102
RTVSPost2010Prop48
 90
       50
102
RTVSPost2010PropOp48
 70
     1
102
RTVSPost2010Prop49
280
     0
102
RTVSPost2010PropOp49
 70
     1
102
RTVSPost2010Prop50
 90
       50
102
RTVSPost2010PropOp50
 70
     1
102
RTVSPost2010Prop51ColorIndex
 90
      256
102
RTVSPost2010Prop51ColorRGB
 90
-16777216
102
RTVSPost2010PropOp51
 70
     0
102
RTVSPost2010Prop52
140
1.0
102
RTVSPost2010PropOp52
 70
     0
102
RTVSPost2010Prop53
 90
        2
102
RTVSPost2010PropOp53
 70
     1
102
RTVSPost2010Prop54
  1
strokes_ogs.tif
102
RTVSPost2010PropOp54
 70
     1
102
RTVSPost2010Prop55
280
     0
102
RTVSPost2010PropOp55
 70
     1
102
RTVSPost2010Prop56
140
1.0
102
RTVSPost2010PropOp56
 70
     1
102
RTVSPost2010Prop57
140
1.0
102
RTVSPost2010PropOp57
 70
     1
102
RTVSPropertyOp0
 70
     1
102
RTVSPropertyOp1
 70
     1
102
RTVSPropertyOp2
 70
     1
102
RTVSPropertyOp3
 70
     1
102
RTVSPropertyOp4
 70
     1
102
RTVSPropertyOp5
 70
     1
102
RTVSPropertyOp6
 70
     1
102
RTVSPropertyOp7
 70
     1
102
RTVSPropertyOp8
 70
     1
102
RTVSPropertyOp9
 70
     1
102
RTVSPropertyOp10
 70
     1
102
RTVSPropertyOp11
 70
     1
102
RTVSPropertyOp12
 70
     1
102
RTVSPropertyOp13
 70
     1
102
RTVSPropertyOp14
 70
     1
102
RTVSPropertyOp15
 70
     1
102
RTVSPropertyOp16
 70
     1
102
RTVSPropertyOp17
 70
     1
102
RTVSPropertyOp18
 70
     1
102
RTVSPropertyOp19
 70
     1
102
RTVSPropertyOp20
 70
     1
102
RTVSPropertyOp21
 70
     1
102
RTVSPropertyOp22
 70
     1
102
RTVSPropertyOp23
 70
     1
102
RTVSPropertyOp24
 70
     1
102
RTVSPropertyOp25
 70
     1
102
RTVSPropertyOp26
 70
     1
102
RTVSPropertyOp27
 70
     1
102
RTVSPropertyOp28
 70
     1
102
RTVSPropertyOp29
 70
     1
102
RTVSPropertyOp30
 70
     1
102
RTVSPropertyOp31
 70
     1
102
RTVSPropertyOp32
 70
     1
102
RTVSPropertyOp33
 70
     1
102
RTVSPropertyOp34
 70
     1
102
RTVSPropertyOp35
 70
     1
102
RTVSPropertyOp36
 70
     1
102
RTVSPropertyOp37
 70
     1
102
RTVSPropertyOp38
 70
     1
102
RTVSPropertyOp39
 70
     1
102
RTVSPropertyOp40
 70
     1
102
RTVSPropertyOp41
 70
     1
102
RTVSPropertyOp42
 70
     1
102
RTVSPropertyOp43
 70
     1
102
RTVSPropertyOp44
 70
     1
102
RTVSPropertyOp45
 70
     1
102
RTVSPropertyOp46
 70
     1
102
RTVSPropertyOp47
 70
     1
102
RTVSPropertyOp48
 70
     1
102
RTVSPropertyOp49
 70
     1
102
RTVSPropertyOp50
 70
     1
102
RTVSPropertyOp51
 70
     0
102
RTVSPropertyOp52
 70
     0
102
RTVSPropertyOp53
 70
     1
102
RTVSPropertyOp54
 70
     1
102
RTVSPropertyOp55
 70
     1
102
RTVSPropertyOp56
 70
     1
102
RTVSPropertyOp57
 70
     1
102
RTVSPropertyOp58
 70
     1
102
RTVSPropertyOp59
 70
     1
102
RTVSPropertyOp60
 70
     1
102
RTVSPropertyOp61
 70
     1
102
RTVSPropertyOp62
 70
     1
  0
XRECORD
  5
224F0
102
{ACAD_REACTORS
330
224EF
102
}
330
224EF
100
AcDbXrecord
280
     1
102
RTVSPost2010Prop28
280
     0
102
RTVSPost2010PropOp28
 70
     1
102
RTVSPost2010Prop29
280
     1
102
RTVSPost2010PropOp29
 70
     1
102
RTVSPost2010Prop30
280
     1
102
RTVSPost2010PropOp30
 70
     1
102
RTVSPost2010Prop31
280
     0
102
RTVSPost2010PropOp31
 70
     1
102
RTVSPost2010Prop32
280
     0
102
RTVSPost2010PropOp32
 70
     1
102
RTVSPost2010Prop33
280
     0
102
RTVSPost2010PropOp33
 70
     1
102
RTVSPost2010Prop34
280
     0
102
RTVSPost2010PropOp34
 70
     1
102
RTVSPost2010Prop35
280
     0
102
RTVSPost2010PropOp35
 70
     1
102
RTVSPost2010Prop36
280
     0
102
RTVSPost2010PropOp36
 70
     1
102
RTVSPost2010Prop37
 90
       50
102
RTVSPost2010PropOp37
 70
     1
102
RTVSPost2010Prop38
140
0.0
102
RTVSPost2010PropOp38
 70
     1
102
RTVSPost2010Prop39
140
1.0
102
RTVSPost2010PropOp39
 70
     1
102
RTVSPost2010Prop40
 90
        0
102
RTVSPost2010PropOp40
 70
     1
102
RTVSPost2010Prop41ColorIndex
 90
       18
102
RTVSPost2010Prop41ColorRGB
 90
        0
102
RTVSPost2010PropOp41
 70
     1
102
RTVSPost2010Prop42
 90
       50
102
RTVSPost2010PropOp42
 70
     1
102
RTVSPost2010Prop43
 90
        3
102
RTVSPost2010PropOp43
 70
     1
102
RTVSPost2010Prop44ColorIndex
 90
        5
102
RTVSPost2010Prop44ColorRGB
 90
      255
102
RTVSPost2010PropOp44
 70
     1
102
RTVSPost2010Prop45
280
     0
102
RTVSPost2010PropOp45
 70
     1
102
RTVSPost2010Prop46
 90
       50
102
RTVSPost2010PropOp46
 70
     1
102
RTVSPost2010Prop47
 90
       50
102
RTVSPost2010PropOp47
 70
     1
102
RTVSPost2010Prop48
 90
       50
102
RTVSPost2010PropOp48
 70
     1
102
RTVSPost2010Prop49
280
     0
102
RTVSPost2010PropOp49
 70
     1
102
RTVSPost2010Prop50
 90
       50
102
RTVSPost2010PropOp50
 70
     1
102
RTVSPost2010Prop51ColorIndex
 90
      256
102
RTVSPost2010Prop51ColorRGB
 90
-16777216
102
RTVSPost2010PropOp51
 70
     0
102
RTVSPost2010Prop52
140
1.0
102
RTVSPost2010PropOp52
 70
     0
102
RTVSPost2010Prop53
 90
        2
102
RTVSPost2010PropOp53
 70
     1
102
RTVSPost2010Prop54
  1
strokes_ogs.tif
102
RTVSPost2010PropOp54
 70
     1
102
RTVSPost2010Prop55
280
     0
102
RTVSPost2010PropOp55
 70
     1
102
RTVSPost2010Prop56
140
1.0
102
RTVSPost2010PropOp56
 70
     1
102
RTVSPost2010Prop57
140
1.0
102
RTVSPost2010PropOp57
 70
     1
102
RTVSPropertyOp0
 70
     1
102
RTVSPropertyOp1
 70
     1
102
RTVSPropertyOp2
 70
     1
102
RTVSPropertyOp3
 70
     1
102
RTVSPropertyOp4
 70
     1
102
RTVSPropertyOp5
 70
     1
102
RTVSPropertyOp6
 70
     1
102
RTVSPropertyOp7
 70
     1
102
RTVSPropertyOp8
 70
     1
102
RTVSPropertyOp9
 70
     1
102
RTVSPropertyOp10
 70
     1
102
RTVSPropertyOp11
 70
     1
102
RTVSPropertyOp12
 70
     1
102
RTVSPropertyOp13
 70
     1
102
RTVSPropertyOp14
 70
     1
102
RTVSPropertyOp15
 70
     1
102
RTVSPropertyOp16
 70
     1
102
RTVSPropertyOp17
 70
     1
102
RTVSPropertyOp18
 70
     1
102
RTVSPropertyOp19
 70
     1
102
RTVSPropertyOp20
 70
     1
102
RTVSPropertyOp21
 70
     1
102
RTVSPropertyOp22
 70
     1
102
RTVSPropertyOp23
 70
     1
102
RTVSPropertyOp24
 70
     1
102
RTVSPropertyOp25
 70
     1
102
RTVSPropertyOp26
 70
     1
102
RTVSPropertyOp27
 70
     1
102
RTVSPropertyOp28
 70
     1
102
RTVSPropertyOp29
 70
     1
102
RTVSPropertyOp30
 70
     1
102
RTVSPropertyOp31
 70
     1
102
RTVSPropertyOp32
 70
     1
102
RTVSPropertyOp33
 70
     1
102
RTVSPropertyOp34
 70
     1
102
RTVSPropertyOp35
 70
     1
102
RTVSPropertyOp36
 70
     1
102
RTVSPropertyOp37
 70
     1
102
RTVSPropertyOp38
 70
     1
102
RTVSPropertyOp39
 70
     1
102
RTVSPropertyOp40
 70
     1
102
RTVSPropertyOp41
 70
     1
102
RTVSPropertyOp42
 70
     1
102
RTVSPropertyOp43
 70
     1
102
RTVSPropertyOp44
 70
     1
102
RTVSPropertyOp45
 70
     1
102
RTVSPropertyOp46
 70
     1
102
RTVSPropertyOp47
 70
     1
102
RTVSPropertyOp48
 70
     1
102
RTVSPropertyOp49
 70
     1
102
RTVSPropertyOp50
 70
     1
102
RTVSPropertyOp51
 70
     0
102
RTVSPropertyOp52
 70
     0
102
RTVSPropertyOp53
 70
     1
102
RTVSPropertyOp54
 70
     1
102
RTVSPropertyOp55
 70
     1
102
RTVSPropertyOp56
 70
     1
102
RTVSPropertyOp57
 70
     1
102
RTVSPropertyOp58
 70
     1
102
RTVSPropertyOp59
 70
     1
102
RTVSPropertyOp60
 70
     1
102
RTVSPropertyOp61
 70
     1
102
RTVSPropertyOp62
 70
     1
  0
XRECORD
  5
224EE
102
{ACAD_REACTORS
330
224ED
102
}
330
224ED
100
AcDbXrecord
280
     1
102
RTVSPost2010Prop28
280
     0
102
RTVSPost2010PropOp28
 70
     1
102
RTVSPost2010Prop29
280
     1
102
RTVSPost2010PropOp29
 70
     1
102
RTVSPost2010Prop30
280
     1
102
RTVSPost2010PropOp30
 70
     1
102
RTVSPost2010Prop31
280
     0
102
RTVSPost2010PropOp31
 70
     1
102
RTVSPost2010Prop32
280
     0
102
RTVSPost2010PropOp32
 70
     1
102
RTVSPost2010Prop33
280
     0
102
RTVSPost2010PropOp33
 70
     1
102
RTVSPost2010Prop34
280
     0
102
RTVSPost2010PropOp34
 70
     1
102
RTVSPost2010Prop35
280
     0
102
RTVSPost2010PropOp35
 70
     1
102
RTVSPost2010Prop36
280
     0
102
RTVSPost2010PropOp36
 70
     1
102
RTVSPost2010Prop37
 90
       50
102
RTVSPost2010PropOp37
 70
     1
102
RTVSPost2010Prop38
140
0.0
102
RTVSPost2010PropOp38
 70
     1
102
RTVSPost2010Prop39
140
1.0
102
RTVSPost2010PropOp39
 70
     1
102
RTVSPost2010Prop40
 90
        0
102
RTVSPost2010PropOp40
 70
     1
102
RTVSPost2010Prop41ColorIndex
 90
       18
102
RTVSPost2010Prop41ColorRGB
 90
        0
102
RTVSPost2010PropOp41
 70
     1
102
RTVSPost2010Prop42
 90
       50
102
RTVSPost2010PropOp42
 70
     1
102
RTVSPost2010Prop43
 90
        3
102
RTVSPost2010PropOp43
 70
     1
102
RTVSPost2010Prop44ColorIndex
 90
        5
102
RTVSPost2010Prop44ColorRGB
 90
      255
102
RTVSPost2010PropOp44
 70
     1
102
RTVSPost2010Prop45
280
     0
102
RTVSPost2010PropOp45
 70
     1
102
RTVSPost2010Prop46
 90
       50
102
RTVSPost2010PropOp46
 70
     1
102
RTVSPost2010Prop47
 90
       50
102
RTVSPost2010PropOp47
 70
     1
102
RTVSPost2010Prop48
 90
       50
102
RTVSPost2010PropOp48
 70
     1
102
RTVSPost2010Prop49
280
     0
102
RTVSPost2010PropOp49
 70
     1
102
RTVSPost2010Prop50
 90
       50
102
RTVSPost2010PropOp50
 70
     1
102
RTVSPost2010Prop51ColorIndex
 90
      256
102
RTVSPost2010Prop51ColorRGB
 90
-16777216
102
RTVSPost2010PropOp51
 70
     0
102
RTVSPost2010Prop52
140
1.0
102
RTVSPost2010PropOp52
 70
     0
102
RTVSPost2010Prop53
 90
        2
102
RTVSPost2010PropOp53
 70
     1
102
RTVSPost2010Prop54
  1
strokes_ogs.tif
102
RTVSPost2010PropOp54
 70
     1
102
RTVSPost2010Prop55
280
     0
102
RTVSPost2010PropOp55
 70
     1
102
RTVSPost2010Prop56
140
1.0
102
RTVSPost2010PropOp56
 70
     1
102
RTVSPost2010Prop57
140
1.0
102
RTVSPost2010PropOp57
 70
     1
102
RTVSPropertyOp0
 70
     1
102
RTVSPropertyOp1
 70
     1
102
RTVSPropertyOp2
 70
     1
102
RTVSPropertyOp3
 70
     1
102
RTVSPropertyOp4
 70
     1
102
RTVSPropertyOp5
 70
     1
102
RTVSPropertyOp6
 70
     1
102
RTVSPropertyOp7
 70
     1
102
RTVSPropertyOp8
 70
     1
102
RTVSPropertyOp9
 70
     1
102
RTVSPropertyOp10
 70
     1
102
RTVSPropertyOp11
 70
     1
102
RTVSPropertyOp12
 70
     1
102
RTVSPropertyOp13
 70
     1
102
RTVSPropertyOp14
 70
     1
102
RTVSPropertyOp15
 70
     1
102
RTVSPropertyOp16
 70
     1
102
RTVSPropertyOp17
 70
     1
102
RTVSPropertyOp18
 70
     1
102
RTVSPropertyOp19
 70
     1
102
RTVSPropertyOp20
 70
     1
102
RTVSPropertyOp21
 70
     1
102
RTVSPropertyOp22
 70
     1
102
RTVSPropertyOp23
 70
     1
102
RTVSPropertyOp24
 70
     1
102
RTVSPropertyOp25
 70
     1
102
RTVSPropertyOp26
 70
     1
102
RTVSPropertyOp27
 70
     1
102
RTVSPropertyOp28
 70
     1
102
RTVSPropertyOp29
 70
     1
102
RTVSPropertyOp30
 70
     1
102
RTVSPropertyOp31
 70
     1
102
RTVSPropertyOp32
 70
     1
102
RTVSPropertyOp33
 70
     1
102
RTVSPropertyOp34
 70
     1
102
RTVSPropertyOp35
 70
     1
102
RTVSPropertyOp36
 70
     1
102
RTVSPropertyOp37
 70
     1
102
RTVSPropertyOp38
 70
     1
102
RTVSPropertyOp39
 70
     1
102
RTVSPropertyOp40
 70
     1
102
RTVSPropertyOp41
 70
     1
102
RTVSPropertyOp42
 70
     1
102
RTVSPropertyOp43
 70
     1
102
RTVSPropertyOp44
 70
     1
102
RTVSPropertyOp45
 70
     1
102
RTVSPropertyOp46
 70
     1
102
RTVSPropertyOp47
 70
     1
102
RTVSPropertyOp48
 70
     1
102
RTVSPropertyOp49
 70
     1
102
RTVSPropertyOp50
 70
     1
102
RTVSPropertyOp51
 70
     0
102
RTVSPropertyOp52
 70
     0
102
RTVSPropertyOp53
 70
     1
102
RTVSPropertyOp54
 70
     1
102
RTVSPropertyOp55
 70
     1
102
RTVSPropertyOp56
 70
     1
102
RTVSPropertyOp57
 70
     1
102
RTVSPropertyOp58
 70
     1
102
RTVSPropertyOp59
 70
     1
102
RTVSPropertyOp60
 70
     1
102
RTVSPropertyOp61
 70
     1
102
RTVSPropertyOp62
 70
     1
  0
XRECORD
  5
224EA
102
{ACAD_REACTORS
330
224E9
102
}
330
224E9
100
AcDbXrecord
280
     1
102
RTVSPost2010Prop28
280
     0
102
RTVSPost2010PropOp28
 70
     1
102
RTVSPost2010Prop29
280
     1
102
RTVSPost2010PropOp29
 70
     1
102
RTVSPost2010Prop30
280
     1
102
RTVSPost2010PropOp30
 70
     1
102
RTVSPost2010Prop31
280
     0
102
RTVSPost2010PropOp31
 70
     1
102
RTVSPost2010Prop32
280
     0
102
RTVSPost2010PropOp32
 70
     1
102
RTVSPost2010Prop33
280
     0
102
RTVSPost2010PropOp33
 70
     1
102
RTVSPost2010Prop34
280
     0
102
RTVSPost2010PropOp34
 70
     1
102
RTVSPost2010Prop35
280
     0
102
RTVSPost2010PropOp35
 70
     1
102
RTVSPost2010Prop36
280
     0
102
RTVSPost2010PropOp36
 70
     1
102
RTVSPost2010Prop37
 90
       50
102
RTVSPost2010PropOp37
 70
     1
102
RTVSPost2010Prop38
140
0.0
102
RTVSPost2010PropOp38
 70
     1
102
RTVSPost2010Prop39
140
1.0
102
RTVSPost2010PropOp39
 70
     1
102
RTVSPost2010Prop40
 90
        0
102
RTVSPost2010PropOp40
 70
     1
102
RTVSPost2010Prop41ColorIndex
 90
       18
102
RTVSPost2010Prop41ColorRGB
 90
        0
102
RTVSPost2010PropOp41
 70
     1
102
RTVSPost2010Prop42
 90
       50
102
RTVSPost2010PropOp42
 70
     1
102
RTVSPost2010Prop43
 90
        3
102
RTVSPost2010PropOp43
 70
     1
102
RTVSPost2010Prop44ColorIndex
 90
        5
102
RTVSPost2010Prop44ColorRGB
 90
      255
102
RTVSPost2010PropOp44
 70
     1
102
RTVSPost2010Prop45
280
     0
102
RTVSPost2010PropOp45
 70
     1
102
RTVSPost2010Prop46
 90
       50
102
RTVSPost2010PropOp46
 70
     1
102
RTVSPost2010Prop47
 90
       50
102
RTVSPost2010PropOp47
 70
     1
102
RTVSPost2010Prop48
 90
       50
102
RTVSPost2010PropOp48
 70
     1
102
RTVSPost2010Prop49
280
     0
102
RTVSPost2010PropOp49
 70
     1
102
RTVSPost2010Prop50
 90
       50
102
RTVSPost2010PropOp50
 70
     1
102
RTVSPost2010Prop51ColorIndex
 90
      256
102
RTVSPost2010Prop51ColorRGB
 90
-16777216
102
RTVSPost2010PropOp51
 70
     0
102
RTVSPost2010Prop52
140
1.0
102
RTVSPost2010PropOp52
 70
     0
102
RTVSPost2010Prop53
 90
        2
102
RTVSPost2010PropOp53
 70
     1
102
RTVSPost2010Prop54
  1
strokes_ogs.tif
102
RTVSPost2010PropOp54
 70
     1
102
RTVSPost2010Prop55
280
     0
102
RTVSPost2010PropOp55
 70
     1
102
RTVSPost2010Prop56
140
1.0
102
RTVSPost2010PropOp56
 70
     1
102
RTVSPost2010Prop57
140
1.0
102
RTVSPost2010PropOp57
 70
     1
102
RTVSPropertyOp0
 70
     1
102
RTVSPropertyOp1
 70
     1
102
RTVSPropertyOp2
 70
     1
102
RTVSPropertyOp3
 70
     1
102
RTVSPropertyOp4
 70
     1
102
RTVSPropertyOp5
 70
     1
102
RTVSPropertyOp6
 70
     1
102
RTVSPropertyOp7
 70
     1
102
RTVSPropertyOp8
 70
     1
102
RTVSPropertyOp9
 70
     1
102
RTVSPropertyOp10
 70
     1
102
RTVSPropertyOp11
 70
     1
102
RTVSPropertyOp12
 70
     1
102
RTVSPropertyOp13
 70
     1
102
RTVSPropertyOp14
 70
     1
102
RTVSPropertyOp15
 70
     1
102
RTVSPropertyOp16
 70
     1
102
RTVSPropertyOp17
 70
     1
102
RTVSPropertyOp18
 70
     1
102
RTVSPropertyOp19
 70
     1
102
RTVSPropertyOp20
 70
     1
102
RTVSPropertyOp21
 70
     1
102
RTVSPropertyOp22
 70
     1
102
RTVSPropertyOp23
 70
     1
102
RTVSPropertyOp24
 70
     1
102
RTVSPropertyOp25
 70
     1
102
RTVSPropertyOp26
 70
     1
102
RTVSPropertyOp27
 70
     1
102
RTVSPropertyOp28
 70
     1
102
RTVSPropertyOp29
 70
     1
102
RTVSPropertyOp30
 70
     1
102
RTVSPropertyOp31
 70
     1
102
RTVSPropertyOp32
 70
     1
102
RTVSPropertyOp33
 70
     1
102
RTVSPropertyOp34
 70
     1
102
RTVSPropertyOp35
 70
     1
102
RTVSPropertyOp36
 70
     1
102
RTVSPropertyOp37
 70
     1
102
RTVSPropertyOp38
 70
     1
102
RTVSPropertyOp39
 70
     1
102
RTVSPropertyOp40
 70
     1
102
RTVSPropertyOp41
 70
     1
102
RTVSPropertyOp42
 70
     1
102
RTVSPropertyOp43
 70
     1
102
RTVSPropertyOp44
 70
     1
102
RTVSPropertyOp45
 70
     1
102
RTVSPropertyOp46
 70
     1
102
RTVSPropertyOp47
 70
     1
102
RTVSPropertyOp48
 70
     1
102
RTVSPropertyOp49
 70
     1
102
RTVSPropertyOp50
 70
     1
102
RTVSPropertyOp51
 70
     0
102
RTVSPropertyOp52
 70
     0
102
RTVSPropertyOp53
 70
     1
102
RTVSPropertyOp54
 70
     1
102
RTVSPropertyOp55
 70
     1
102
RTVSPropertyOp56
 70
     1
102
RTVSPropertyOp57
 70
     1
102
RTVSPropertyOp58
 70
     1
102
RTVSPropertyOp59
 70
     1
102
RTVSPropertyOp60
 70
     1
102
RTVSPropertyOp61
 70
     1
102
RTVSPropertyOp62
 70
     1
  0
XRECORD
  5
224F8
102
{ACAD_REACTORS
330
224F7
102
}
330
224F7
100
AcDbXrecord
280
     1
102
RTVSPost2010Prop28
280
     0
102
RTVSPost2010PropOp28
 70
     1
102
RTVSPost2010Prop29
280
     1
102
RTVSPost2010PropOp29
 70
     1
102
RTVSPost2010Prop30
280
     1
102
RTVSPost2010PropOp30
 70
     1
102
RTVSPost2010Prop31
280
     0
102
RTVSPost2010PropOp31
 70
     1
102
RTVSPost2010Prop32
280
     0
102
RTVSPost2010PropOp32
 70
     1
102
RTVSPost2010Prop33
280
     0
102
RTVSPost2010PropOp33
 70
     1
102
RTVSPost2010Prop34
280
     0
102
RTVSPost2010PropOp34
 70
     1
102
RTVSPost2010Prop35
280
     0
102
RTVSPost2010PropOp35
 70
     1
102
RTVSPost2010Prop36
280
     0
102
RTVSPost2010PropOp36
 70
     1
102
RTVSPost2010Prop37
 90
       50
102
RTVSPost2010PropOp37
 70
     1
102
RTVSPost2010Prop38
140
0.0
102
RTVSPost2010PropOp38
 70
     1
102
RTVSPost2010Prop39
140
1.0
102
RTVSPost2010PropOp39
 70
     1
102
RTVSPost2010Prop40
 90
        0
102
RTVSPost2010PropOp40
 70
     1
102
RTVSPost2010Prop41ColorIndex
 90
       18
102
RTVSPost2010Prop41ColorRGB
 90
        0
102
RTVSPost2010PropOp41
 70
     1
102
RTVSPost2010Prop42
 90
       50
102
RTVSPost2010PropOp42
 70
     1
102
RTVSPost2010Prop43
 90
        3
102
RTVSPost2010PropOp43
 70
     1
102
RTVSPost2010Prop44ColorIndex
 90
        5
102
RTVSPost2010Prop44ColorRGB
 90
      255
102
RTVSPost2010PropOp44
 70
     1
102
RTVSPost2010Prop45
280
     0
102
RTVSPost2010PropOp45
 70
     1
102
RTVSPost2010Prop46
 90
       50
102
RTVSPost2010PropOp46
 70
     1
102
RTVSPost2010Prop47
 90
       50
102
RTVSPost2010PropOp47
 70
     1
102
RTVSPost2010Prop48
 90
       50
102
RTVSPost2010PropOp48
 70
     1
102
RTVSPost2010Prop49
280
     0
102
RTVSPost2010PropOp49
 70
     1
102
RTVSPost2010Prop50
 90
       50
102
RTVSPost2010PropOp50
 70
     1
102
RTVSPost2010Prop51ColorIndex
 90
      256
102
RTVSPost2010Prop51ColorRGB
 90
-16777216
102
RTVSPost2010PropOp51
 70
     0
102
RTVSPost2010Prop52
140
1.0
102
RTVSPost2010PropOp52
 70
     0
102
RTVSPost2010Prop53
 90
        2
102
RTVSPost2010PropOp53
 70
     1
102
RTVSPost2010Prop54
  1
strokes_ogs.tif
102
RTVSPost2010PropOp54
 70
     1
102
RTVSPost2010Prop55
280
     0
102
RTVSPost2010PropOp55
 70
     1
102
RTVSPost2010Prop56
140
1.0
102
RTVSPost2010PropOp56
 70
     1
102
RTVSPost2010Prop57
140
1.0
102
RTVSPost2010PropOp57
 70
     1
102
RTVSPropertyOp0
 70
     1
102
RTVSPropertyOp1
 70
     1
102
RTVSPropertyOp2
 70
     1
102
RTVSPropertyOp3
 70
     1
102
RTVSPropertyOp4
 70
     1
102
RTVSPropertyOp5
 70
     1
102
RTVSPropertyOp6
 70
     1
102
RTVSPropertyOp7
 70
     1
102
RTVSPropertyOp8
 70
     1
102
RTVSPropertyOp9
 70
     1
102
RTVSPropertyOp10
 70
     1
102
RTVSPropertyOp11
 70
     1
102
RTVSPropertyOp12
 70
     1
102
RTVSPropertyOp13
 70
     1
102
RTVSPropertyOp14
 70
     1
102
RTVSPropertyOp15
 70
     1
102
RTVSPropertyOp16
 70
     1
102
RTVSPropertyOp17
 70
     1
102
RTVSPropertyOp18
 70
     1
102
RTVSPropertyOp19
 70
     1
102
RTVSPropertyOp20
 70
     1
102
RTVSPropertyOp21
 70
     1
102
RTVSPropertyOp22
 70
     1
102
RTVSPropertyOp23
 70
     1
102
RTVSPropertyOp24
 70
     1
102
RTVSPropertyOp25
 70
     1
102
RTVSPropertyOp26
 70
     1
102
RTVSPropertyOp27
 70
     1
102
RTVSPropertyOp28
 70
     1
102
RTVSPropertyOp29
 70
     1
102
RTVSPropertyOp30
 70
     1
102
RTVSPropertyOp31
 70
     1
102
RTVSPropertyOp32
 70
     1
102
RTVSPropertyOp33
 70
     1
102
RTVSPropertyOp34
 70
     1
102
RTVSPropertyOp35
 70
     1
102
RTVSPropertyOp36
 70
     1
102
RTVSPropertyOp37
 70
     1
102
RTVSPropertyOp38
 70
     1
102
RTVSPropertyOp39
 70
     1
102
RTVSPropertyOp40
 70
     1
102
RTVSPropertyOp41
 70
     1
102
RTVSPropertyOp42
 70
     1
102
RTVSPropertyOp43
 70
     1
102
RTVSPropertyOp44
 70
     1
102
RTVSPropertyOp45
 70
     1
102
RTVSPropertyOp46
 70
     1
102
RTVSPropertyOp47
 70
     1
102
RTVSPropertyOp48
 70
     1
102
RTVSPropertyOp49
 70
     1
102
RTVSPropertyOp50
 70
     1
102
RTVSPropertyOp51
 70
     0
102
RTVSPropertyOp52
 70
     0
102
RTVSPropertyOp53
 70
     1
102
RTVSPropertyOp54
 70
     1
102
RTVSPropertyOp55
 70
     1
102
RTVSPropertyOp56
 70
     1
102
RTVSPropertyOp57
 70
     1
102
RTVSPropertyOp58
 70
     1
102
RTVSPropertyOp59
 70
     1
102
RTVSPropertyOp60
 70
     1
102
RTVSPropertyOp61
 70
     1
102
RTVSPropertyOp62
 70
     1
  0
XRECORD
  5
22500
102
{ACAD_REACTORS
330
224FF
102
}
330
224FF
100
AcDbXrecord
280
     1
102
RTVSPost2010Prop28
280
     0
102
RTVSPost2010PropOp28
 70
     1
102
RTVSPost2010Prop29
280
     1
102
RTVSPost2010PropOp29
 70
     1
102
RTVSPost2010Prop30
280
     1
102
RTVSPost2010PropOp30
 70
     1
102
RTVSPost2010Prop31
280
     0
102
RTVSPost2010PropOp31
 70
     1
102
RTVSPost2010Prop32
280
     0
102
RTVSPost2010PropOp32
 70
     1
102
RTVSPost2010Prop33
280
     0
102
RTVSPost2010PropOp33
 70
     1
102
RTVSPost2010Prop34
280
     0
102
RTVSPost2010PropOp34
 70
     1
102
RTVSPost2010Prop35
280
     0
102
RTVSPost2010PropOp35
 70
     1
102
RTVSPost2010Prop36
280
     0
102
RTVSPost2010PropOp36
 70
     1
102
RTVSPost2010Prop37
 90
       50
102
RTVSPost2010PropOp37
 70
     1
102
RTVSPost2010Prop38
140
0.0
102
RTVSPost2010PropOp38
 70
     1
102
RTVSPost2010Prop39
140
1.0
102
RTVSPost2010PropOp39
 70
     1
102
RTVSPost2010Prop40
 90
        0
102
RTVSPost2010PropOp40
 70
     1
102
RTVSPost2010Prop41ColorIndex
 90
       18
102
RTVSPost2010Prop41ColorRGB
 90
        0
102
RTVSPost2010PropOp41
 70
     1
102
RTVSPost2010Prop42
 90
       50
102
RTVSPost2010PropOp42
 70
     1
102
RTVSPost2010Prop43
 90
        3
102
RTVSPost2010PropOp43
 70
     1
102
RTVSPost2010Prop44ColorIndex
 90
        5
102
RTVSPost2010Prop44ColorRGB
 90
      255
102
RTVSPost2010PropOp44
 70
     1
102
RTVSPost2010Prop45
280
     0
102
RTVSPost2010PropOp45
 70
     1
102
RTVSPost2010Prop46
 90
       50
102
RTVSPost2010PropOp46
 70
     1
102
RTVSPost2010Prop47
 90
       50
102
RTVSPost2010PropOp47
 70
     1
102
RTVSPost2010Prop48
 90
       50
102
RTVSPost2010PropOp48
 70
     1
102
RTVSPost2010Prop49
280
     0
102
RTVSPost2010PropOp49
 70
     1
102
RTVSPost2010Prop50
 90
       50
102
RTVSPost2010PropOp50
 70
     1
102
RTVSPost2010Prop51ColorIndex
 90
      256
102
RTVSPost2010Prop51ColorRGB
 90
-16777216
102
RTVSPost2010PropOp51
 70
     0
102
RTVSPost2010Prop52
140
1.0
102
RTVSPost2010PropOp52
 70
     0
102
RTVSPost2010Prop53
 90
        2
102
RTVSPost2010PropOp53
 70
     1
102
RTVSPost2010Prop54
  1
strokes_ogs.tif
102
RTVSPost2010PropOp54
 70
     1
102
RTVSPost2010Prop55
280
     0
102
RTVSPost2010PropOp55
 70
     1
102
RTVSPost2010Prop56
140
1.0
102
RTVSPost2010PropOp56
 70
     1
102
RTVSPost2010Prop57
140
1.0
102
RTVSPost2010PropOp57
 70
     1
102
RTVSPropertyOp0
 70
     1
102
RTVSPropertyOp1
 70
     1
102
RTVSPropertyOp2
 70
     1
102
RTVSPropertyOp3
 70
     1
102
RTVSPropertyOp4
 70
     1
102
RTVSPropertyOp5
 70
     1
102
RTVSPropertyOp6
 70
     1
102
RTVSPropertyOp7
 70
     1
102
RTVSPropertyOp8
 70
     1
102
RTVSPropertyOp9
 70
     1
102
RTVSPropertyOp10
 70
     1
102
RTVSPropertyOp11
 70
     1
102
RTVSPropertyOp12
 70
     1
102
RTVSPropertyOp13
 70
     1
102
RTVSPropertyOp14
 70
     1
102
RTVSPropertyOp15
 70
     1
102
RTVSPropertyOp16
 70
     1
102
RTVSPropertyOp17
 70
     1
102
RTVSPropertyOp18
 70
     1
102
RTVSPropertyOp19
 70
     1
102
RTVSPropertyOp20
 70
     1
102
RTVSPropertyOp21
 70
     1
102
RTVSPropertyOp22
 70
     1
102
RTVSPropertyOp23
 70
     1
102
RTVSPropertyOp24
 70
     1
102
RTVSPropertyOp25
 70
     1
102
RTVSPropertyOp26
 70
     1
102
RTVSPropertyOp27
 70
     1
102
RTVSPropertyOp28
 70
     1
102
RTVSPropertyOp29
 70
     1
102
RTVSPropertyOp30
 70
     1
102
RTVSPropertyOp31
 70
     1
102
RTVSPropertyOp32
 70
     1
102
RTVSPropertyOp33
 70
     1
102
RTVSPropertyOp34
 70
     1
102
RTVSPropertyOp35
 70
     1
102
RTVSPropertyOp36
 70
     1
102
RTVSPropertyOp37
 70
     1
102
RTVSPropertyOp38
 70
     1
102
RTVSPropertyOp39
 70
     1
102
RTVSPropertyOp40
 70
     1
102
RTVSPropertyOp41
 70
     1
102
RTVSPropertyOp42
 70
     1
102
RTVSPropertyOp43
 70
     1
102
RTVSPropertyOp44
 70
     1
102
RTVSPropertyOp45
 70
     1
102
RTVSPropertyOp46
 70
     1
102
RTVSPropertyOp47
 70
     1
102
RTVSPropertyOp48
 70
     1
102
RTVSPropertyOp49
 70
     1
102
RTVSPropertyOp50
 70
     1
102
RTVSPropertyOp51
 70
     0
102
RTVSPropertyOp52
 70
     0
102
RTVSPropertyOp53
 70
     1
102
RTVSPropertyOp54
 70
     1
102
RTVSPropertyOp55
 70
     1
102
RTVSPropertyOp56
 70
     1
102
RTVSPropertyOp57
 70
     1
102
RTVSPropertyOp58
 70
     1
102
RTVSPropertyOp59
 70
     1
102
RTVSPropertyOp60
 70
     1
102
RTVSPropertyOp61
 70
     1
102
RTVSPropertyOp62
 70
     1
  0
XRECORD
  5
224F2
102
{ACAD_REACTORS
330
224F1
102
}
330
224F1
100
AcDbXrecord
280
     1
102
RTVSPost2010Prop28
280
     0
102
RTVSPost2010PropOp28
 70
     1
102
RTVSPost2010Prop29
280
     1
102
RTVSPost2010PropOp29
 70
     1
102
RTVSPost2010Prop30
280
     1
102
RTVSPost2010PropOp30
 70
     1
102
RTVSPost2010Prop31
280
     0
102
RTVSPost2010PropOp31
 70
     1
102
RTVSPost2010Prop32
280
     0
102
RTVSPost2010PropOp32
 70
     1
102
RTVSPost2010Prop33
280
     0
102
RTVSPost2010PropOp33
 70
     1
102
RTVSPost2010Prop34
280
     0
102
RTVSPost2010PropOp34
 70
     1
102
RTVSPost2010Prop35
280
     0
102
RTVSPost2010PropOp35
 70
     1
102
RTVSPost2010Prop36
280
     0
102
RTVSPost2010PropOp36
 70
     1
102
RTVSPost2010Prop37
 90
       50
102
RTVSPost2010PropOp37
 70
     1
102
RTVSPost2010Prop38
140
0.0
102
RTVSPost2010PropOp38
 70
     1
102
RTVSPost2010Prop39
140
1.0
102
RTVSPost2010PropOp39
 70
     1
102
RTVSPost2010Prop40
 90
        0
102
RTVSPost2010PropOp40
 70
     1
102
RTVSPost2010Prop41ColorIndex
 90
       18
102
RTVSPost2010Prop41ColorRGB
 90
        0
102
RTVSPost2010PropOp41
 70
     1
102
RTVSPost2010Prop42
 90
       50
102
RTVSPost2010PropOp42
 70
     1
102
RTVSPost2010Prop43
 90
        3
102
RTVSPost2010PropOp43
 70
     1
102
RTVSPost2010Prop44ColorIndex
 90
        5
102
RTVSPost2010Prop44ColorRGB
 90
      255
102
RTVSPost2010PropOp44
 70
     1
102
RTVSPost2010Prop45
280
     0
102
RTVSPost2010PropOp45
 70
     1
102
RTVSPost2010Prop46
 90
       50
102
RTVSPost2010PropOp46
 70
     1
102
RTVSPost2010Prop47
 90
       50
102
RTVSPost2010PropOp47
 70
     1
102
RTVSPost2010Prop48
 90
       50
102
RTVSPost2010PropOp48
 70
     1
102
RTVSPost2010Prop49
280
     0
102
RTVSPost2010PropOp49
 70
     1
102
RTVSPost2010Prop50
 90
       50
102
RTVSPost2010PropOp50
 70
     1
102
RTVSPost2010Prop51ColorIndex
 90
      256
102
RTVSPost2010Prop51ColorRGB
 90
-16777216
102
RTVSPost2010PropOp51
 70
     0
102
RTVSPost2010Prop52
140
1.0
102
RTVSPost2010PropOp52
 70
     0
102
RTVSPost2010Prop53
 90
        2
102
RTVSPost2010PropOp53
 70
     1
102
RTVSPost2010Prop54
  1
strokes_ogs.tif
102
RTVSPost2010PropOp54
 70
     1
102
RTVSPost2010Prop55
280
     0
102
RTVSPost2010PropOp55
 70
     1
102
RTVSPost2010Prop56
140
1.0
102
RTVSPost2010PropOp56
 70
     1
102
RTVSPost2010Prop57
140
1.0
102
RTVSPost2010PropOp57
 70
     1
102
RTVSPropertyOp0
 70
     1
102
RTVSPropertyOp1
 70
     1
102
RTVSPropertyOp2
 70
     1
102
RTVSPropertyOp3
 70
     1
102
RTVSPropertyOp4
 70
     1
102
RTVSPropertyOp5
 70
     1
102
RTVSPropertyOp6
 70
     1
102
RTVSPropertyOp7
 70
     1
102
RTVSPropertyOp8
 70
     1
102
RTVSPropertyOp9
 70
     1
102
RTVSPropertyOp10
 70
     1
102
RTVSPropertyOp11
 70
     1
102
RTVSPropertyOp12
 70
     1
102
RTVSPropertyOp13
 70
     1
102
RTVSPropertyOp14
 70
     1
102
RTVSPropertyOp15
 70
     1
102
RTVSPropertyOp16
 70
     1
102
RTVSPropertyOp17
 70
     1
102
RTVSPropertyOp18
 70
     1
102
RTVSPropertyOp19
 70
     1
102
RTVSPropertyOp20
 70
     1
102
RTVSPropertyOp21
 70
     1
102
RTVSPropertyOp22
 70
     1
102
RTVSPropertyOp23
 70
     1
102
RTVSPropertyOp24
 70
     1
102
RTVSPropertyOp25
 70
     1
102
RTVSPropertyOp26
 70
     1
102
RTVSPropertyOp27
 70
     1
102
RTVSPropertyOp28
 70
     1
102
RTVSPropertyOp29
 70
     1
102
RTVSPropertyOp30
 70
     1
102
RTVSPropertyOp31
 70
     1
102
RTVSPropertyOp32
 70
     1
102
RTVSPropertyOp33
 70
     1
102
RTVSPropertyOp34
 70
     1
102
RTVSPropertyOp35
 70
     1
102
RTVSPropertyOp36
 70
     1
102
RTVSPropertyOp37
 70
     1
102
RTVSPropertyOp38
 70
     1
102
RTVSPropertyOp39
 70
     1
102
RTVSPropertyOp40
 70
     1
102
RTVSPropertyOp41
 70
     1
102
RTVSPropertyOp42
 70
     1
102
RTVSPropertyOp43
 70
     1
102
RTVSPropertyOp44
 70
     1
102
RTVSPropertyOp45
 70
     1
102
RTVSPropertyOp46
 70
     1
102
RTVSPropertyOp47
 70
     1
102
RTVSPropertyOp48
 70
     1
102
RTVSPropertyOp49
 70
     1
102
RTVSPropertyOp50
 70
     1
102
RTVSPropertyOp51
 70
     0
102
RTVSPropertyOp52
 70
     0
102
RTVSPropertyOp53
 70
     1
102
RTVSPropertyOp54
 70
     1
102
RTVSPropertyOp55
 70
     1
102
RTVSPropertyOp56
 70
     1
102
RTVSPropertyOp57
 70
     1
102
RTVSPropertyOp58
 70
     1
102
RTVSPropertyOp59
 70
     1
102
RTVSPropertyOp60
 70
     1
102
RTVSPropertyOp61
 70
     1
102
RTVSPropertyOp62
 70
     1
  0
XRECORD
  5
224F6
102
{ACAD_REACTORS
330
224F5
102
}
330
224F5
100
AcDbXrecord
280
     1
102
RTVSPost2010Prop28
280
     0
102
RTVSPost2010PropOp28
 70
     1
102
RTVSPost2010Prop29
280
     1
102
RTVSPost2010PropOp29
 70
     1
102
RTVSPost2010Prop30
280
     1
102
RTVSPost2010PropOp30
 70
     1
102
RTVSPost2010Prop31
280
     0
102
RTVSPost2010PropOp31
 70
     1
102
RTVSPost2010Prop32
280
     0
102
RTVSPost2010PropOp32
 70
     1
102
RTVSPost2010Prop33
280
     0
102
RTVSPost2010PropOp33
 70
     1
102
RTVSPost2010Prop34
280
     0
102
RTVSPost2010PropOp34
 70
     1
102
RTVSPost2010Prop35
280
     0
102
RTVSPost2010PropOp35
 70
     1
102
RTVSPost2010Prop36
280
     0
102
RTVSPost2010PropOp36
 70
     1
102
RTVSPost2010Prop37
 90
       50
102
RTVSPost2010PropOp37
 70
     1
102
RTVSPost2010Prop38
140
0.0
102
RTVSPost2010PropOp38
 70
     1
102
RTVSPost2010Prop39
140
1.0
102
RTVSPost2010PropOp39
 70
     1
102
RTVSPost2010Prop40
 90
        0
102
RTVSPost2010PropOp40
 70
     1
102
RTVSPost2010Prop41ColorIndex
 90
       18
102
RTVSPost2010Prop41ColorRGB
 90
        0
102
RTVSPost2010PropOp41
 70
     1
102
RTVSPost2010Prop42
 90
       50
102
RTVSPost2010PropOp42
 70
     1
102
RTVSPost2010Prop43
 90
        3
102
RTVSPost2010PropOp43
 70
     1
102
RTVSPost2010Prop44ColorIndex
 90
        5
102
RTVSPost2010Prop44ColorRGB
 90
      255
102
RTVSPost2010PropOp44
 70
     1
102
RTVSPost2010Prop45
280
     0
102
RTVSPost2010PropOp45
 70
     1
102
RTVSPost2010Prop46
 90
       50
102
RTVSPost2010PropOp46
 70
     1
102
RTVSPost2010Prop47
 90
       50
102
RTVSPost2010PropOp47
 70
     1
102
RTVSPost2010Prop48
 90
       50
102
RTVSPost2010PropOp48
 70
     1
102
RTVSPost2010Prop49
280
     0
102
RTVSPost2010PropOp49
 70
     1
102
RTVSPost2010Prop50
 90
       50
102
RTVSPost2010PropOp50
 70
     1
102
RTVSPost2010Prop51ColorIndex
 90
      256
102
RTVSPost2010Prop51ColorRGB
 90
-16777216
102
RTVSPost2010PropOp51
 70
     0
102
RTVSPost2010Prop52
140
1.0
102
RTVSPost2010PropOp52
 70
     0
102
RTVSPost2010Prop53
 90
        2
102
RTVSPost2010PropOp53
 70
     1
102
RTVSPost2010Prop54
  1
strokes_ogs.tif
102
RTVSPost2010PropOp54
 70
     1
102
RTVSPost2010Prop55
280
     0
102
RTVSPost2010PropOp55
 70
     1
102
RTVSPost2010Prop56
140
1.0
102
RTVSPost2010PropOp56
 70
     1
102
RTVSPost2010Prop57
140
1.0
102
RTVSPost2010PropOp57
 70
     1
102
RTVSPropertyOp0
 70
     1
102
RTVSPropertyOp1
 70
     1
102
RTVSPropertyOp2
 70
     1
102
RTVSPropertyOp3
 70
     1
102
RTVSPropertyOp4
 70
     1
102
RTVSPropertyOp5
 70
     1
102
RTVSPropertyOp6
 70
     1
102
RTVSPropertyOp7
 70
     1
102
RTVSPropertyOp8
 70
     1
102
RTVSPropertyOp9
 70
     1
102
RTVSPropertyOp10
 70
     1
102
RTVSPropertyOp11
 70
     1
102
RTVSPropertyOp12
 70
     1
102
RTVSPropertyOp13
 70
     1
102
RTVSPropertyOp14
 70
     1
102
RTVSPropertyOp15
 70
     1
102
RTVSPropertyOp16
 70
     1
102
RTVSPropertyOp17
 70
     1
102
RTVSPropertyOp18
 70
     1
102
RTVSPropertyOp19
 70
     1
102
RTVSPropertyOp20
 70
     1
102
RTVSPropertyOp21
 70
     1
102
RTVSPropertyOp22
 70
     1
102
RTVSPropertyOp23
 70
     1
102
RTVSPropertyOp24
 70
     1
102
RTVSPropertyOp25
 70
     1
102
RTVSPropertyOp26
 70
     1
102
RTVSPropertyOp27
 70
     1
102
RTVSPropertyOp28
 70
     1
102
RTVSPropertyOp29
 70
     1
102
RTVSPropertyOp30
 70
     1
102
RTVSPropertyOp31
 70
     1
102
RTVSPropertyOp32
 70
     1
102
RTVSPropertyOp33
 70
     1
102
RTVSPropertyOp34
 70
     1
102
RTVSPropertyOp35
 70
     1
102
RTVSPropertyOp36
 70
     1
102
RTVSPropertyOp37
 70
     1
102
RTVSPropertyOp38
 70
     1
102
RTVSPropertyOp39
 70
     1
102
RTVSPropertyOp40
 70
     1
102
RTVSPropertyOp41
 70
     1
102
RTVSPropertyOp42
 70
     1
102
RTVSPropertyOp43
 70
     1
102
RTVSPropertyOp44
 70
     1
102
RTVSPropertyOp45
 70
     1
102
RTVSPropertyOp46
 70
     1
102
RTVSPropertyOp47
 70
     1
102
RTVSPropertyOp48
 70
     1
102
RTVSPropertyOp49
 70
     1
102
RTVSPropertyOp50
 70
     1
102
RTVSPropertyOp51
 70
     0
102
RTVSPropertyOp52
 70
     0
102
RTVSPropertyOp53
 70
     1
102
RTVSPropertyOp54
 70
     1
102
RTVSPropertyOp55
 70
     1
102
RTVSPropertyOp56
 70
     1
102
RTVSPropertyOp57
 70
     1
102
RTVSPropertyOp58
 70
     1
102
RTVSPropertyOp59
 70
     1
102
RTVSPropertyOp60
 70
     1
102
RTVSPropertyOp61
 70
     1
102
RTVSPropertyOp62
 70
     1
  0
XRECORD
  5
22507
102
{ACAD_REACTORS
330
22506
102
}
330
22506
100
AcDbXrecord
280
     1
102
RTVSPost2010Prop28
280
     0
102
RTVSPost2010PropOp28
 70
     1
102
RTVSPost2010Prop29
280
     1
102
RTVSPost2010PropOp29
 70
     1
102
RTVSPost2010Prop30
280
     1
102
RTVSPost2010PropOp30
 70
     1
102
RTVSPost2010Prop31
280
     0
102
RTVSPost2010PropOp31
 70
     1
102
RTVSPost2010Prop32
280
     0
102
RTVSPost2010PropOp32
 70
     1
102
RTVSPost2010Prop33
280
     0
102
RTVSPost2010PropOp33
 70
     1
102
RTVSPost2010Prop34
280
     0
102
RTVSPost2010PropOp34
 70
     1
102
RTVSPost2010Prop35
280
     0
102
RTVSPost2010PropOp35
 70
     1
102
RTVSPost2010Prop36
280
     0
102
RTVSPost2010PropOp36
 70
     1
102
RTVSPost2010Prop37
 90
       50
102
RTVSPost2010PropOp37
 70
     1
102
RTVSPost2010Prop38
140
0.0
102
RTVSPost2010PropOp38
 70
     1
102
RTVSPost2010Prop39
140
1.0
102
RTVSPost2010PropOp39
 70
     1
102
RTVSPost2010Prop40
 90
        0
102
RTVSPost2010PropOp40
 70
     1
102
RTVSPost2010Prop41ColorIndex
 90
       18
102
RTVSPost2010Prop41ColorRGB
 90
        0
102
RTVSPost2010PropOp41
 70
     1
102
RTVSPost2010Prop42
 90
       50
102
RTVSPost2010PropOp42
 70
     1
102
RTVSPost2010Prop43
 90
        3
102
RTVSPost2010PropOp43
 70
     1
102
RTVSPost2010Prop44ColorIndex
 90
        5
102
RTVSPost2010Prop44ColorRGB
 90
      255
102
RTVSPost2010PropOp44
 70
     1
102
RTVSPost2010Prop45
280
     0
102
RTVSPost2010PropOp45
 70
     1
102
RTVSPost2010Prop46
 90
       50
102
RTVSPost2010PropOp46
 70
     1
102
RTVSPost2010Prop47
 90
       50
102
RTVSPost2010PropOp47
 70
     1
102
RTVSPost2010Prop48
 90
       50
102
RTVSPost2010PropOp48
 70
     1
102
RTVSPost2010Prop49
280
     0
102
RTVSPost2010PropOp49
 70
     1
102
RTVSPost2010Prop50
 90
       50
102
RTVSPost2010PropOp50
 70
     1
102
RTVSPost2010Prop51ColorIndex
 90
      256
102
RTVSPost2010Prop51ColorRGB
 90
-16777216
102
RTVSPost2010PropOp51
 70
     0
102
RTVSPost2010Prop52
140
1.0
102
RTVSPost2010PropOp52
 70
     0
102
RTVSPost2010Prop53
 90
        2
102
RTVSPost2010PropOp53
 70
     1
102
RTVSPost2010Prop54
  1
strokes_ogs.tif
102
RTVSPost2010PropOp54
 70
     1
102
RTVSPost2010Prop55
280
     0
102
RTVSPost2010PropOp55
 70
     1
102
RTVSPost2010Prop56
140
1.0
102
RTVSPost2010PropOp56
 70
     1
102
RTVSPost2010Prop57
140
1.0
102
RTVSPost2010PropOp57
 70
     1
102
RTVSPropertyOp0
 70
     0
102
RTVSPropertyOp1
 70
     0
102
RTVSPropertyOp2
 70
     0
102
RTVSPropertyOp3
 70
     0
102
RTVSPropertyOp4
 70
     0
102
RTVSPropertyOp5
 70
     0
102
RTVSPropertyOp6
 70
     0
102
RTVSPropertyOp7
 70
     0
102
RTVSPropertyOp8
 70
     0
102
RTVSPropertyOp9
 70
     0
102
RTVSPropertyOp10
 70
     0
102
RTVSPropertyOp11
 70
     0
102
RTVSPropertyOp12
 70
     0
102
RTVSPropertyOp13
 70
     0
102
RTVSPropertyOp14
 70
     2
102
RTVSPropertyOp15
 70
     0
102
RTVSPropertyOp16
 70
     0
102
RTVSPropertyOp17
 70
     0
102
RTVSPropertyOp18
 70
     0
102
RTVSPropertyOp19
 70
     0
102
RTVSPropertyOp20
 70
     0
102
RTVSPropertyOp21
 70
     0
102
RTVSPropertyOp22
 70
     0
102
RTVSPropertyOp23
 70
     0
102
RTVSPropertyOp24
 70
     0
102
RTVSPropertyOp25
 70
     0
102
RTVSPropertyOp26
 70
     0
102
RTVSPropertyOp27
 70
     0
102
RTVSPropertyOp28
 70
     1
102
RTVSPropertyOp29
 70
     1
102
RTVSPropertyOp30
 70
     1
102
RTVSPropertyOp31
 70
     1
102
RTVSPropertyOp32
 70
     1
102
RTVSPropertyOp33
 70
     1
102
RTVSPropertyOp34
 70
     1
102
RTVSPropertyOp35
 70
     1
102
RTVSPropertyOp36
 70
     1
102
RTVSPropertyOp37
 70
     1
102
RTVSPropertyOp38
 70
     1
102
RTVSPropertyOp39
 70
     1
102
RTVSPropertyOp40
 70
     1
102
RTVSPropertyOp41
 70
     1
102
RTVSPropertyOp42
 70
     1
102
RTVSPropertyOp43
 70
     1
102
RTVSPropertyOp44
 70
     1
102
RTVSPropertyOp45
 70
     1
102
RTVSPropertyOp46
 70
     1
102
RTVSPropertyOp47
 70
     1
102
RTVSPropertyOp48
 70
     1
102
RTVSPropertyOp49
 70
     1
102
RTVSPropertyOp50
 70
     1
102
RTVSPropertyOp51
 70
     0
102
RTVSPropertyOp52
 70
     0
102
RTVSPropertyOp53
 70
     1
102
RTVSPropertyOp54
 70
     1
102
RTVSPropertyOp55
 70
     1
102
RTVSPropertyOp56
 70
     1
102
RTVSPropertyOp57
 70
     1
102
RTVSPropertyOp58
 70
     1
102
RTVSPropertyOp59
 70
     1
102
RTVSPropertyOp60
 70
     1
102
RTVSPropertyOp61
 70
     1
102
RTVSPropertyOp62
 70
     1
  0
XRECORD
  5
224FE
102
{ACAD_REACTORS
330
224FD
102
}
330
224FD
100
AcDbXrecord
280
     1
102
RTVSPost2010Prop28
280
     0
102
RTVSPost2010PropOp28
 70
     1
102
RTVSPost2010Prop29
280
     1
102
RTVSPost2010PropOp29
 70
     1
102
RTVSPost2010Prop30
280
     1
102
RTVSPost2010PropOp30
 70
     1
102
RTVSPost2010Prop31
280
     0
102
RTVSPost2010PropOp31
 70
     1
102
RTVSPost2010Prop32
280
     0
102
RTVSPost2010PropOp32
 70
     1
102
RTVSPost2010Prop33
280
     0
102
RTVSPost2010PropOp33
 70
     1
102
RTVSPost2010Prop34
280
     0
102
RTVSPost2010PropOp34
 70
     1
102
RTVSPost2010Prop35
280
     0
102
RTVSPost2010PropOp35
 70
     1
102
RTVSPost2010Prop36
280
     0
102
RTVSPost2010PropOp36
 70
     1
102
RTVSPost2010Prop37
 90
       50
102
RTVSPost2010PropOp37
 70
     1
102
RTVSPost2010Prop38
140
0.0
102
RTVSPost2010PropOp38
 70
     1
102
RTVSPost2010Prop39
140
1.0
102
RTVSPost2010PropOp39
 70
     1
102
RTVSPost2010Prop40
 90
        0
102
RTVSPost2010PropOp40
 70
     1
102
RTVSPost2010Prop41ColorIndex
 90
       18
102
RTVSPost2010Prop41ColorRGB
 90
        0
102
RTVSPost2010PropOp41
 70
     1
102
RTVSPost2010Prop42
 90
       50
102
RTVSPost2010PropOp42
 70
     1
102
RTVSPost2010Prop43
 90
        3
102
RTVSPost2010PropOp43
 70
     1
102
RTVSPost2010Prop44ColorIndex
 90
        5
102
RTVSPost2010Prop44ColorRGB
 90
      255
102
RTVSPost2010PropOp44
 70
     1
102
RTVSPost2010Prop45
280
     0
102
RTVSPost2010PropOp45
 70
     1
102
RTVSPost2010Prop46
 90
       50
102
RTVSPost2010PropOp46
 70
     1
102
RTVSPost2010Prop47
 90
       50
102
RTVSPost2010PropOp47
 70
     1
102
RTVSPost2010Prop48
 90
       50
102
RTVSPost2010PropOp48
 70
     1
102
RTVSPost2010Prop49
280
     0
102
RTVSPost2010PropOp49
 70
     1
102
RTVSPost2010Prop50
 90
       50
102
RTVSPost2010PropOp50
 70
     1
102
RTVSPost2010Prop51ColorIndex
 90
      256
102
RTVSPost2010Prop51ColorRGB
 90
-16777216
102
RTVSPost2010PropOp51
 70
     0
102
RTVSPost2010Prop52
140
1.0
102
RTVSPost2010PropOp52
 70
     0
102
RTVSPost2010Prop53
 90
        2
102
RTVSPost2010PropOp53
 70
     1
102
RTVSPost2010Prop54
  1
strokes_ogs.tif
102
RTVSPost2010PropOp54
 70
     1
102
RTVSPost2010Prop55
280
     0
102
RTVSPost2010PropOp55
 70
     1
102
RTVSPost2010Prop56
140
1.0
102
RTVSPost2010PropOp56
 70
     1
102
RTVSPost2010Prop57
140
1.0
102
RTVSPost2010PropOp57
 70
     1
102
RTVSPropertyOp0
 70
     1
102
RTVSPropertyOp1
 70
     1
102
RTVSPropertyOp2
 70
     1
102
RTVSPropertyOp3
 70
     1
102
RTVSPropertyOp4
 70
     1
102
RTVSPropertyOp5
 70
     1
102
RTVSPropertyOp6
 70
     1
102
RTVSPropertyOp7
 70
     1
102
RTVSPropertyOp8
 70
     1
102
RTVSPropertyOp9
 70
     1
102
RTVSPropertyOp10
 70
     1
102
RTVSPropertyOp11
 70
     1
102
RTVSPropertyOp12
 70
     1
102
RTVSPropertyOp13
 70
     1
102
RTVSPropertyOp14
 70
     1
102
RTVSPropertyOp15
 70
     1
102
RTVSPropertyOp16
 70
     1
102
RTVSPropertyOp17
 70
     1
102
RTVSPropertyOp18
 70
     1
102
RTVSPropertyOp19
 70
     1
102
RTVSPropertyOp20
 70
     1
102
RTVSPropertyOp21
 70
     1
102
RTVSPropertyOp22
 70
     1
102
RTVSPropertyOp23
 70
     1
102
RTVSPropertyOp24
 70
     1
102
RTVSPropertyOp25
 70
     1
102
RTVSPropertyOp26
 70
     1
102
RTVSPropertyOp27
 70
     1
102
RTVSPropertyOp28
 70
     1
102
RTVSPropertyOp29
 70
     1
102
RTVSPropertyOp30
 70
     1
102
RTVSPropertyOp31
 70
     1
102
RTVSPropertyOp32
 70
     1
102
RTVSPropertyOp33
 70
     1
102
RTVSPropertyOp34
 70
     1
102
RTVSPropertyOp35
 70
     1
102
RTVSPropertyOp36
 70
     1
102
RTVSPropertyOp37
 70
     1
102
RTVSPropertyOp38
 70
     1
102
RTVSPropertyOp39
 70
     1
102
RTVSPropertyOp40
 70
     1
102
RTVSPropertyOp41
 70
     1
102
RTVSPropertyOp42
 70
     1
102
RTVSPropertyOp43
 70
     1
102
RTVSPropertyOp44
 70
     1
102
RTVSPropertyOp45
 70
     1
102
RTVSPropertyOp46
 70
     1
102
RTVSPropertyOp47
 70
     1
102
RTVSPropertyOp48
 70
     1
102
RTVSPropertyOp49
 70
     1
102
RTVSPropertyOp50
 70
     1
102
RTVSPropertyOp51
 70
     0
102
RTVSPropertyOp52
 70
     0
102
RTVSPropertyOp53
 70
     1
102
RTVSPropertyOp54
 70
     1
102
RTVSPropertyOp55
 70
     1
102
RTVSPropertyOp56
 70
     1
102
RTVSPropertyOp57
 70
     1
102
RTVSPropertyOp58
 70
     1
102
RTVSPropertyOp59
 70
     1
102
RTVSPropertyOp60
 70
     1
102
RTVSPropertyOp61
 70
     1
102
RTVSPropertyOp62
 70
     1
  0
XRECORD
  5
224E2
102
{ACAD_REACTORS
330
224E1
102
}
330
224E1
100
AcDbXrecord
280
     1
102
RTVSPost2010Prop28
280
     0
102
RTVSPost2010PropOp28
 70
     1
102
RTVSPost2010Prop29
280
     1
102
RTVSPost2010PropOp29
 70
     1
102
RTVSPost2010Prop30
280
     1
102
RTVSPost2010PropOp30
 70
     1
102
RTVSPost2010Prop31
280
     0
102
RTVSPost2010PropOp31
 70
     1
102
RTVSPost2010Prop32
280
     0
102
RTVSPost2010PropOp32
 70
     1
102
RTVSPost2010Prop33
280
     0
102
RTVSPost2010PropOp33
 70
     1
102
RTVSPost2010Prop34
280
     0
102
RTVSPost2010PropOp34
 70
     1
102
RTVSPost2010Prop35
280
     0
102
RTVSPost2010PropOp35
 70
     1
102
RTVSPost2010Prop36
280
     0
102
RTVSPost2010PropOp36
 70
     1
102
RTVSPost2010Prop37
 90
       50
102
RTVSPost2010PropOp37
 70
     1
102
RTVSPost2010Prop38
140
0.0
102
RTVSPost2010PropOp38
 70
     1
102
RTVSPost2010Prop39
140
1.0
102
RTVSPost2010PropOp39
 70
     1
102
RTVSPost2010Prop40
 90
        0
102
RTVSPost2010PropOp40
 70
     1
102
RTVSPost2010Prop41ColorIndex
 90
       18
102
RTVSPost2010Prop41ColorRGB
 90
        0
102
RTVSPost2010PropOp41
 70
     1
102
RTVSPost2010Prop42
 90
       50
102
RTVSPost2010PropOp42
 70
     1
102
RTVSPost2010Prop43
 90
        3
102
RTVSPost2010PropOp43
 70
     1
102
RTVSPost2010Prop44ColorIndex
 90
        5
102
RTVSPost2010Prop44ColorRGB
 90
      255
102
RTVSPost2010PropOp44
 70
     1
102
RTVSPost2010Prop45
280
     0
102
RTVSPost2010PropOp45
 70
     1
102
RTVSPost2010Prop46
 90
       50
102
RTVSPost2010PropOp46
 70
     1
102
RTVSPost2010Prop47
 90
       50
102
RTVSPost2010PropOp47
 70
     1
102
RTVSPost2010Prop48
 90
       50
102
RTVSPost2010PropOp48
 70
     1
102
RTVSPost2010Prop49
280
     0
102
RTVSPost2010PropOp49
 70
     1
102
RTVSPost2010Prop50
 90
       50
102
RTVSPost2010PropOp50
 70
     1
102
RTVSPost2010Prop51ColorIndex
 90
      256
102
RTVSPost2010Prop51ColorRGB
 90
-16777216
102
RTVSPost2010PropOp51
 70
     0
102
RTVSPost2010Prop52
140
1.0
102
RTVSPost2010PropOp52
 70
     0
102
RTVSPost2010Prop53
 90
        2
102
RTVSPost2010PropOp53
 70
     1
102
RTVSPost2010Prop54
  1
strokes_ogs.tif
102
RTVSPost2010PropOp54
 70
     1
102
RTVSPost2010Prop55
280
     0
102
RTVSPost2010PropOp55
 70
     1
102
RTVSPost2010Prop56
140
1.0
102
RTVSPost2010PropOp56
 70
     1
102
RTVSPost2010Prop57
140
1.0
102
RTVSPost2010PropOp57
 70
     1
102
RTVSPropertyOp0
 70
     1
102
RTVSPropertyOp1
 70
     1
102
RTVSPropertyOp2
 70
     1
102
RTVSPropertyOp3
 70
     1
102
RTVSPropertyOp4
 70
     1
102
RTVSPropertyOp5
 70
     1
102
RTVSPropertyOp6
 70
     1
102
RTVSPropertyOp7
 70
     1
102
RTVSPropertyOp8
 70
     1
102
RTVSPropertyOp9
 70
     1
102
RTVSPropertyOp10
 70
     1
102
RTVSPropertyOp11
 70
     1
102
RTVSPropertyOp12
 70
     1
102
RTVSPropertyOp13
 70
     1
102
RTVSPropertyOp14
 70
     1
102
RTVSPropertyOp15
 70
     1
102
RTVSPropertyOp16
 70
     1
102
RTVSPropertyOp17
 70
     1
102
RTVSPropertyOp18
 70
     1
102
RTVSPropertyOp19
 70
     1
102
RTVSPropertyOp20
 70
     1
102
RTVSPropertyOp21
 70
     1
102
RTVSPropertyOp22
 70
     1
102
RTVSPropertyOp23
 70
     1
102
RTVSPropertyOp24
 70
     1
102
RTVSPropertyOp25
 70
     1
102
RTVSPropertyOp26
 70
     1
102
RTVSPropertyOp27
 70
     1
102
RTVSPropertyOp28
 70
     1
102
RTVSPropertyOp29
 70
     1
102
RTVSPropertyOp30
 70
     1
102
RTVSPropertyOp31
 70
     1
102
RTVSPropertyOp32
 70
     1
102
RTVSPropertyOp33
 70
     1
102
RTVSPropertyOp34
 70
     1
102
RTVSPropertyOp35
 70
     1
102
RTVSPropertyOp36
 70
     1
102
RTVSPropertyOp37
 70
     1
102
RTVSPropertyOp38
 70
     1
102
RTVSPropertyOp39
 70
     1
102
RTVSPropertyOp40
 70
     1
102
RTVSPropertyOp41
 70
     1
102
RTVSPropertyOp42
 70
     1
102
RTVSPropertyOp43
 70
     1
102
RTVSPropertyOp44
 70
     1
102
RTVSPropertyOp45
 70
     1
102
RTVSPropertyOp46
 70
     1
102
RTVSPropertyOp47
 70
     1
102
RTVSPropertyOp48
 70
     1
102
RTVSPropertyOp49
 70
     1
102
RTVSPropertyOp50
 70
     1
102
RTVSPropertyOp51
 70
     0
102
RTVSPropertyOp52
 70
     0
102
RTVSPropertyOp53
 70
     1
102
RTVSPropertyOp54
 70
     1
102
RTVSPropertyOp55
 70
     1
102
RTVSPropertyOp56
 70
     1
102
RTVSPropertyOp57
 70
     1
102
RTVSPropertyOp58
 70
     1
102
RTVSPropertyOp59
 70
     1
102
RTVSPropertyOp60
 70
     1
102
RTVSPropertyOp61
 70
     1
102
RTVSPropertyOp62
 70
     1
  0
XRECORD
  5
224E4
102
{ACAD_REACTORS
330
224E3
102
}
330
224E3
100
AcDbXrecord
280
     1
102
RTVSPost2010Prop28
280
     0
102
RTVSPost2010PropOp28
 70
     1
102
RTVSPost2010Prop29
280
     1
102
RTVSPost2010PropOp29
 70
     1
102
RTVSPost2010Prop30
280
     1
102
RTVSPost2010PropOp30
 70
     1
102
RTVSPost2010Prop31
280
     0
102
RTVSPost2010PropOp31
 70
     1
102
RTVSPost2010Prop32
280
     0
102
RTVSPost2010PropOp32
 70
     1
102
RTVSPost2010Prop33
280
     0
102
RTVSPost2010PropOp33
 70
     1
102
RTVSPost2010Prop34
280
     0
102
RTVSPost2010PropOp34
 70
     1
102
RTVSPost2010Prop35
280
     0
102
RTVSPost2010PropOp35
 70
     1
102
RTVSPost2010Prop36
280
     0
102
RTVSPost2010PropOp36
 70
     1
102
RTVSPost2010Prop37
 90
       50
102
RTVSPost2010PropOp37
 70
     1
102
RTVSPost2010Prop38
140
0.0
102
RTVSPost2010PropOp38
 70
     1
102
RTVSPost2010Prop39
140
1.0
102
RTVSPost2010PropOp39
 70
     1
102
RTVSPost2010Prop40
 90
        0
102
RTVSPost2010PropOp40
 70
     1
102
RTVSPost2010Prop41ColorIndex
 90
       18
102
RTVSPost2010Prop41ColorRGB
 90
        0
102
RTVSPost2010PropOp41
 70
     1
102
RTVSPost2010Prop42
 90
       50
102
RTVSPost2010PropOp42
 70
     1
102
RTVSPost2010Prop43
 90
        3
102
RTVSPost2010PropOp43
 70
     1
102
RTVSPost2010Prop44ColorIndex
 90
        5
102
RTVSPost2010Prop44ColorRGB
 90
      255
102
RTVSPost2010PropOp44
 70
     1
102
RTVSPost2010Prop45
280
     0
102
RTVSPost2010PropOp45
 70
     1
102
RTVSPost2010Prop46
 90
       50
102
RTVSPost2010PropOp46
 70
     1
102
RTVSPost2010Prop47
 90
       50
102
RTVSPost2010PropOp47
 70
     1
102
RTVSPost2010Prop48
 90
       50
102
RTVSPost2010PropOp48
 70
     1
102
RTVSPost2010Prop49
280
     0
102
RTVSPost2010PropOp49
 70
     1
102
RTVSPost2010Prop50
 90
       50
102
RTVSPost2010PropOp50
 70
     1
102
RTVSPost2010Prop51ColorIndex
 90
      256
102
RTVSPost2010Prop51ColorRGB
 90
-16777216
102
RTVSPost2010PropOp51
 70
     0
102
RTVSPost2010Prop52
140
1.0
102
RTVSPost2010PropOp52
 70
     0
102
RTVSPost2010Prop53
 90
        2
102
RTVSPost2010PropOp53
 70
     1
102
RTVSPost2010Prop54
  1
strokes_ogs.tif
102
RTVSPost2010PropOp54
 70
     1
102
RTVSPost2010Prop55
280
     0
102
RTVSPost2010PropOp55
 70
     1
102
RTVSPost2010Prop56
140
1.0
102
RTVSPost2010PropOp56
 70
     1
102
RTVSPost2010Prop57
140
1.0
102
RTVSPost2010PropOp57
 70
     1
102
RTVSPropertyOp0
 70
     1
102
RTVSPropertyOp1
 70
     1
102
RTVSPropertyOp2
 70
     1
102
RTVSPropertyOp3
 70
     1
102
RTVSPropertyOp4
 70
     1
102
RTVSPropertyOp5
 70
     1
102
RTVSPropertyOp6
 70
     1
102
RTVSPropertyOp7
 70
     1
102
RTVSPropertyOp8
 70
     1
102
RTVSPropertyOp9
 70
     1
102
RTVSPropertyOp10
 70
     1
102
RTVSPropertyOp11
 70
     1
102
RTVSPropertyOp12
 70
     1
102
RTVSPropertyOp13
 70
     1
102
RTVSPropertyOp14
 70
     1
102
RTVSPropertyOp15
 70
     1
102
RTVSPropertyOp16
 70
     1
102
RTVSPropertyOp17
 70
     1
102
RTVSPropertyOp18
 70
     1
102
RTVSPropertyOp19
 70
     1
102
RTVSPropertyOp20
 70
     1
102
RTVSPropertyOp21
 70
     1
102
RTVSPropertyOp22
 70
     1
102
RTVSPropertyOp23
 70
     1
102
RTVSPropertyOp24
 70
     1
102
RTVSPropertyOp25
 70
     1
102
RTVSPropertyOp26
 70
     1
102
RTVSPropertyOp27
 70
     1
102
RTVSPropertyOp28
 70
     1
102
RTVSPropertyOp29
 70
     1
102
RTVSPropertyOp30
 70
     1
102
RTVSPropertyOp31
 70
     1
102
RTVSPropertyOp32
 70
     1
102
RTVSPropertyOp33
 70
     1
102
RTVSPropertyOp34
 70
     1
102
RTVSPropertyOp35
 70
     1
102
RTVSPropertyOp36
 70
     1
102
RTVSPropertyOp37
 70
     1
102
RTVSPropertyOp38
 70
     1
102
RTVSPropertyOp39
 70
     1
102
RTVSPropertyOp40
 70
     1
102
RTVSPropertyOp41
 70
     1
102
RTVSPropertyOp42
 70
     1
102
RTVSPropertyOp43
 70
     1
102
RTVSPropertyOp44
 70
     1
102
RTVSPropertyOp45
 70
     1
102
RTVSPropertyOp46
 70
     1
102
RTVSPropertyOp47
 70
     1
102
RTVSPropertyOp48
 70
     1
102
RTVSPropertyOp49
 70
     1
102
RTVSPropertyOp50
 70
     1
102
RTVSPropertyOp51
 70
     0
102
RTVSPropertyOp52
 70
     0
102
RTVSPropertyOp53
 70
     1
102
RTVSPropertyOp54
 70
     1
102
RTVSPropertyOp55
 70
     1
102
RTVSPropertyOp56
 70
     1
102
RTVSPropertyOp57
 70
     1
102
RTVSPropertyOp58
 70
     1
102
RTVSPropertyOp59
 70
     1
102
RTVSPropertyOp60
 70
     1
102
RTVSPropertyOp61
 70
     1
102
RTVSPropertyOp62
 70
     1
  0
XRECORD
  5
224E6
102
{ACAD_REACTORS
330
224E5
102
}
330
224E5
100
AcDbXrecord
280
     1
102
RTVSPost2010Prop28
280
     0
102
RTVSPost2010PropOp28
 70
     1
102
RTVSPost2010Prop29
280
     1
102
RTVSPost2010PropOp29
 70
     1
102
RTVSPost2010Prop30
280
     1
102
RTVSPost2010PropOp30
 70
     1
102
RTVSPost2010Prop31
280
     0
102
RTVSPost2010PropOp31
 70
     1
102
RTVSPost2010Prop32
280
     0
102
RTVSPost2010PropOp32
 70
     1
102
RTVSPost2010Prop33
280
     0
102
RTVSPost2010PropOp33
 70
     1
102
RTVSPost2010Prop34
280
     0
102
RTVSPost2010PropOp34
 70
     1
102
RTVSPost2010Prop35
280
     0
102
RTVSPost2010PropOp35
 70
     1
102
RTVSPost2010Prop36
280
     0
102
RTVSPost2010PropOp36
 70
     1
102
RTVSPost2010Prop37
 90
       50
102
RTVSPost2010PropOp37
 70
     1
102
RTVSPost2010Prop38
140
0.0
102
RTVSPost2010PropOp38
 70
     1
102
RTVSPost2010Prop39
140
1.0
102
RTVSPost2010PropOp39
 70
     1
102
RTVSPost2010Prop40
 90
        0
102
RTVSPost2010PropOp40
 70
     1
102
RTVSPost2010Prop41ColorIndex
 90
       18
102
RTVSPost2010Prop41ColorRGB
 90
        0
102
RTVSPost2010PropOp41
 70
     1
102
RTVSPost2010Prop42
 90
       50
102
RTVSPost2010PropOp42
 70
     1
102
RTVSPost2010Prop43
 90
        3
102
RTVSPost2010PropOp43
 70
     1
102
RTVSPost2010Prop44ColorIndex
 90
        5
102
RTVSPost2010Prop44ColorRGB
 90
      255
102
RTVSPost2010PropOp44
 70
     1
102
RTVSPost2010Prop45
280
     0
102
RTVSPost2010PropOp45
 70
     1
102
RTVSPost2010Prop46
 90
       50
102
RTVSPost2010PropOp46
 70
     1
102
RTVSPost2010Prop47
 90
       50
102
RTVSPost2010PropOp47
 70
     1
102
RTVSPost2010Prop48
 90
       50
102
RTVSPost2010PropOp48
 70
     1
102
RTVSPost2010Prop49
280
     0
102
RTVSPost2010PropOp49
 70
     1
102
RTVSPost2010Prop50
 90
       50
102
RTVSPost2010PropOp50
 70
     1
102
RTVSPost2010Prop51ColorIndex
 90
      256
102
RTVSPost2010Prop51ColorRGB
 90
-16777216
102
RTVSPost2010PropOp51
 70
     0
102
RTVSPost2010Prop52
140
1.0
102
RTVSPost2010PropOp52
 70
     0
102
RTVSPost2010Prop53
 90
        2
102
RTVSPost2010PropOp53
 70
     1
102
RTVSPost2010Prop54
  1
strokes_ogs.tif
102
RTVSPost2010PropOp54
 70
     1
102
RTVSPost2010Prop55
280
     0
102
RTVSPost2010PropOp55
 70
     1
102
RTVSPost2010Prop56
140
1.0
102
RTVSPost2010PropOp56
 70
     1
102
RTVSPost2010Prop57
140
1.0
102
RTVSPost2010PropOp57
 70
     1
102
RTVSPropertyOp0
 70
     1
102
RTVSPropertyOp1
 70
     1
102
RTVSPropertyOp2
 70
     1
102
RTVSPropertyOp3
 70
     1
102
RTVSPropertyOp4
 70
     1
102
RTVSPropertyOp5
 70
     1
102
RTVSPropertyOp6
 70
     1
102
RTVSPropertyOp7
 70
     1
102
RTVSPropertyOp8
 70
     1
102
RTVSPropertyOp9
 70
     1
102
RTVSPropertyOp10
 70
     1
102
RTVSPropertyOp11
 70
     1
102
RTVSPropertyOp12
 70
     1
102
RTVSPropertyOp13
 70
     1
102
RTVSPropertyOp14
 70
     1
102
RTVSPropertyOp15
 70
     1
102
RTVSPropertyOp16
 70
     1
102
RTVSPropertyOp17
 70
     1
102
RTVSPropertyOp18
 70
     1
102
RTVSPropertyOp19
 70
     1
102
RTVSPropertyOp20
 70
     1
102
RTVSPropertyOp21
 70
     1
102
RTVSPropertyOp22
 70
     1
102
RTVSPropertyOp23
 70
     1
102
RTVSPropertyOp24
 70
     1
102
RTVSPropertyOp25
 70
     1
102
RTVSPropertyOp26
 70
     1
102
RTVSPropertyOp27
 70
     1
102
RTVSPropertyOp28
 70
     1
102
RTVSPropertyOp29
 70
     1
102
RTVSPropertyOp30
 70
     1
102
RTVSPropertyOp31
 70
     1
102
RTVSPropertyOp32
 70
     1
102
RTVSPropertyOp33
 70
     1
102
RTVSPropertyOp34
 70
     1
102
RTVSPropertyOp35
 70
     1
102
RTVSPropertyOp36
 70
     1
102
RTVSPropertyOp37
 70
     1
102
RTVSPropertyOp38
 70
     1
102
RTVSPropertyOp39
 70
     1
102
RTVSPropertyOp40
 70
     1
102
RTVSPropertyOp41
 70
     1
102
RTVSPropertyOp42
 70
     1
102
RTVSPropertyOp43
 70
     1
102
RTVSPropertyOp44
 70
     1
102
RTVSPropertyOp45
 70
     1
102
RTVSPropertyOp46
 70
     1
102
RTVSPropertyOp47
 70
     1
102
RTVSPropertyOp48
 70
     1
102
RTVSPropertyOp49
 70
     1
102
RTVSPropertyOp50
 70
     1
102
RTVSPropertyOp51
 70
     0
102
RTVSPropertyOp52
 70
     0
102
RTVSPropertyOp53
 70
     1
102
RTVSPropertyOp54
 70
     1
102
RTVSPropertyOp55
 70
     1
102
RTVSPropertyOp56
 70
     1
102
RTVSPropertyOp57
 70
     1
102
RTVSPropertyOp58
 70
     1
102
RTVSPropertyOp59
 70
     1
102
RTVSPropertyOp60
 70
     1
102
RTVSPropertyOp61
 70
     1
102
RTVSPropertyOp62
 70
     1
  0
XRECORD
  5
224E8
102
{ACAD_REACTORS
330
224E7
102
}
330
224E7
100
AcDbXrecord
280
     1
102
RTVSPost2010Prop28
280
     0
102
RTVSPost2010PropOp28
 70
     1
102
RTVSPost2010Prop29
280
     1
102
RTVSPost2010PropOp29
 70
     1
102
RTVSPost2010Prop30
280
     1
102
RTVSPost2010PropOp30
 70
     1
102
RTVSPost2010Prop31
280
     0
102
RTVSPost2010PropOp31
 70
     1
102
RTVSPost2010Prop32
280
     0
102
RTVSPost2010PropOp32
 70
     1
102
RTVSPost2010Prop33
280
     0
102
RTVSPost2010PropOp33
 70
     1
102
RTVSPost2010Prop34
280
     0
102
RTVSPost2010PropOp34
 70
     1
102
RTVSPost2010Prop35
280
     0
102
RTVSPost2010PropOp35
 70
     1
102
RTVSPost2010Prop36
280
     0
102
RTVSPost2010PropOp36
 70
     1
102
RTVSPost2010Prop37
 90
       50
102
RTVSPost2010PropOp37
 70
     1
102
RTVSPost2010Prop38
140
0.0
102
RTVSPost2010PropOp38
 70
     1
102
RTVSPost2010Prop39
140
1.0
102
RTVSPost2010PropOp39
 70
     1
102
RTVSPost2010Prop40
 90
        0
102
RTVSPost2010PropOp40
 70
     1
102
RTVSPost2010Prop41ColorIndex
 90
       18
102
RTVSPost2010Prop41ColorRGB
 90
        0
102
RTVSPost2010PropOp41
 70
     1
102
RTVSPost2010Prop42
 90
       50
102
RTVSPost2010PropOp42
 70
     1
102
RTVSPost2010Prop43
 90
        3
102
RTVSPost2010PropOp43
 70
     1
102
RTVSPost2010Prop44ColorIndex
 90
        5
102
RTVSPost2010Prop44ColorRGB
 90
      255
102
RTVSPost2010PropOp44
 70
     1
102
RTVSPost2010Prop45
280
     0
102
RTVSPost2010PropOp45
 70
     1
102
RTVSPost2010Prop46
 90
       50
102
RTVSPost2010PropOp46
 70
     1
102
RTVSPost2010Prop47
 90
       50
102
RTVSPost2010PropOp47
 70
     1
102
RTVSPost2010Prop48
 90
       50
102
RTVSPost2010PropOp48
 70
     1
102
RTVSPost2010Prop49
280
     0
102
RTVSPost2010PropOp49
 70
     1
102
RTVSPost2010Prop50
 90
       50
102
RTVSPost2010PropOp50
 70
     1
102
RTVSPost2010Prop51ColorIndex
 90
      256
102
RTVSPost2010Prop51ColorRGB
 90
-16777216
102
RTVSPost2010PropOp51
 70
     0
102
RTVSPost2010Prop52
140
1.0
102
RTVSPost2010PropOp52
 70
     0
102
RTVSPost2010Prop53
 90
        2
102
RTVSPost2010PropOp53
 70
     1
102
RTVSPost2010Prop54
  1
strokes_ogs.tif
102
RTVSPost2010PropOp54
 70
     1
102
RTVSPost2010Prop55
280
     0
102
RTVSPost2010PropOp55
 70
     1
102
RTVSPost2010Prop56
140
1.0
102
RTVSPost2010PropOp56
 70
     1
102
RTVSPost2010Prop57
140
1.0
102
RTVSPost2010PropOp57
 70
     1
102
RTVSPropertyOp0
 70
     1
102
RTVSPropertyOp1
 70
     1
102
RTVSPropertyOp2
 70
     1
102
RTVSPropertyOp3
 70
     1
102
RTVSPropertyOp4
 70
     1
102
RTVSPropertyOp5
 70
     1
102
RTVSPropertyOp6
 70
     1
102
RTVSPropertyOp7
 70
     1
102
RTVSPropertyOp8
 70
     1
102
RTVSPropertyOp9
 70
     1
102
RTVSPropertyOp10
 70
     1
102
RTVSPropertyOp11
 70
     1
102
RTVSPropertyOp12
 70
     1
102
RTVSPropertyOp13
 70
     1
102
RTVSPropertyOp14
 70
     1
102
RTVSPropertyOp15
 70
     1
102
RTVSPropertyOp16
 70
     1
102
RTVSPropertyOp17
 70
     1
102
RTVSPropertyOp18
 70
     1
102
RTVSPropertyOp19
 70
     1
102
RTVSPropertyOp20
 70
     1
102
RTVSPropertyOp21
 70
     1
102
RTVSPropertyOp22
 70
     1
102
RTVSPropertyOp23
 70
     1
102
RTVSPropertyOp24
 70
     1
102
RTVSPropertyOp25
 70
     1
102
RTVSPropertyOp26
 70
     1
102
RTVSPropertyOp27
 70
     1
102
RTVSPropertyOp28
 70
     1
102
RTVSPropertyOp29
 70
     1
102
RTVSPropertyOp30
 70
     1
102
RTVSPropertyOp31
 70
     1
102
RTVSPropertyOp32
 70
     1
102
RTVSPropertyOp33
 70
     1
102
RTVSPropertyOp34
 70
     1
102
RTVSPropertyOp35
 70
     1
102
RTVSPropertyOp36
 70
     1
102
RTVSPropertyOp37
 70
     1
102
RTVSPropertyOp38
 70
     1
102
RTVSPropertyOp39
 70
     1
102
RTVSPropertyOp40
 70
     1
102
RTVSPropertyOp41
 70
     1
102
RTVSPropertyOp42
 70
     1
102
RTVSPropertyOp43
 70
     1
102
RTVSPropertyOp44
 70
     1
102
RTVSPropertyOp45
 70
     1
102
RTVSPropertyOp46
 70
     1
102
RTVSPropertyOp47
 70
     1
102
RTVSPropertyOp48
 70
     1
102
RTVSPropertyOp49
 70
     1
102
RTVSPropertyOp50
 70
     1
102
RTVSPropertyOp51
 70
     0
102
RTVSPropertyOp52
 70
     0
102
RTVSPropertyOp53
 70
     1
102
RTVSPropertyOp54
 70
     1
102
RTVSPropertyOp55
 70
     1
102
RTVSPropertyOp56
 70
     1
102
RTVSPropertyOp57
 70
     1
102
RTVSPropertyOp58
 70
     1
102
RTVSPropertyOp59
 70
     1
102
RTVSPropertyOp60
 70
     1
102
RTVSPropertyOp61
 70
     1
102
RTVSPropertyOp62
 70
     1
  0
XRECORD
  5
2250B
102
{ACAD_REACTORS
330
2250A
102
}
330
2250A
100
AcDbXrecord
280
     1
102
RTVSPost2010Prop28
280
     0
102
RTVSPost2010PropOp28
 70
     1
102
RTVSPost2010Prop29
280
     1
102
RTVSPost2010PropOp29
 70
     1
102
RTVSPost2010Prop30
280
     1
102
RTVSPost2010PropOp30
 70
     1
102
RTVSPost2010Prop31
280
     0
102
RTVSPost2010PropOp31
 70
     1
102
RTVSPost2010Prop32
280
     0
102
RTVSPost2010PropOp32
 70
     1
102
RTVSPost2010Prop33
280
     0
102
RTVSPost2010PropOp33
 70
     1
102
RTVSPost2010Prop34
280
     0
102
RTVSPost2010PropOp34
 70
     1
102
RTVSPost2010Prop35
280
     0
102
RTVSPost2010PropOp35
 70
     1
102
RTVSPost2010Prop36
280
     0
102
RTVSPost2010PropOp36
 70
     1
102
RTVSPost2010Prop37
 90
       50
102
RTVSPost2010PropOp37
 70
     1
102
RTVSPost2010Prop38
140
0.0
102
RTVSPost2010PropOp38
 70
     1
102
RTVSPost2010Prop39
140
1.0
102
RTVSPost2010PropOp39
 70
     1
102
RTVSPost2010Prop40
 90
        0
102
RTVSPost2010PropOp40
 70
     1
102
RTVSPost2010Prop41ColorIndex
 90
       18
102
RTVSPost2010Prop41ColorRGB
 90
        0
102
RTVSPost2010PropOp41
 70
     1
102
RTVSPost2010Prop42
 90
       50
102
RTVSPost2010PropOp42
 70
     1
102
RTVSPost2010Prop43
 90
        3
102
RTVSPost2010PropOp43
 70
     1
102
RTVSPost2010Prop44ColorIndex
 90
        5
102
RTVSPost2010Prop44ColorRGB
 90
      255
102
RTVSPost2010PropOp44
 70
     1
102
RTVSPost2010Prop45
280
     0
102
RTVSPost2010PropOp45
 70
     1
102
RTVSPost2010Prop46
 90
       50
102
RTVSPost2010PropOp46
 70
     1
102
RTVSPost2010Prop47
 90
       50
102
RTVSPost2010PropOp47
 70
     1
102
RTVSPost2010Prop48
 90
       50
102
RTVSPost2010PropOp48
 70
     1
102
RTVSPost2010Prop49
280
     0
102
RTVSPost2010PropOp49
 70
     1
102
RTVSPost2010Prop50
 90
       50
102
RTVSPost2010PropOp50
 70
     1
102
RTVSPost2010Prop51ColorIndex
 90
      256
102
RTVSPost2010Prop51ColorRGB
 90
-16777216
102
RTVSPost2010PropOp51
 70
     0
102
RTVSPost2010Prop52
140
1.0
102
RTVSPost2010PropOp52
 70
     0
102
RTVSPost2010Prop53
 90
        2
102
RTVSPost2010PropOp53
 70
     1
102
RTVSPost2010Prop54
  1
strokes_ogs.tif
102
RTVSPost2010PropOp54
 70
     1
102
RTVSPost2010Prop55
280
     0
102
RTVSPost2010PropOp55
 70
     1
102
RTVSPost2010Prop56
140
1.0
102
RTVSPost2010PropOp56
 70
     1
102
RTVSPost2010Prop57
140
1.0
102
RTVSPost2010PropOp57
 70
     1
102
RTVSPropertyOp0
 70
     1
102
RTVSPropertyOp1
 70
     1
102
RTVSPropertyOp2
 70
     1
102
RTVSPropertyOp3
 70
     1
102
RTVSPropertyOp4
 70
     1
102
RTVSPropertyOp5
 70
     1
102
RTVSPropertyOp6
 70
     1
102
RTVSPropertyOp7
 70
     1
102
RTVSPropertyOp8
 70
     1
102
RTVSPropertyOp9
 70
     1
102
RTVSPropertyOp10
 70
     1
102
RTVSPropertyOp11
 70
     1
102
RTVSPropertyOp12
 70
     1
102
RTVSPropertyOp13
 70
     1
102
RTVSPropertyOp14
 70
     1
102
RTVSPropertyOp15
 70
     1
102
RTVSPropertyOp16
 70
     1
102
RTVSPropertyOp17
 70
     1
102
RTVSPropertyOp18
 70
     1
102
RTVSPropertyOp19
 70
     1
102
RTVSPropertyOp20
 70
     1
102
RTVSPropertyOp21
 70
     1
102
RTVSPropertyOp22
 70
     1
102
RTVSPropertyOp23
 70
     1
102
RTVSPropertyOp24
 70
     1
102
RTVSPropertyOp25
 70
     1
102
RTVSPropertyOp26
 70
     1
102
RTVSPropertyOp27
 70
     1
102
RTVSPropertyOp28
 70
     1
102
RTVSPropertyOp29
 70
     1
102
RTVSPropertyOp30
 70
     1
102
RTVSPropertyOp31
 70
     1
102
RTVSPropertyOp32
 70
     1
102
RTVSPropertyOp33
 70
     1
102
RTVSPropertyOp34
 70
     1
102
RTVSPropertyOp35
 70
     1
102
RTVSPropertyOp36
 70
     1
102
RTVSPropertyOp37
 70
     1
102
RTVSPropertyOp38
 70
     1
102
RTVSPropertyOp39
 70
     1
102
RTVSPropertyOp40
 70
     1
102
RTVSPropertyOp41
 70
     1
102
RTVSPropertyOp42
 70
     1
102
RTVSPropertyOp43
 70
     1
102
RTVSPropertyOp44
 70
     1
102
RTVSPropertyOp45
 70
     1
102
RTVSPropertyOp46
 70
     1
102
RTVSPropertyOp47
 70
     1
102
RTVSPropertyOp48
 70
     1
102
RTVSPropertyOp49
 70
     1
102
RTVSPropertyOp50
 70
     1
102
RTVSPropertyOp51
 70
     0
102
RTVSPropertyOp52
 70
     0
102
RTVSPropertyOp53
 70
     1
102
RTVSPropertyOp54
 70
     1
102
RTVSPropertyOp55
 70
     1
102
RTVSPropertyOp56
 70
     1
102
RTVSPropertyOp57
 70
     1
102
RTVSPropertyOp58
 70
     1
102
RTVSPropertyOp59
 70
     1
102
RTVSPropertyOp60
 70
     1
102
RTVSPropertyOp61
 70
     1
102
RTVSPropertyOp62
 70
     1
  0
XRECORD
  5
22503
102
{ACAD_REACTORS
330
22502
102
}
330
22502
100
AcDbXrecord
280
     1
102
RTVSPost2010Prop28
280
     0
102
RTVSPost2010PropOp28
 70
     1
102
RTVSPost2010Prop29
280
     1
102
RTVSPost2010PropOp29
 70
     1
102
RTVSPost2010Prop30
280
     1
102
RTVSPost2010PropOp30
 70
     1
102
RTVSPost2010Prop31
280
     0
102
RTVSPost2010PropOp31
 70
     1
102
RTVSPost2010Prop32
280
     0
102
RTVSPost2010PropOp32
 70
     1
102
RTVSPost2010Prop33
280
     0
102
RTVSPost2010PropOp33
 70
     1
102
RTVSPost2010Prop34
280
     0
102
RTVSPost2010PropOp34
 70
     1
102
RTVSPost2010Prop35
280
     0
102
RTVSPost2010PropOp35
 70
     1
102
RTVSPost2010Prop36
280
     0
102
RTVSPost2010PropOp36
 70
     1
102
RTVSPost2010Prop37
 90
       50
102
RTVSPost2010PropOp37
 70
     1
102
RTVSPost2010Prop38
140
0.0
102
RTVSPost2010PropOp38
 70
     1
102
RTVSPost2010Prop39
140
1.0
102
RTVSPost2010PropOp39
 70
     1
102
RTVSPost2010Prop40
 90
        0
102
RTVSPost2010PropOp40
 70
     1
102
RTVSPost2010Prop41ColorIndex
 90
       18
102
RTVSPost2010Prop41ColorRGB
 90
        0
102
RTVSPost2010PropOp41
 70
     1
102
RTVSPost2010Prop42
 90
       50
102
RTVSPost2010PropOp42
 70
     1
102
RTVSPost2010Prop43
 90
        3
102
RTVSPost2010PropOp43
 70
     1
102
RTVSPost2010Prop44ColorIndex
 90
        5
102
RTVSPost2010Prop44ColorRGB
 90
      255
102
RTVSPost2010PropOp44
 70
     1
102
RTVSPost2010Prop45
280
     0
102
RTVSPost2010PropOp45
 70
     1
102
RTVSPost2010Prop46
 90
       50
102
RTVSPost2010PropOp46
 70
     1
102
RTVSPost2010Prop47
 90
       50
102
RTVSPost2010PropOp47
 70
     1
102
RTVSPost2010Prop48
 90
       50
102
RTVSPost2010PropOp48
 70
     1
102
RTVSPost2010Prop49
280
     0
102
RTVSPost2010PropOp49
 70
     1
102
RTVSPost2010Prop50
 90
       50
102
RTVSPost2010PropOp50
 70
     1
102
RTVSPost2010Prop51ColorIndex
 90
      256
102
RTVSPost2010Prop51ColorRGB
 90
-16777216
102
RTVSPost2010PropOp51
 70
     0
102
RTVSPost2010Prop52
140
1.0
102
RTVSPost2010PropOp52
 70
     0
102
RTVSPost2010Prop53
 90
        2
102
RTVSPost2010PropOp53
 70
     1
102
RTVSPost2010Prop54
  1
strokes_ogs.tif
102
RTVSPost2010PropOp54
 70
     1
102
RTVSPost2010Prop55
280
     0
102
RTVSPost2010PropOp55
 70
     1
102
RTVSPost2010Prop56
140
1.0
102
RTVSPost2010PropOp56
 70
     1
102
RTVSPost2010Prop57
140
1.0
102
RTVSPost2010PropOp57
 70
     1
102
RTVSPropertyOp0
 70
     0
102
RTVSPropertyOp1
 70
     0
102
RTVSPropertyOp2
 70
     0
102
RTVSPropertyOp3
 70
     0
102
RTVSPropertyOp4
 70
     0
102
RTVSPropertyOp5
 70
     0
102
RTVSPropertyOp6
 70
     0
102
RTVSPropertyOp7
 70
     0
102
RTVSPropertyOp8
 70
     0
102
RTVSPropertyOp9
 70
     0
102
RTVSPropertyOp10
 70
     0
102
RTVSPropertyOp11
 70
     0
102
RTVSPropertyOp12
 70
     0
102
RTVSPropertyOp13
 70
     0
102
RTVSPropertyOp14
 70
     2
102
RTVSPropertyOp15
 70
     0
102
RTVSPropertyOp16
 70
     0
102
RTVSPropertyOp17
 70
     0
102
RTVSPropertyOp18
 70
     0
102
RTVSPropertyOp19
 70
     0
102
RTVSPropertyOp20
 70
     0
102
RTVSPropertyOp21
 70
     0
102
RTVSPropertyOp22
 70
     0
102
RTVSPropertyOp23
 70
     0
102
RTVSPropertyOp24
 70
     0
102
RTVSPropertyOp25
 70
     0
102
RTVSPropertyOp26
 70
     0
102
RTVSPropertyOp27
 70
     0
102
RTVSPropertyOp28
 70
     1
102
RTVSPropertyOp29
 70
     1
102
RTVSPropertyOp30
 70
     1
102
RTVSPropertyOp31
 70
     1
102
RTVSPropertyOp32
 70
     1
102
RTVSPropertyOp33
 70
     1
102
RTVSPropertyOp34
 70
     1
102
RTVSPropertyOp35
 70
     1
102
RTVSPropertyOp36
 70
     1
102
RTVSPropertyOp37
 70
     1
102
RTVSPropertyOp38
 70
     1
102
RTVSPropertyOp39
 70
     1
102
RTVSPropertyOp40
 70
     1
102
RTVSPropertyOp41
 70
     1
102
RTVSPropertyOp42
 70
     1
102
RTVSPropertyOp43
 70
     1
102
RTVSPropertyOp44
 70
     1
102
RTVSPropertyOp45
 70
     1
102
RTVSPropertyOp46
 70
     1
102
RTVSPropertyOp47
 70
     1
102
RTVSPropertyOp48
 70
     1
102
RTVSPropertyOp49
 70
     1
102
RTVSPropertyOp50
 70
     1
102
RTVSPropertyOp51
 70
     0
102
RTVSPropertyOp52
 70
     0
102
RTVSPropertyOp53
 70
     1
102
RTVSPropertyOp54
 70
     1
102
RTVSPropertyOp55
 70
     1
102
RTVSPropertyOp56
 70
     1
102
RTVSPropertyOp57
 70
     1
102
RTVSPropertyOp58
 70
     1
102
RTVSPropertyOp59
 70
     1
102
RTVSPropertyOp60
 70
     1
102
RTVSPropertyOp61
 70
     1
102
RTVSPropertyOp62
 70
     1
  0
XRECORD
  5
224FC
102
{ACAD_REACTORS
330
224FB
102
}
330
224FB
100
AcDbXrecord
280
     1
102
RTVSPost2010Prop28
280
     0
102
RTVSPost2010PropOp28
 70
     1
102
RTVSPost2010Prop29
280
     1
102
RTVSPost2010PropOp29
 70
     1
102
RTVSPost2010Prop30
280
     1
102
RTVSPost2010PropOp30
 70
     1
102
RTVSPost2010Prop31
280
     0
102
RTVSPost2010PropOp31
 70
     1
102
RTVSPost2010Prop32
280
     0
102
RTVSPost2010PropOp32
 70
     1
102
RTVSPost2010Prop33
280
     0
102
RTVSPost2010PropOp33
 70
     1
102
RTVSPost2010Prop34
280
     0
102
RTVSPost2010PropOp34
 70
     1
102
RTVSPost2010Prop35
280
     0
102
RTVSPost2010PropOp35
 70
     1
102
RTVSPost2010Prop36
280
     0
102
RTVSPost2010PropOp36
 70
     1
102
RTVSPost2010Prop37
 90
       50
102
RTVSPost2010PropOp37
 70
     1
102
RTVSPost2010Prop38
140
0.0
102
RTVSPost2010PropOp38
 70
     1
102
RTVSPost2010Prop39
140
1.0
102
RTVSPost2010PropOp39
 70
     1
102
RTVSPost2010Prop40
 90
        0
102
RTVSPost2010PropOp40
 70
     1
102
RTVSPost2010Prop41ColorIndex
 90
       18
102
RTVSPost2010Prop41ColorRGB
 90
        0
102
RTVSPost2010PropOp41
 70
     1
102
RTVSPost2010Prop42
 90
       50
102
RTVSPost2010PropOp42
 70
     1
102
RTVSPost2010Prop43
 90
        3
102
RTVSPost2010PropOp43
 70
     1
102
RTVSPost2010Prop44ColorIndex
 90
        5
102
RTVSPost2010Prop44ColorRGB
 90
      255
102
RTVSPost2010PropOp44
 70
     1
102
RTVSPost2010Prop45
280
     0
102
RTVSPost2010PropOp45
 70
     1
102
RTVSPost2010Prop46
 90
       50
102
RTVSPost2010PropOp46
 70
     1
102
RTVSPost2010Prop47
 90
       50
102
RTVSPost2010PropOp47
 70
     1
102
RTVSPost2010Prop48
 90
       50
102
RTVSPost2010PropOp48
 70
     1
102
RTVSPost2010Prop49
280
     0
102
RTVSPost2010PropOp49
 70
     1
102
RTVSPost2010Prop50
 90
       50
102
RTVSPost2010PropOp50
 70
     1
102
RTVSPost2010Prop51ColorIndex
 90
      256
102
RTVSPost2010Prop51ColorRGB
 90
-16777216
102
RTVSPost2010PropOp51
 70
     0
102
RTVSPost2010Prop52
140
1.0
102
RTVSPost2010PropOp52
 70
     0
102
RTVSPost2010Prop53
 90
        2
102
RTVSPost2010PropOp53
 70
     1
102
RTVSPost2010Prop54
  1
strokes_ogs.tif
102
RTVSPost2010PropOp54
 70
     1
102
RTVSPost2010Prop55
280
     0
102
RTVSPost2010PropOp55
 70
     1
102
RTVSPost2010Prop56
140
1.0
102
RTVSPost2010PropOp56
 70
     1
102
RTVSPost2010Prop57
140
1.0
102
RTVSPost2010PropOp57
 70
     1
102
RTVSPropertyOp0
 70
     1
102
RTVSPropertyOp1
 70
     1
102
RTVSPropertyOp2
 70
     1
102
RTVSPropertyOp3
 70
     1
102
RTVSPropertyOp4
 70
     1
102
RTVSPropertyOp5
 70
     1
102
RTVSPropertyOp6
 70
     1
102
RTVSPropertyOp7
 70
     1
102
RTVSPropertyOp8
 70
     1
102
RTVSPropertyOp9
 70
     1
102
RTVSPropertyOp10
 70
     1
102
RTVSPropertyOp11
 70
     1
102
RTVSPropertyOp12
 70
     1
102
RTVSPropertyOp13
 70
     1
102
RTVSPropertyOp14
 70
     1
102
RTVSPropertyOp15
 70
     1
102
RTVSPropertyOp16
 70
     1
102
RTVSPropertyOp17
 70
     1
102
RTVSPropertyOp18
 70
     1
102
RTVSPropertyOp19
 70
     1
102
RTVSPropertyOp20
 70
     1
102
RTVSPropertyOp21
 70
     1
102
RTVSPropertyOp22
 70
     1
102
RTVSPropertyOp23
 70
     1
102
RTVSPropertyOp24
 70
     1
102
RTVSPropertyOp25
 70
     1
102
RTVSPropertyOp26
 70
     1
102
RTVSPropertyOp27
 70
     1
102
RTVSPropertyOp28
 70
     1
102
RTVSPropertyOp29
 70
     1
102
RTVSPropertyOp30
 70
     1
102
RTVSPropertyOp31
 70
     1
102
RTVSPropertyOp32
 70
     1
102
RTVSPropertyOp33
 70
     1
102
RTVSPropertyOp34
 70
     1
102
RTVSPropertyOp35
 70
     1
102
RTVSPropertyOp36
 70
     1
102
RTVSPropertyOp37
 70
     1
102
RTVSPropertyOp38
 70
     1
102
RTVSPropertyOp39
 70
     1
102
RTVSPropertyOp40
 70
     1
102
RTVSPropertyOp41
 70
     1
102
RTVSPropertyOp42
 70
     1
102
RTVSPropertyOp43
 70
     1
102
RTVSPropertyOp44
 70
     1
102
RTVSPropertyOp45
 70
     1
102
RTVSPropertyOp46
 70
     1
102
RTVSPropertyOp47
 70
     1
102
RTVSPropertyOp48
 70
     1
102
RTVSPropertyOp49
 70
     1
102
RTVSPropertyOp50
 70
     1
102
RTVSPropertyOp51
 70
     0
102
RTVSPropertyOp52
 70
     0
102
RTVSPropertyOp53
 70
     1
102
RTVSPropertyOp54
 70
     1
102
RTVSPropertyOp55
 70
     1
102
RTVSPropertyOp56
 70
     1
102
RTVSPropertyOp57
 70
     1
102
RTVSPropertyOp58
 70
     1
102
RTVSPropertyOp59
 70
     1
102
RTVSPropertyOp60
 70
     1
102
RTVSPropertyOp61
 70
     1
102
RTVSPropertyOp62
 70
     1
  0
XRECORD
  5
22505
102
{ACAD_REACTORS
330
22504
102
}
330
22504
100
AcDbXrecord
280
     1
102
RTVSPost2010Prop28
280
     0
102
RTVSPost2010PropOp28
 70
     1
102
RTVSPost2010Prop29
280
     1
102
RTVSPost2010PropOp29
 70
     1
102
RTVSPost2010Prop30
280
     1
102
RTVSPost2010PropOp30
 70
     1
102
RTVSPost2010Prop31
280
     0
102
RTVSPost2010PropOp31
 70
     1
102
RTVSPost2010Prop32
280
     0
102
RTVSPost2010PropOp32
 70
     1
102
RTVSPost2010Prop33
280
     0
102
RTVSPost2010PropOp33
 70
     1
102
RTVSPost2010Prop34
280
     0
102
RTVSPost2010PropOp34
 70
     1
102
RTVSPost2010Prop35
280
     0
102
RTVSPost2010PropOp35
 70
     1
102
RTVSPost2010Prop36
280
     0
102
RTVSPost2010PropOp36
 70
     1
102
RTVSPost2010Prop37
 90
       50
102
RTVSPost2010PropOp37
 70
     1
102
RTVSPost2010Prop38
140
0.0
102
RTVSPost2010PropOp38
 70
     1
102
RTVSPost2010Prop39
140
1.0
102
RTVSPost2010PropOp39
 70
     1
102
RTVSPost2010Prop40
 90
        0
102
RTVSPost2010PropOp40
 70
     1
102
RTVSPost2010Prop41ColorIndex
 90
       18
102
RTVSPost2010Prop41ColorRGB
 90
        0
102
RTVSPost2010PropOp41
 70
     1
102
RTVSPost2010Prop42
 90
       50
102
RTVSPost2010PropOp42
 70
     1
102
RTVSPost2010Prop43
 90
        3
102
RTVSPost2010PropOp43
 70
     1
102
RTVSPost2010Prop44ColorIndex
 90
        5
102
RTVSPost2010Prop44ColorRGB
 90
      255
102
RTVSPost2010PropOp44
 70
     1
102
RTVSPost2010Prop45
280
     0
102
RTVSPost2010PropOp45
 70
     1
102
RTVSPost2010Prop46
 90
       50
102
RTVSPost2010PropOp46
 70
     1
102
RTVSPost2010Prop47
 90
       50
102
RTVSPost2010PropOp47
 70
     1
102
RTVSPost2010Prop48
 90
       50
102
RTVSPost2010PropOp48
 70
     1
102
RTVSPost2010Prop49
280
     0
102
RTVSPost2010PropOp49
 70
     1
102
RTVSPost2010Prop50
 90
       50
102
RTVSPost2010PropOp50
 70
     1
102
RTVSPost2010Prop51ColorIndex
 90
      256
102
RTVSPost2010Prop51ColorRGB
 90
-16777216
102
RTVSPost2010PropOp51
 70
     0
102
RTVSPost2010Prop52
140
1.0
102
RTVSPost2010PropOp52
 70
     0
102
RTVSPost2010Prop53
 90
        2
102
RTVSPost2010PropOp53
 70
     1
102
RTVSPost2010Prop54
  1
strokes_ogs.tif
102
RTVSPost2010PropOp54
 70
     1
102
RTVSPost2010Prop55
280
     0
102
RTVSPost2010PropOp55
 70
     1
102
RTVSPost2010Prop56
140
1.0
102
RTVSPost2010PropOp56
 70
     1
102
RTVSPost2010Prop57
140
1.0
102
RTVSPost2010PropOp57
 70
     1
102
RTVSPropertyOp0
 70
     0
102
RTVSPropertyOp1
 70
     0
102
RTVSPropertyOp2
 70
     0
102
RTVSPropertyOp3
 70
     0
102
RTVSPropertyOp4
 70
     0
102
RTVSPropertyOp5
 70
     0
102
RTVSPropertyOp6
 70
     0
102
RTVSPropertyOp7
 70
     0
102
RTVSPropertyOp8
 70
     0
102
RTVSPropertyOp9
 70
     0
102
RTVSPropertyOp10
 70
     0
102
RTVSPropertyOp11
 70
     0
102
RTVSPropertyOp12
 70
     0
102
RTVSPropertyOp13
 70
     0
102
RTVSPropertyOp14
 70
     2
102
RTVSPropertyOp15
 70
     0
102
RTVSPropertyOp16
 70
     0
102
RTVSPropertyOp17
 70
     0
102
RTVSPropertyOp18
 70
     0
102
RTVSPropertyOp19
 70
     0
102
RTVSPropertyOp20
 70
     0
102
RTVSPropertyOp21
 70
     0
102
RTVSPropertyOp22
 70
     0
102
RTVSPropertyOp23
 70
     0
102
RTVSPropertyOp24
 70
     0
102
RTVSPropertyOp25
 70
     0
102
RTVSPropertyOp26
 70
     0
102
RTVSPropertyOp27
 70
     0
102
RTVSPropertyOp28
 70
     1
102
RTVSPropertyOp29
 70
     1
102
RTVSPropertyOp30
 70
     1
102
RTVSPropertyOp31
 70
     1
102
RTVSPropertyOp32
 70
     1
102
RTVSPropertyOp33
 70
     1
102
RTVSPropertyOp34
 70
     1
102
RTVSPropertyOp35
 70
     1
102
RTVSPropertyOp36
 70
     1
102
RTVSPropertyOp37
 70
     1
102
RTVSPropertyOp38
 70
     1
102
RTVSPropertyOp39
 70
     1
102
RTVSPropertyOp40
 70
     1
102
RTVSPropertyOp41
 70
     1
102
RTVSPropertyOp42
 70
     1
102
RTVSPropertyOp43
 70
     1
102
RTVSPropertyOp44
 70
     1
102
RTVSPropertyOp45
 70
     1
102
RTVSPropertyOp46
 70
     1
102
RTVSPropertyOp47
 70
     1
102
RTVSPropertyOp48
 70
     1
102
RTVSPropertyOp49
 70
     1
102
RTVSPropertyOp50
 70
     1
102
RTVSPropertyOp51
 70
     0
102
RTVSPropertyOp52
 70
     0
102
RTVSPropertyOp53
 70
     1
102
RTVSPropertyOp54
 70
     1
102
RTVSPropertyOp55
 70
     1
102
RTVSPropertyOp56
 70
     1
102
RTVSPropertyOp57
 70
     1
102
RTVSPropertyOp58
 70
     1
102
RTVSPropertyOp59
 70
     1
102
RTVSPropertyOp60
 70
     1
102
RTVSPropertyOp61
 70
     1
102
RTVSPropertyOp62
 70
     1
  0
XRECORD
  5
224F4
102
{ACAD_REACTORS
330
224F3
102
}
330
224F3
100
AcDbXrecord
280
     1
102
RTVSPost2010Prop28
280
     0
102
RTVSPost2010PropOp28
 70
     1
102
RTVSPost2010Prop29
280
     1
102
RTVSPost2010PropOp29
 70
     1
102
RTVSPost2010Prop30
280
     1
102
RTVSPost2010PropOp30
 70
     1
102
RTVSPost2010Prop31
280
     0
102
RTVSPost2010PropOp31
 70
     1
102
RTVSPost2010Prop32
280
     0
102
RTVSPost2010PropOp32
 70
     1
102
RTVSPost2010Prop33
280
     0
102
RTVSPost2010PropOp33
 70
     1
102
RTVSPost2010Prop34
280
     0
102
RTVSPost2010PropOp34
 70
     1
102
RTVSPost2010Prop35
280
     0
102
RTVSPost2010PropOp35
 70
     1
102
RTVSPost2010Prop36
280
     0
102
RTVSPost2010PropOp36
 70
     1
102
RTVSPost2010Prop37
 90
       50
102
RTVSPost2010PropOp37
 70
     1
102
RTVSPost2010Prop38
140
0.0
102
RTVSPost2010PropOp38
 70
     1
102
RTVSPost2010Prop39
140
1.0
102
RTVSPost2010PropOp39
 70
     1
102
RTVSPost2010Prop40
 90
        0
102
RTVSPost2010PropOp40
 70
     1
102
RTVSPost2010Prop41ColorIndex
 90
       18
102
RTVSPost2010Prop41ColorRGB
 90
        0
102
RTVSPost2010PropOp41
 70
     1
102
RTVSPost2010Prop42
 90
       50
102
RTVSPost2010PropOp42
 70
     1
102
RTVSPost2010Prop43
 90
        3
102
RTVSPost2010PropOp43
 70
     1
102
RTVSPost2010Prop44ColorIndex
 90
        5
102
RTVSPost2010Prop44ColorRGB
 90
      255
102
RTVSPost2010PropOp44
 70
     1
102
RTVSPost2010Prop45
280
     0
102
RTVSPost2010PropOp45
 70
     1
102
RTVSPost2010Prop46
 90
       50
102
RTVSPost2010PropOp46
 70
     1
102
RTVSPost2010Prop47
 90
       50
102
RTVSPost2010PropOp47
 70
     1
102
RTVSPost2010Prop48
 90
       50
102
RTVSPost2010PropOp48
 70
     1
102
RTVSPost2010Prop49
280
     0
102
RTVSPost2010PropOp49
 70
     1
102
RTVSPost2010Prop50
 90
       50
102
RTVSPost2010PropOp50
 70
     1
102
RTVSPost2010Prop51ColorIndex
 90
      256
102
RTVSPost2010Prop51ColorRGB
 90
-16777216
102
RTVSPost2010PropOp51
 70
     0
102
RTVSPost2010Prop52
140
1.0
102
RTVSPost2010PropOp52
 70
     0
102
RTVSPost2010Prop53
 90
        2
102
RTVSPost2010PropOp53
 70
     1
102
RTVSPost2010Prop54
  1
strokes_ogs.tif
102
RTVSPost2010PropOp54
 70
     1
102
RTVSPost2010Prop55
280
     0
102
RTVSPost2010PropOp55
 70
     1
102
RTVSPost2010Prop56
140
1.0
102
RTVSPost2010PropOp56
 70
     1
102
RTVSPost2010Prop57
140
1.0
102
RTVSPost2010PropOp57
 70
     1
102
RTVSPropertyOp0
 70
     1
102
RTVSPropertyOp1
 70
     1
102
RTVSPropertyOp2
 70
     1
102
RTVSPropertyOp3
 70
     1
102
RTVSPropertyOp4
 70
     1
102
RTVSPropertyOp5
 70
     1
102
RTVSPropertyOp6
 70
     1
102
RTVSPropertyOp7
 70
     1
102
RTVSPropertyOp8
 70
     1
102
RTVSPropertyOp9
 70
     1
102
RTVSPropertyOp10
 70
     1
102
RTVSPropertyOp11
 70
     1
102
RTVSPropertyOp12
 70
     1
102
RTVSPropertyOp13
 70
     1
102
RTVSPropertyOp14
 70
     1
102
RTVSPropertyOp15
 70
     1
102
RTVSPropertyOp16
 70
     1
102
RTVSPropertyOp17
 70
     1
102
RTVSPropertyOp18
 70
     1
102
RTVSPropertyOp19
 70
     1
102
RTVSPropertyOp20
 70
     1
102
RTVSPropertyOp21
 70
     1
102
RTVSPropertyOp22
 70
     1
102
RTVSPropertyOp23
 70
     1
102
RTVSPropertyOp24
 70
     1
102
RTVSPropertyOp25
 70
     1
102
RTVSPropertyOp26
 70
     1
102
RTVSPropertyOp27
 70
     1
102
RTVSPropertyOp28
 70
     1
102
RTVSPropertyOp29
 70
     1
102
RTVSPropertyOp30
 70
     1
102
RTVSPropertyOp31
 70
     1
102
RTVSPropertyOp32
 70
     1
102
RTVSPropertyOp33
 70
     1
102
RTVSPropertyOp34
 70
     1
102
RTVSPropertyOp35
 70
     1
102
RTVSPropertyOp36
 70
     1
102
RTVSPropertyOp37
 70
     1
102
RTVSPropertyOp38
 70
     1
102
RTVSPropertyOp39
 70
     1
102
RTVSPropertyOp40
 70
     1
102
RTVSPropertyOp41
 70
     1
102
RTVSPropertyOp42
 70
     1
102
RTVSPropertyOp43
 70
     1
102
RTVSPropertyOp44
 70
     1
102
RTVSPropertyOp45
 70
     1
102
RTVSPropertyOp46
 70
     1
102
RTVSPropertyOp47
 70
     1
102
RTVSPropertyOp48
 70
     1
102
RTVSPropertyOp49
 70
     1
102
RTVSPropertyOp50
 70
     1
102
RTVSPropertyOp51
 70
     0
102
RTVSPropertyOp52
 70
     0
102
RTVSPropertyOp53
 70
     1
102
RTVSPropertyOp54
 70
     1
102
RTVSPropertyOp55
 70
     1
102
RTVSPropertyOp56
 70
     1
102
RTVSPropertyOp57
 70
     1
102
RTVSPropertyOp58
 70
     1
102
RTVSPropertyOp59
 70
     1
102
RTVSPropertyOp60
 70
     1
102
RTVSPropertyOp61
 70
     1
102
RTVSPropertyOp62
 70
     1
  0
XRECORD
  5
22515
102
{ACAD_REACTORS
330
22514
102
}
330
22514
100
AcDbXrecord
280
     1
102
RTVSPost2010Prop28
280
     0
102
RTVSPost2010PropOp28
 70
     1
102
RTVSPost2010Prop29
280
     1
102
RTVSPost2010PropOp29
 70
     1
102
RTVSPost2010Prop30
280
     1
102
RTVSPost2010PropOp30
 70
     1
102
RTVSPost2010Prop31
280
     0
102
RTVSPost2010PropOp31
 70
     1
102
RTVSPost2010Prop32
280
     0
102
RTVSPost2010PropOp32
 70
     1
102
RTVSPost2010Prop33
280
     0
102
RTVSPost2010PropOp33
 70
     1
102
RTVSPost2010Prop34
280
     0
102
RTVSPost2010PropOp34
 70
     1
102
RTVSPost2010Prop35
280
     0
102
RTVSPost2010PropOp35
 70
     1
102
RTVSPost2010Prop36
280
     0
102
RTVSPost2010PropOp36
 70
     1
102
RTVSPost2010Prop37
 90
       50
102
RTVSPost2010PropOp37
 70
     1
102
RTVSPost2010Prop38
140
0.0
102
RTVSPost2010PropOp38
 70
     1
102
RTVSPost2010Prop39
140
1.0
102
RTVSPost2010PropOp39
 70
     1
102
RTVSPost2010Prop40
 90
        0
102
RTVSPost2010PropOp40
 70
     1
102
RTVSPost2010Prop41ColorIndex
 90
       18
102
RTVSPost2010Prop41ColorRGB
 90
        0
102
RTVSPost2010PropOp41
 70
     1
102
RTVSPost2010Prop42
 90
       50
102
RTVSPost2010PropOp42
 70
     1
102
RTVSPost2010Prop43
 90
        3
102
RTVSPost2010PropOp43
 70
     1
102
RTVSPost2010Prop44ColorIndex
 90
        5
102
RTVSPost2010Prop44ColorRGB
 90
      255
102
RTVSPost2010PropOp44
 70
     1
102
RTVSPost2010Prop45
280
     0
102
RTVSPost2010PropOp45
 70
     1
102
RTVSPost2010Prop46
 90
       50
102
RTVSPost2010PropOp46
 70
     1
102
RTVSPost2010Prop47
 90
       50
102
RTVSPost2010PropOp47
 70
     1
102
RTVSPost2010Prop48
 90
       50
102
RTVSPost2010PropOp48
 70
     1
102
RTVSPost2010Prop49
280
     0
102
RTVSPost2010PropOp49
 70
     1
102
RTVSPost2010Prop50
 90
       50
102
RTVSPost2010PropOp50
 70
     1
102
RTVSPost2010Prop51ColorIndex
 90
      256
102
RTVSPost2010Prop51ColorRGB
 90
-16777216
102
RTVSPost2010PropOp51
 70
     0
102
RTVSPost2010Prop52
140
1.0
102
RTVSPost2010PropOp52
 70
     0
102
RTVSPost2010Prop53
 90
        2
102
RTVSPost2010PropOp53
 70
     1
102
RTVSPost2010Prop54
  1
strokes_ogs.tif
102
RTVSPost2010PropOp54
 70
     1
102
RTVSPost2010Prop55
280
     0
102
RTVSPost2010PropOp55
 70
     1
102
RTVSPost2010Prop56
140
1.0
102
RTVSPost2010PropOp56
 70
     1
102
RTVSPost2010Prop57
140
1.0
102
RTVSPost2010PropOp57
 70
     1
102
RTVSPropertyOp0
 70
     1
102
RTVSPropertyOp1
 70
     1
102
RTVSPropertyOp2
 70
     1
102
RTVSPropertyOp3
 70
     1
102
RTVSPropertyOp4
 70
     1
102
RTVSPropertyOp5
 70
     1
102
RTVSPropertyOp6
 70
     1
102
RTVSPropertyOp7
 70
     1
102
RTVSPropertyOp8
 70
     1
102
RTVSPropertyOp9
 70
     1
102
RTVSPropertyOp10
 70
     1
102
RTVSPropertyOp11
 70
     1
102
RTVSPropertyOp12
 70
     1
102
RTVSPropertyOp13
 70
     1
102
RTVSPropertyOp14
 70
     1
102
RTVSPropertyOp15
 70
     1
102
RTVSPropertyOp16
 70
     1
102
RTVSPropertyOp17
 70
     1
102
RTVSPropertyOp18
 70
     1
102
RTVSPropertyOp19
 70
     1
102
RTVSPropertyOp20
 70
     1
102
RTVSPropertyOp21
 70
     1
102
RTVSPropertyOp22
 70
     1
102
RTVSPropertyOp23
 70
     1
102
RTVSPropertyOp24
 70
     1
102
RTVSPropertyOp25
 70
     1
102
RTVSPropertyOp26
 70
     1
102
RTVSPropertyOp27
 70
     1
102
RTVSPropertyOp28
 70
     1
102
RTVSPropertyOp29
 70
     1
102
RTVSPropertyOp30
 70
     1
102
RTVSPropertyOp31
 70
     1
102
RTVSPropertyOp32
 70
     1
102
RTVSPropertyOp33
 70
     1
102
RTVSPropertyOp34
 70
     1
102
RTVSPropertyOp35
 70
     1
102
RTVSPropertyOp36
 70
     1
102
RTVSPropertyOp37
 70
     1
102
RTVSPropertyOp38
 70
     1
102
RTVSPropertyOp39
 70
     1
102
RTVSPropertyOp40
 70
     1
102
RTVSPropertyOp41
 70
     1
102
RTVSPropertyOp42
 70
     1
102
RTVSPropertyOp43
 70
     1
102
RTVSPropertyOp44
 70
     1
102
RTVSPropertyOp45
 70
     1
102
RTVSPropertyOp46
 70
     1
102
RTVSPropertyOp47
 70
     1
102
RTVSPropertyOp48
 70
     1
102
RTVSPropertyOp49
 70
     1
102
RTVSPropertyOp50
 70
     1
102
RTVSPropertyOp51
 70
     0
102
RTVSPropertyOp52
 70
     0
102
RTVSPropertyOp53
 70
     1
102
RTVSPropertyOp54
 70
     1
102
RTVSPropertyOp55
 70
     1
102
RTVSPropertyOp56
 70
     1
102
RTVSPropertyOp57
 70
     1
102
RTVSPropertyOp58
 70
     1
102
RTVSPropertyOp59
 70
     1
102
RTVSPropertyOp60
 70
     1
102
RTVSPropertyOp61
 70
     1
102
RTVSPropertyOp62
 70
     1
  0
XRECORD
  5
22513
102
{ACAD_REACTORS
330
22512
102
}
330
22512
100
AcDbXrecord
280
     1
102
RTVSPost2010Prop28
280
     0
102
RTVSPost2010PropOp28
 70
     1
102
RTVSPost2010Prop29
280
     1
102
RTVSPost2010PropOp29
 70
     1
102
RTVSPost2010Prop30
280
     1
102
RTVSPost2010PropOp30
 70
     1
102
RTVSPost2010Prop31
280
     0
102
RTVSPost2010PropOp31
 70
     1
102
RTVSPost2010Prop32
280
     0
102
RTVSPost2010PropOp32
 70
     1
102
RTVSPost2010Prop33
280
     0
102
RTVSPost2010PropOp33
 70
     1
102
RTVSPost2010Prop34
280
     0
102
RTVSPost2010PropOp34
 70
     1
102
RTVSPost2010Prop35
280
     0
102
RTVSPost2010PropOp35
 70
     1
102
RTVSPost2010Prop36
280
     0
102
RTVSPost2010PropOp36
 70
     1
102
RTVSPost2010Prop37
 90
       50
102
RTVSPost2010PropOp37
 70
     1
102
RTVSPost2010Prop38
140
0.0
102
RTVSPost2010PropOp38
 70
     1
102
RTVSPost2010Prop39
140
1.0
102
RTVSPost2010PropOp39
 70
     1
102
RTVSPost2010Prop40
 90
        0
102
RTVSPost2010PropOp40
 70
     1
102
RTVSPost2010Prop41ColorIndex
 90
       18
102
RTVSPost2010Prop41ColorRGB
 90
        0
102
RTVSPost2010PropOp41
 70
     1
102
RTVSPost2010Prop42
 90
       50
102
RTVSPost2010PropOp42
 70
     1
102
RTVSPost2010Prop43
 90
        3
102
RTVSPost2010PropOp43
 70
     1
102
RTVSPost2010Prop44ColorIndex
 90
        5
102
RTVSPost2010Prop44ColorRGB
 90
      255
102
RTVSPost2010PropOp44
 70
     1
102
RTVSPost2010Prop45
280
     0
102
RTVSPost2010PropOp45
 70
     1
102
RTVSPost2010Prop46
 90
       50
102
RTVSPost2010PropOp46
 70
     1
102
RTVSPost2010Prop47
 90
       50
102
RTVSPost2010PropOp47
 70
     1
102
RTVSPost2010Prop48
 90
       50
102
RTVSPost2010PropOp48
 70
     1
102
RTVSPost2010Prop49
280
     0
102
RTVSPost2010PropOp49
 70
     1
102
RTVSPost2010Prop50
 90
       50
102
RTVSPost2010PropOp50
 70
     1
102
RTVSPost2010Prop51ColorIndex
 90
      256
102
RTVSPost2010Prop51ColorRGB
 90
-16777216
102
RTVSPost2010PropOp51
 70
     0
102
RTVSPost2010Prop52
140
1.0
102
RTVSPost2010PropOp52
 70
     0
102
RTVSPost2010Prop53
 90
        2
102
RTVSPost2010PropOp53
 70
     1
102
RTVSPost2010Prop54
  1
strokes_ogs.tif
102
RTVSPost2010PropOp54
 70
     1
102
RTVSPost2010Prop55
280
     0
102
RTVSPost2010PropOp55
 70
     1
102
RTVSPost2010Prop56
140
1.0
102
RTVSPost2010PropOp56
 70
     1
102
RTVSPost2010Prop57
140
1.0
102
RTVSPost2010PropOp57
 70
     1
102
RTVSPropertyOp0
 70
     1
102
RTVSPropertyOp1
 70
     1
102
RTVSPropertyOp2
 70
     1
102
RTVSPropertyOp3
 70
     1
102
RTVSPropertyOp4
 70
     1
102
RTVSPropertyOp5
 70
     1
102
RTVSPropertyOp6
 70
     1
102
RTVSPropertyOp7
 70
     1
102
RTVSPropertyOp8
 70
     1
102
RTVSPropertyOp9
 70
     1
102
RTVSPropertyOp10
 70
     1
102
RTVSPropertyOp11
 70
     1
102
RTVSPropertyOp12
 70
     1
102
RTVSPropertyOp13
 70
     1
102
RTVSPropertyOp14
 70
     1
102
RTVSPropertyOp15
 70
     1
102
RTVSPropertyOp16
 70
     1
102
RTVSPropertyOp17
 70
     1
102
RTVSPropertyOp18
 70
     1
102
RTVSPropertyOp19
 70
     1
102
RTVSPropertyOp20
 70
     1
102
RTVSPropertyOp21
 70
     1
102
RTVSPropertyOp22
 70
     1
102
RTVSPropertyOp23
 70
     1
102
RTVSPropertyOp24
 70
     1
102
RTVSPropertyOp25
 70
     1
102
RTVSPropertyOp26
 70
     1
102
RTVSPropertyOp27
 70
     1
102
RTVSPropertyOp28
 70
     1
102
RTVSPropertyOp29
 70
     1
102
RTVSPropertyOp30
 70
     1
102
RTVSPropertyOp31
 70
     1
102
RTVSPropertyOp32
 70
     1
102
RTVSPropertyOp33
 70
     1
102
RTVSPropertyOp34
 70
     1
102
RTVSPropertyOp35
 70
     1
102
RTVSPropertyOp36
 70
     1
102
RTVSPropertyOp37
 70
     1
102
RTVSPropertyOp38
 70
     1
102
RTVSPropertyOp39
 70
     1
102
RTVSPropertyOp40
 70
     1
102
RTVSPropertyOp41
 70
     1
102
RTVSPropertyOp42
 70
     1
102
RTVSPropertyOp43
 70
     1
102
RTVSPropertyOp44
 70
     1
102
RTVSPropertyOp45
 70
     1
102
RTVSPropertyOp46
 70
     1
102
RTVSPropertyOp47
 70
     1
102
RTVSPropertyOp48
 70
     1
102
RTVSPropertyOp49
 70
     1
102
RTVSPropertyOp50
 70
     1
102
RTVSPropertyOp51
 70
     0
102
RTVSPropertyOp52
 70
     0
102
RTVSPropertyOp53
 70
     1
102
RTVSPropertyOp54
 70
     1
102
RTVSPropertyOp55
 70
     1
102
RTVSPropertyOp56
 70
     1
102
RTVSPropertyOp57
 70
     1
102
RTVSPropertyOp58
 70
     1
102
RTVSPropertyOp59
 70
     1
102
RTVSPropertyOp60
 70
     1
102
RTVSPropertyOp61
 70
     1
102
RTVSPropertyOp62
 70
     1
  0
XRECORD
  5
2250D
102
{ACAD_REACTORS
330
2250C
102
}
330
2250C
100
AcDbXrecord
280
     1
102
RTVSPost2010Prop28
280
     0
102
RTVSPost2010PropOp28
 70
     1
102
RTVSPost2010Prop29
280
     1
102
RTVSPost2010PropOp29
 70
     1
102
RTVSPost2010Prop30
280
     1
102
RTVSPost2010PropOp30
 70
     1
102
RTVSPost2010Prop31
280
     0
102
RTVSPost2010PropOp31
 70
     1
102
RTVSPost2010Prop32
280
     0
102
RTVSPost2010PropOp32
 70
     1
102
RTVSPost2010Prop33
280
     0
102
RTVSPost2010PropOp33
 70
     1
102
RTVSPost2010Prop34
280
     0
102
RTVSPost2010PropOp34
 70
     1
102
RTVSPost2010Prop35
280
     0
102
RTVSPost2010PropOp35
 70
     1
102
RTVSPost2010Prop36
280
     0
102
RTVSPost2010PropOp36
 70
     1
102
RTVSPost2010Prop37
 90
       50
102
RTVSPost2010PropOp37
 70
     1
102
RTVSPost2010Prop38
140
0.0
102
RTVSPost2010PropOp38
 70
     1
102
RTVSPost2010Prop39
140
1.0
102
RTVSPost2010PropOp39
 70
     1
102
RTVSPost2010Prop40
 90
        0
102
RTVSPost2010PropOp40
 70
     1
102
RTVSPost2010Prop41ColorIndex
 90
       18
102
RTVSPost2010Prop41ColorRGB
 90
        0
102
RTVSPost2010PropOp41
 70
     1
102
RTVSPost2010Prop42
 90
       50
102
RTVSPost2010PropOp42
 70
     1
102
RTVSPost2010Prop43
 90
        3
102
RTVSPost2010PropOp43
 70
     1
102
RTVSPost2010Prop44ColorIndex
 90
        5
102
RTVSPost2010Prop44ColorRGB
 90
      255
102
RTVSPost2010PropOp44
 70
     1
102
RTVSPost2010Prop45
280
     0
102
RTVSPost2010PropOp45
 70
     1
102
RTVSPost2010Prop46
 90
       50
102
RTVSPost2010PropOp46
 70
     1
102
RTVSPost2010Prop47
 90
       50
102
RTVSPost2010PropOp47
 70
     1
102
RTVSPost2010Prop48
 90
       50
102
RTVSPost2010PropOp48
 70
     1
102
RTVSPost2010Prop49
280
     0
102
RTVSPost2010PropOp49
 70
     1
102
RTVSPost2010Prop50
 90
       50
102
RTVSPost2010PropOp50
 70
     1
102
RTVSPost2010Prop51ColorIndex
 90
      256
102
RTVSPost2010Prop51ColorRGB
 90
-16777216
102
RTVSPost2010PropOp51
 70
     0
102
RTVSPost2010Prop52
140
1.0
102
RTVSPost2010PropOp52
 70
     0
102
RTVSPost2010Prop53
 90
        2
102
RTVSPost2010PropOp53
 70
     1
102
RTVSPost2010Prop54
  1
strokes_ogs.tif
102
RTVSPost2010PropOp54
 70
     1
102
RTVSPost2010Prop55
280
     0
102
RTVSPost2010PropOp55
 70
     1
102
RTVSPost2010Prop56
140
1.0
102
RTVSPost2010PropOp56
 70
     1
102
RTVSPost2010Prop57
140
1.0
102
RTVSPost2010PropOp57
 70
     1
102
RTVSPropertyOp0
 70
     1
102
RTVSPropertyOp1
 70
     1
102
RTVSPropertyOp2
 70
     1
102
RTVSPropertyOp3
 70
     1
102
RTVSPropertyOp4
 70
     1
102
RTVSPropertyOp5
 70
     1
102
RTVSPropertyOp6
 70
     1
102
RTVSPropertyOp7
 70
     1
102
RTVSPropertyOp8
 70
     1
102
RTVSPropertyOp9
 70
     1
102
RTVSPropertyOp10
 70
     1
102
RTVSPropertyOp11
 70
     1
102
RTVSPropertyOp12
 70
     1
102
RTVSPropertyOp13
 70
     1
102
RTVSPropertyOp14
 70
     1
102
RTVSPropertyOp15
 70
     1
102
RTVSPropertyOp16
 70
     1
102
RTVSPropertyOp17
 70
     1
102
RTVSPropertyOp18
 70
     1
102
RTVSPropertyOp19
 70
     1
102
RTVSPropertyOp20
 70
     1
102
RTVSPropertyOp21
 70
     1
102
RTVSPropertyOp22
 70
     1
102
RTVSPropertyOp23
 70
     1
102
RTVSPropertyOp24
 70
     1
102
RTVSPropertyOp25
 70
     1
102
RTVSPropertyOp26
 70
     1
102
RTVSPropertyOp27
 70
     1
102
RTVSPropertyOp28
 70
     1
102
RTVSPropertyOp29
 70
     1
102
RTVSPropertyOp30
 70
     1
102
RTVSPropertyOp31
 70
     1
102
RTVSPropertyOp32
 70
     1
102
RTVSPropertyOp33
 70
     1
102
RTVSPropertyOp34
 70
     1
102
RTVSPropertyOp35
 70
     1
102
RTVSPropertyOp36
 70
     1
102
RTVSPropertyOp37
 70
     1
102
RTVSPropertyOp38
 70
     1
102
RTVSPropertyOp39
 70
     1
102
RTVSPropertyOp40
 70
     1
102
RTVSPropertyOp41
 70
     1
102
RTVSPropertyOp42
 70
     1
102
RTVSPropertyOp43
 70
     1
102
RTVSPropertyOp44
 70
     1
102
RTVSPropertyOp45
 70
     1
102
RTVSPropertyOp46
 70
     1
102
RTVSPropertyOp47
 70
     1
102
RTVSPropertyOp48
 70
     1
102
RTVSPropertyOp49
 70
     1
102
RTVSPropertyOp50
 70
     1
102
RTVSPropertyOp51
 70
     0
102
RTVSPropertyOp52
 70
     0
102
RTVSPropertyOp53
 70
     1
102
RTVSPropertyOp54
 70
     1
102
RTVSPropertyOp55
 70
     1
102
RTVSPropertyOp56
 70
     1
102
RTVSPropertyOp57
 70
     1
102
RTVSPropertyOp58
 70
     1
102
RTVSPropertyOp59
 70
     1
102
RTVSPropertyOp60
 70
     1
102
RTVSPropertyOp61
 70
     1
102
RTVSPropertyOp62
 70
     1
  0
XRECORD
  5
2250F
102
{ACAD_REACTORS
330
2250E
102
}
330
2250E
100
AcDbXrecord
280
     1
102
RTVSPost2010Prop28
280
     0
102
RTVSPost2010PropOp28
 70
     1
102
RTVSPost2010Prop29
280
     1
102
RTVSPost2010PropOp29
 70
     1
102
RTVSPost2010Prop30
280
     1
102
RTVSPost2010PropOp30
 70
     1
102
RTVSPost2010Prop31
280
     0
102
RTVSPost2010PropOp31
 70
     1
102
RTVSPost2010Prop32
280
     0
102
RTVSPost2010PropOp32
 70
     1
102
RTVSPost2010Prop33
280
     0
102
RTVSPost2010PropOp33
 70
     1
102
RTVSPost2010Prop34
280
     0
102
RTVSPost2010PropOp34
 70
     1
102
RTVSPost2010Prop35
280
     0
102
RTVSPost2010PropOp35
 70
     1
102
RTVSPost2010Prop36
280
     0
102
RTVSPost2010PropOp36
 70
     1
102
RTVSPost2010Prop37
 90
       50
102
RTVSPost2010PropOp37
 70
     1
102
RTVSPost2010Prop38
140
0.0
102
RTVSPost2010PropOp38
 70
     1
102
RTVSPost2010Prop39
140
1.0
102
RTVSPost2010PropOp39
 70
     1
102
RTVSPost2010Prop40
 90
        0
102
RTVSPost2010PropOp40
 70
     1
102
RTVSPost2010Prop41ColorIndex
 90
       18
102
RTVSPost2010Prop41ColorRGB
 90
        0
102
RTVSPost2010PropOp41
 70
     1
102
RTVSPost2010Prop42
 90
       50
102
RTVSPost2010PropOp42
 70
     1
102
RTVSPost2010Prop43
 90
        3
102
RTVSPost2010PropOp43
 70
     1
102
RTVSPost2010Prop44ColorIndex
 90
        5
102
RTVSPost2010Prop44ColorRGB
 90
      255
102
RTVSPost2010PropOp44
 70
     1
102
RTVSPost2010Prop45
280
     0
102
RTVSPost2010PropOp45
 70
     1
102
RTVSPost2010Prop46
 90
       50
102
RTVSPost2010PropOp46
 70
     1
102
RTVSPost2010Prop47
 90
       50
102
RTVSPost2010PropOp47
 70
     1
102
RTVSPost2010Prop48
 90
       50
102
RTVSPost2010PropOp48
 70
     1
102
RTVSPost2010Prop49
280
     0
102
RTVSPost2010PropOp49
 70
     1
102
RTVSPost2010Prop50
 90
       50
102
RTVSPost2010PropOp50
 70
     1
102
RTVSPost2010Prop51ColorIndex
 90
      256
102
RTVSPost2010Prop51ColorRGB
 90
-16777216
102
RTVSPost2010PropOp51
 70
     0
102
RTVSPost2010Prop52
140
1.0
102
RTVSPost2010PropOp52
 70
     0
102
RTVSPost2010Prop53
 90
        2
102
RTVSPost2010PropOp53
 70
     1
102
RTVSPost2010Prop54
  1
strokes_ogs.tif
102
RTVSPost2010PropOp54
 70
     1
102
RTVSPost2010Prop55
280
     0
102
RTVSPost2010PropOp55
 70
     1
102
RTVSPost2010Prop56
140
1.0
102
RTVSPost2010PropOp56
 70
     1
102
RTVSPost2010Prop57
140
1.0
102
RTVSPost2010PropOp57
 70
     1
102
RTVSPropertyOp0
 70
     1
102
RTVSPropertyOp1
 70
     1
102
RTVSPropertyOp2
 70
     1
102
RTVSPropertyOp3
 70
     1
102
RTVSPropertyOp4
 70
     1
102
RTVSPropertyOp5
 70
     1
102
RTVSPropertyOp6
 70
     1
102
RTVSPropertyOp7
 70
     1
102
RTVSPropertyOp8
 70
     1
102
RTVSPropertyOp9
 70
     1
102
RTVSPropertyOp10
 70
     1
102
RTVSPropertyOp11
 70
     1
102
RTVSPropertyOp12
 70
     1
102
RTVSPropertyOp13
 70
     1
102
RTVSPropertyOp14
 70
     1
102
RTVSPropertyOp15
 70
     1
102
RTVSPropertyOp16
 70
     1
102
RTVSPropertyOp17
 70
     1
102
RTVSPropertyOp18
 70
     1
102
RTVSPropertyOp19
 70
     1
102
RTVSPropertyOp20
 70
     1
102
RTVSPropertyOp21
 70
     1
102
RTVSPropertyOp22
 70
     1
102
RTVSPropertyOp23
 70
     1
102
RTVSPropertyOp24
 70
     1
102
RTVSPropertyOp25
 70
     1
102
RTVSPropertyOp26
 70
     1
102
RTVSPropertyOp27
 70
     1
102
RTVSPropertyOp28
 70
     1
102
RTVSPropertyOp29
 70
     1
102
RTVSPropertyOp30
 70
     1
102
RTVSPropertyOp31
 70
     1
102
RTVSPropertyOp32
 70
     1
102
RTVSPropertyOp33
 70
     1
102
RTVSPropertyOp34
 70
     1
102
RTVSPropertyOp35
 70
     1
102
RTVSPropertyOp36
 70
     1
102
RTVSPropertyOp37
 70
     1
102
RTVSPropertyOp38
 70
     1
102
RTVSPropertyOp39
 70
     1
102
RTVSPropertyOp40
 70
     1
102
RTVSPropertyOp41
 70
     1
102
RTVSPropertyOp42
 70
     1
102
RTVSPropertyOp43
 70
     1
102
RTVSPropertyOp44
 70
     1
102
RTVSPropertyOp45
 70
     1
102
RTVSPropertyOp46
 70
     1
102
RTVSPropertyOp47
 70
     1
102
RTVSPropertyOp48
 70
     1
102
RTVSPropertyOp49
 70
     1
102
RTVSPropertyOp50
 70
     1
102
RTVSPropertyOp51
 70
     0
102
RTVSPropertyOp52
 70
     0
102
RTVSPropertyOp53
 70
     1
102
RTVSPropertyOp54
 70
     1
102
RTVSPropertyOp55
 70
     1
102
RTVSPropertyOp56
 70
     1
102
RTVSPropertyOp57
 70
     1
102
RTVSPropertyOp58
 70
     1
102
RTVSPropertyOp59
 70
     1
102
RTVSPropertyOp60
 70
     1
102
RTVSPropertyOp61
 70
     1
102
RTVSPropertyOp62
 70
     1
  0
XRECORD
  5
224FA
102
{ACAD_REACTORS
330
224F9
102
}
330
224F9
100
AcDbXrecord
280
     1
102
RTVSPost2010Prop28
280
     0
102
RTVSPost2010PropOp28
 70
     1
102
RTVSPost2010Prop29
280
     1
102
RTVSPost2010PropOp29
 70
     1
102
RTVSPost2010Prop30
280
     1
102
RTVSPost2010PropOp30
 70
     1
102
RTVSPost2010Prop31
280
     0
102
RTVSPost2010PropOp31
 70
     1
102
RTVSPost2010Prop32
280
     0
102
RTVSPost2010PropOp32
 70
     1
102
RTVSPost2010Prop33
280
     0
102
RTVSPost2010PropOp33
 70
     1
102
RTVSPost2010Prop34
280
     0
102
RTVSPost2010PropOp34
 70
     1
102
RTVSPost2010Prop35
280
     0
102
RTVSPost2010PropOp35
 70
     1
102
RTVSPost2010Prop36
280
     0
102
RTVSPost2010PropOp36
 70
     1
102
RTVSPost2010Prop37
 90
       50
102
RTVSPost2010PropOp37
 70
     1
102
RTVSPost2010Prop38
140
0.0
102
RTVSPost2010PropOp38
 70
     1
102
RTVSPost2010Prop39
140
1.0
102
RTVSPost2010PropOp39
 70
     1
102
RTVSPost2010Prop40
 90
        0
102
RTVSPost2010PropOp40
 70
     1
102
RTVSPost2010Prop41ColorIndex
 90
       18
102
RTVSPost2010Prop41ColorRGB
 90
        0
102
RTVSPost2010PropOp41
 70
     1
102
RTVSPost2010Prop42
 90
       50
102
RTVSPost2010PropOp42
 70
     1
102
RTVSPost2010Prop43
 90
        3
102
RTVSPost2010PropOp43
 70
     1
102
RTVSPost2010Prop44ColorIndex
 90
        5
102
RTVSPost2010Prop44ColorRGB
 90
      255
102
RTVSPost2010PropOp44
 70
     1
102
RTVSPost2010Prop45
280
     0
102
RTVSPost2010PropOp45
 70
     1
102
RTVSPost2010Prop46
 90
       50
102
RTVSPost2010PropOp46
 70
     1
102
RTVSPost2010Prop47
 90
       50
102
RTVSPost2010PropOp47
 70
     1
102
RTVSPost2010Prop48
 90
       50
102
RTVSPost2010PropOp48
 70
     1
102
RTVSPost2010Prop49
280
     0
102
RTVSPost2010PropOp49
 70
     1
102
RTVSPost2010Prop50
 90
       50
102
RTVSPost2010PropOp50
 70
     1
102
RTVSPost2010Prop51ColorIndex
 90
      256
102
RTVSPost2010Prop51ColorRGB
 90
-16777216
102
RTVSPost2010PropOp51
 70
     0
102
RTVSPost2010Prop52
140
1.0
102
RTVSPost2010PropOp52
 70
     0
102
RTVSPost2010Prop53
 90
        2
102
RTVSPost2010PropOp53
 70
     1
102
RTVSPost2010Prop54
  1
strokes_ogs.tif
102
RTVSPost2010PropOp54
 70
     1
102
RTVSPost2010Prop55
280
     0
102
RTVSPost2010PropOp55
 70
     1
102
RTVSPost2010Prop56
140
1.0
102
RTVSPost2010PropOp56
 70
     1
102
RTVSPost2010Prop57
140
1.0
102
RTVSPost2010PropOp57
 70
     1
102
RTVSPropertyOp0
 70
     1
102
RTVSPropertyOp1
 70
     1
102
RTVSPropertyOp2
 70
     1
102
RTVSPropertyOp3
 70
     1
102
RTVSPropertyOp4
 70
     1
102
RTVSPropertyOp5
 70
     1
102
RTVSPropertyOp6
 70
     1
102
RTVSPropertyOp7
 70
     1
102
RTVSPropertyOp8
 70
     1
102
RTVSPropertyOp9
 70
     1
102
RTVSPropertyOp10
 70
     1
102
RTVSPropertyOp11
 70
     1
102
RTVSPropertyOp12
 70
     1
102
RTVSPropertyOp13
 70
     1
102
RTVSPropertyOp14
 70
     1
102
RTVSPropertyOp15
 70
     1
102
RTVSPropertyOp16
 70
     1
102
RTVSPropertyOp17
 70
     1
102
RTVSPropertyOp18
 70
     1
102
RTVSPropertyOp19
 70
     1
102
RTVSPropertyOp20
 70
     1
102
RTVSPropertyOp21
 70
     1
102
RTVSPropertyOp22
 70
     1
102
RTVSPropertyOp23
 70
     1
102
RTVSPropertyOp24
 70
     1
102
RTVSPropertyOp25
 70
     1
102
RTVSPropertyOp26
 70
     1
102
RTVSPropertyOp27
 70
     1
102
RTVSPropertyOp28
 70
     1
102
RTVSPropertyOp29
 70
     1
102
RTVSPropertyOp30
 70
     1
102
RTVSPropertyOp31
 70
     1
102
RTVSPropertyOp32
 70
     1
102
RTVSPropertyOp33
 70
     1
102
RTVSPropertyOp34
 70
     1
102
RTVSPropertyOp35
 70
     1
102
RTVSPropertyOp36
 70
     1
102
RTVSPropertyOp37
 70
     1
102
RTVSPropertyOp38
 70
     1
102
RTVSPropertyOp39
 70
     1
102
RTVSPropertyOp40
 70
     1
102
RTVSPropertyOp41
 70
     1
102
RTVSPropertyOp42
 70
     1
102
RTVSPropertyOp43
 70
     1
102
RTVSPropertyOp44
 70
     1
102
RTVSPropertyOp45
 70
     1
102
RTVSPropertyOp46
 70
     1
102
RTVSPropertyOp47
 70
     1
102
RTVSPropertyOp48
 70
     1
102
RTVSPropertyOp49
 70
     1
102
RTVSPropertyOp50
 70
     1
102
RTVSPropertyOp51
 70
     0
102
RTVSPropertyOp52
 70
     0
102
RTVSPropertyOp53
 70
     1
102
RTVSPropertyOp54
 70
     1
102
RTVSPropertyOp55
 70
     1
102
RTVSPropertyOp56
 70
     1
102
RTVSPropertyOp57
 70
     1
102
RTVSPropertyOp58
 70
     1
102
RTVSPropertyOp59
 70
     1
102
RTVSPropertyOp60
 70
     1
102
RTVSPropertyOp61
 70
     1
102
RTVSPropertyOp62
 70
     1
  0
XRECORD
  5
22509
102
{ACAD_REACTORS
330
22508
102
}
330
22508
100
AcDbXrecord
280
     1
102
RTVSPost2010Prop28
280
     0
102
RTVSPost2010PropOp28
 70
     1
102
RTVSPost2010Prop29
280
     1
102
RTVSPost2010PropOp29
 70
     1
102
RTVSPost2010Prop30
280
     1
102
RTVSPost2010PropOp30
 70
     1
102
RTVSPost2010Prop31
280
     0
102
RTVSPost2010PropOp31
 70
     1
102
RTVSPost2010Prop32
280
     0
102
RTVSPost2010PropOp32
 70
     1
102
RTVSPost2010Prop33
280
     0
102
RTVSPost2010PropOp33
 70
     1
102
RTVSPost2010Prop34
280
     0
102
RTVSPost2010PropOp34
 70
     1
102
RTVSPost2010Prop35
280
     0
102
RTVSPost2010PropOp35
 70
     1
102
RTVSPost2010Prop36
280
     0
102
RTVSPost2010PropOp36
 70
     1
102
RTVSPost2010Prop37
 90
       50
102
RTVSPost2010PropOp37
 70
     1
102
RTVSPost2010Prop38
140
0.0
102
RTVSPost2010PropOp38
 70
     1
102
RTVSPost2010Prop39
140
1.0
102
RTVSPost2010PropOp39
 70
     1
102
RTVSPost2010Prop40
 90
        0
102
RTVSPost2010PropOp40
 70
     1
102
RTVSPost2010Prop41ColorIndex
 90
       18
102
RTVSPost2010Prop41ColorRGB
 90
        0
102
RTVSPost2010PropOp41
 70
     1
102
RTVSPost2010Prop42
 90
       50
102
RTVSPost2010PropOp42
 70
     1
102
RTVSPost2010Prop43
 90
        3
102
RTVSPost2010PropOp43
 70
     1
102
RTVSPost2010Prop44ColorIndex
 90
        5
102
RTVSPost2010Prop44ColorRGB
 90
      255
102
RTVSPost2010PropOp44
 70
     1
102
RTVSPost2010Prop45
280
     0
102
RTVSPost2010PropOp45
 70
     1
102
RTVSPost2010Prop46
 90
       50
102
RTVSPost2010PropOp46
 70
     1
102
RTVSPost2010Prop47
 90
       50
102
RTVSPost2010PropOp47
 70
     1
102
RTVSPost2010Prop48
 90
       50
102
RTVSPost2010PropOp48
 70
     1
102
RTVSPost2010Prop49
280
     0
102
RTVSPost2010PropOp49
 70
     1
102
RTVSPost2010Prop50
 90
       50
102
RTVSPost2010PropOp50
 70
     1
102
RTVSPost2010Prop51ColorIndex
 90
      256
102
RTVSPost2010Prop51ColorRGB
 90
-16777216
102
RTVSPost2010PropOp51
 70
     0
102
RTVSPost2010Prop52
140
1.0
102
RTVSPost2010PropOp52
 70
     0
102
RTVSPost2010Prop53
 90
        2
102
RTVSPost2010PropOp53
 70
     1
102
RTVSPost2010Prop54
  1
strokes_ogs.tif
102
RTVSPost2010PropOp54
 70
     1
102
RTVSPost2010Prop55
280
     0
102
RTVSPost2010PropOp55
 70
     1
102
RTVSPost2010Prop56
140
1.0
102
RTVSPost2010PropOp56
 70
     1
102
RTVSPost2010Prop57
140
1.0
102
RTVSPost2010PropOp57
 70
     1
102
RTVSPropertyOp0
 70
     1
102
RTVSPropertyOp1
 70
     1
102
RTVSPropertyOp2
 70
     1
102
RTVSPropertyOp3
 70
     1
102
RTVSPropertyOp4
 70
     1
102
RTVSPropertyOp5
 70
     1
102
RTVSPropertyOp6
 70
     1
102
RTVSPropertyOp7
 70
     1
102
RTVSPropertyOp8
 70
     1
102
RTVSPropertyOp9
 70
     1
102
RTVSPropertyOp10
 70
     1
102
RTVSPropertyOp11
 70
     1
102
RTVSPropertyOp12
 70
     1
102
RTVSPropertyOp13
 70
     1
102
RTVSPropertyOp14
 70
     1
102
RTVSPropertyOp15
 70
     1
102
RTVSPropertyOp16
 70
     1
102
RTVSPropertyOp17
 70
     1
102
RTVSPropertyOp18
 70
     1
102
RTVSPropertyOp19
 70
     1
102
RTVSPropertyOp20
 70
     1
102
RTVSPropertyOp21
 70
     1
102
RTVSPropertyOp22
 70
     1
102
RTVSPropertyOp23
 70
     1
102
RTVSPropertyOp24
 70
     1
102
RTVSPropertyOp25
 70
     1
102
RTVSPropertyOp26
 70
     1
102
RTVSPropertyOp27
 70
     1
102
RTVSPropertyOp28
 70
     1
102
RTVSPropertyOp29
 70
     1
102
RTVSPropertyOp30
 70
     1
102
RTVSPropertyOp31
 70
     1
102
RTVSPropertyOp32
 70
     1
102
RTVSPropertyOp33
 70
     1
102
RTVSPropertyOp34
 70
     1
102
RTVSPropertyOp35
 70
     1
102
RTVSPropertyOp36
 70
     1
102
RTVSPropertyOp37
 70
     1
102
RTVSPropertyOp38
 70
     1
102
RTVSPropertyOp39
 70
     1
102
RTVSPropertyOp40
 70
     1
102
RTVSPropertyOp41
 70
     1
102
RTVSPropertyOp42
 70
     1
102
RTVSPropertyOp43
 70
     1
102
RTVSPropertyOp44
 70
     1
102
RTVSPropertyOp45
 70
     1
102
RTVSPropertyOp46
 70
     1
102
RTVSPropertyOp47
 70
     1
102
RTVSPropertyOp48
 70
     1
102
RTVSPropertyOp49
 70
     1
102
RTVSPropertyOp50
 70
     1
102
RTVSPropertyOp51
 70
     0
102
RTVSPropertyOp52
 70
     0
102
RTVSPropertyOp53
 70
     1
102
RTVSPropertyOp54
 70
     1
102
RTVSPropertyOp55
 70
     1
102
RTVSPropertyOp56
 70
     1
102
RTVSPropertyOp57
 70
     1
102
RTVSPropertyOp58
 70
     1
102
RTVSPropertyOp59
 70
     1
102
RTVSPropertyOp60
 70
     1
102
RTVSPropertyOp61
 70
     1
102
RTVSPropertyOp62
 70
     1
  0
XRECORD
  5
22511
102
{ACAD_REACTORS
330
22510
102
}
330
22510
100
AcDbXrecord
280
     1
102
RTVSPost2010Prop28
280
     0
102
RTVSPost2010PropOp28
 70
     1
102
RTVSPost2010Prop29
280
     1
102
RTVSPost2010PropOp29
 70
     1
102
RTVSPost2010Prop30
280
     1
102
RTVSPost2010PropOp30
 70
     1
102
RTVSPost2010Prop31
280
     0
102
RTVSPost2010PropOp31
 70
     1
102
RTVSPost2010Prop32
280
     0
102
RTVSPost2010PropOp32
 70
     1
102
RTVSPost2010Prop33
280
     0
102
RTVSPost2010PropOp33
 70
     1
102
RTVSPost2010Prop34
280
     0
102
RTVSPost2010PropOp34
 70
     1
102
RTVSPost2010Prop35
280
     0
102
RTVSPost2010PropOp35
 70
     1
102
RTVSPost2010Prop36
280
     0
102
RTVSPost2010PropOp36
 70
     1
102
RTVSPost2010Prop37
 90
       50
102
RTVSPost2010PropOp37
 70
     1
102
RTVSPost2010Prop38
140
0.0
102
RTVSPost2010PropOp38
 70
     1
102
RTVSPost2010Prop39
140
1.0
102
RTVSPost2010PropOp39
 70
     1
102
RTVSPost2010Prop40
 90
        0
102
RTVSPost2010PropOp40
 70
     1
102
RTVSPost2010Prop41ColorIndex
 90
       18
102
RTVSPost2010Prop41ColorRGB
 90
        0
102
RTVSPost2010PropOp41
 70
     1
102
RTVSPost2010Prop42
 90
       50
102
RTVSPost2010PropOp42
 70
     1
102
RTVSPost2010Prop43
 90
        3
102
RTVSPost2010PropOp43
 70
     1
102
RTVSPost2010Prop44ColorIndex
 90
        5
102
RTVSPost2010Prop44ColorRGB
 90
      255
102
RTVSPost2010PropOp44
 70
     1
102
RTVSPost2010Prop45
280
     0
102
RTVSPost2010PropOp45
 70
     1
102
RTVSPost2010Prop46
 90
       50
102
RTVSPost2010PropOp46
 70
     1
102
RTVSPost2010Prop47
 90
       50
102
RTVSPost2010PropOp47
 70
     1
102
RTVSPost2010Prop48
 90
       50
102
RTVSPost2010PropOp48
 70
     1
102
RTVSPost2010Prop49
280
     0
102
RTVSPost2010PropOp49
 70
     1
102
RTVSPost2010Prop50
 90
       50
102
RTVSPost2010PropOp50
 70
     1
102
RTVSPost2010Prop51ColorIndex
 90
      256
102
RTVSPost2010Prop51ColorRGB
 90
-16777216
102
RTVSPost2010PropOp51
 70
     0
102
RTVSPost2010Prop52
140
1.0
102
RTVSPost2010PropOp52
 70
     0
102
RTVSPost2010Prop53
 90
        2
102
RTVSPost2010PropOp53
 70
     1
102
RTVSPost2010Prop54
  1
strokes_ogs.tif
102
RTVSPost2010PropOp54
 70
     1
102
RTVSPost2010Prop55
280
     0
102
RTVSPost2010PropOp55
 70
     1
102
RTVSPost2010Prop56
140
1.0
102
RTVSPost2010PropOp56
 70
     1
102
RTVSPost2010Prop57
140
1.0
102
RTVSPost2010PropOp57
 70
     1
102
RTVSPropertyOp0
 70
     1
102
RTVSPropertyOp1
 70
     1
102
RTVSPropertyOp2
 70
     1
102
RTVSPropertyOp3
 70
     1
102
RTVSPropertyOp4
 70
     1
102
RTVSPropertyOp5
 70
     1
102
RTVSPropertyOp6
 70
     1
102
RTVSPropertyOp7
 70
     1
102
RTVSPropertyOp8
 70
     1
102
RTVSPropertyOp9
 70
     1
102
RTVSPropertyOp10
 70
     1
102
RTVSPropertyOp11
 70
     1
102
RTVSPropertyOp12
 70
     1
102
RTVSPropertyOp13
 70
     1
102
RTVSPropertyOp14
 70
     1
102
RTVSPropertyOp15
 70
     1
102
RTVSPropertyOp16
 70
     1
102
RTVSPropertyOp17
 70
     1
102
RTVSPropertyOp18
 70
     1
102
RTVSPropertyOp19
 70
     1
102
RTVSPropertyOp20
 70
     1
102
RTVSPropertyOp21
 70
     1
102
RTVSPropertyOp22
 70
     1
102
RTVSPropertyOp23
 70
     1
102
RTVSPropertyOp24
 70
     1
102
RTVSPropertyOp25
 70
     1
102
RTVSPropertyOp26
 70
     1
102
RTVSPropertyOp27
 70
     1
102
RTVSPropertyOp28
 70
     1
102
RTVSPropertyOp29
 70
     1
102
RTVSPropertyOp30
 70
     1
102
RTVSPropertyOp31
 70
     1
102
RTVSPropertyOp32
 70
     1
102
RTVSPropertyOp33
 70
     1
102
RTVSPropertyOp34
 70
     1
102
RTVSPropertyOp35
 70
     1
102
RTVSPropertyOp36
 70
     1
102
RTVSPropertyOp37
 70
     1
102
RTVSPropertyOp38
 70
     1
102
RTVSPropertyOp39
 70
     1
102
RTVSPropertyOp40
 70
     1
102
RTVSPropertyOp41
 70
     1
102
RTVSPropertyOp42
 70
     1
102
RTVSPropertyOp43
 70
     1
102
RTVSPropertyOp44
 70
     1
102
RTVSPropertyOp45
 70
     1
102
RTVSPropertyOp46
 70
     1
102
RTVSPropertyOp47
 70
     1
102
RTVSPropertyOp48
 70
     1
102
RTVSPropertyOp49
 70
     1
102
RTVSPropertyOp50
 70
     1
102
RTVSPropertyOp51
 70
     0
102
RTVSPropertyOp52
 70
     0
102
RTVSPropertyOp53
 70
     1
102
RTVSPropertyOp54
 70
     1
102
RTVSPropertyOp55
 70
     1
102
RTVSPropertyOp56
 70
     1
102
RTVSPropertyOp57
 70
     1
102
RTVSPropertyOp58
 70
     1
102
RTVSPropertyOp59
 70
     1
102
RTVSPropertyOp60
 70
     1
102
RTVSPropertyOp61
 70
     1
102
RTVSPropertyOp62
 70
     1
  0
ENDSEC
  0
EOF
